osu file format v14

[General]
AudioFilename: audio.mp3
AudioLeadIn: 0
PreviewTime: 195791
Countdown: 0
SampleSet: Soft
StackLeniency: 0.7
Mode: 0
LetterboxInBreaks: 0
EpilepsyWarning: 1
WidescreenStoryboard: 1

[Editor]
Bookmarks: 43791,65458,67458,110468,281124
DistanceSpacing: 1.3
BeatDivisor: 4
GridSize: 4
TimelineZoom: 2.499999

[Metadata]
Title:Lost Within
TitleUnicode:Lost Within
Artist:A Himitsu
ArtistUnicode:A Himitsu
Creator:Wezeh
Version:Lonely
Source:
Tags:dnb drum and bass melodic liquid vocaloid hatsune miku instrumental Touhou Cosmolade
BeatmapID:1922594
BeatmapSetID:914120

[Difficulty]
HPDrainRate:5
CircleSize:4.2
OverallDifficulty:8.7
ApproachRate:9.3
SliderMultiplier:1.7
SliderTickRate:1

[Events]
//Background and Video events
0,0,"bg.jpg",0,0
//Break Periods
//Storyboard Layer 0 (Background)
//Storyboard Layer 1 (Fail)
//Storyboard Layer 2 (Pass)
//Storyboard Layer 3 (Foreground)
//Storyboard Layer 4 (Overlay)
//Storyboard Sound Samples

[TimingPoints]
1125,333.333333333333,4,2,5,70,1,0
1125,-153.846153846153,4,2,5,20,0,0
22458,-153.846153846153,4,2,5,20,0,0
43791,-100,4,2,5,30,0,0
65374,-133.333333333333,4,2,5,30,0,0
67458,-200,4,2,5,30,0,0
67708,-200,4,2,5,5,0,0
67791,-66.6666666666667,4,2,1,60,0,1
73958,-66.6666666666667,4,2,2,60,0,1
74124,-66.6666666666667,4,2,1,60,0,1
76624,-66.6666666666667,4,2,2,60,0,1
76791,-66.6666666666667,4,2,1,60,0,1
109124,-66.6666666666667,4,2,1,60,0,1
109458,-133.333333333333,4,2,1,60,0,1
109791,-100,4,2,1,60,0,1
110124,-80,4,2,1,60,0,1
110458,-250,4,2,5,30,0,0
110791,-250,4,2,5,20,0,0
125458,-250,4,2,5,5,0,0
125791,-250,4,2,5,20,0,0
126291,-250,4,2,5,5,0,0
126458,-250,4,2,5,40,0,0
174443,-100,4,2,5,30,0,0
195458,-181.818181818181,4,2,5,30,0,0
195791,-57.1428571428571,4,2,1,60,0,1
238458,-100,4,2,1,40,0,0
249109,-80,4,2,1,40,0,0
278458,-80,4,2,1,40,0,0
279124,-80,4,2,1,35,0,0
279791,-80,4,2,1,30,0,0
280458,-80,4,2,1,25,0,0
281124,-133.333333333333,4,2,5,20,0,0
281208,-133.333333333333,4,2,5,5,0,0
282458,-133.333333333333,4,2,6,20,0,0
282541,-133.333333333333,4,2,6,5,0,0
282624,-133.333333333333,4,2,5,5,0,0
283791,-133.333333333333,4,2,5,20,0,0
285208,-133.333333333333,4,2,5,5,0,0
285791,-133.333333333333,4,2,6,20,0,0
285874,-133.333333333333,4,2,5,5,0,0
286458,-133.333333333333,4,2,6,20,0,0
286541,-133.333333333333,4,2,5,5,0,0
287791,-133.333333333333,4,2,6,20,0,0
287874,-133.333333333333,4,2,5,5,0,0
290458,-133.333333333333,4,2,5,20,0,0
291874,-133.333333333333,4,2,5,5,0,0
293124,-133.333333333333,4,2,6,20,0,0
293208,-133.333333333333,4,2,5,20,0,0
293791,-133.333333333333,4,2,6,20,0,0
293874,-133.333333333333,4,2,5,5,0,0
294124,-133.333333333333,4,2,5,20,0,0
294458,-133.333333333333,4,2,5,20,0,0
295208,-133.333333333333,4,2,5,20,0,0
295791,-133.333333333333,4,2,6,20,0,0
295874,-133.333333333333,4,2,5,20,0,0
296458,-133.333333333333,4,2,6,20,0,0
296541,-133.333333333333,4,2,5,20,0,0
297124,-133.333333333333,4,2,6,20,0,0
297291,-133.333333333333,4,2,5,5,0,0
301124,-133.333333333333,4,2,5,20,0,0
302541,-133.333333333333,4,2,5,5,0,0
303708,-133.333333333333,4,2,5,5,0,0
303791,-133.333333333333,4,2,5,20,0,0
304458,-133.333333333333,4,2,5,5,0,0
305124,-133.333333333333,4,2,5,20,0,0
305208,-133.333333333333,4,2,5,5,0,0
306458,-133.333333333333,4,2,6,20,0,0
306541,-133.333333333333,4,2,5,5,0,0
307124,-133.333333333333,4,2,6,20,0,0
307208,-133.333333333333,4,2,5,5,0,0
307791,-133.333333333333,4,2,6,20,0,0
307874,-133.333333333333,4,2,5,5,0,0
308791,-133.333333333333,4,2,5,5,0,0
309124,-133.333333333333,4,2,5,20,0,0
309208,-133.333333333333,4,2,5,5,0,0
310124,-133.333333333333,4,2,5,5,0,0
311791,-133.333333333333,4,2,5,20,0,0
311874,-133.333333333333,4,2,5,5,0,0
312791,-133.333333333333,4,2,5,5,0,0
313124,-133.333333333333,4,2,5,20,0,0
313208,-133.333333333333,4,2,5,5,0,0
314458,-133.333333333333,4,2,6,20,0,0
314541,-133.333333333333,4,2,5,5,0,0
315124,-133.333333333333,4,2,6,20,0,0
315208,-133.333333333333,4,2,5,5,0,0
315791,-133.333333333333,4,2,5,20,0,0
317124,-133.333333333333,4,2,6,20,0,0
317208,-133.333333333333,4,2,5,20,0,0
317791,-133.333333333333,4,2,6,20,0,0
317874,-133.333333333333,4,2,5,20,0,0
318458,-133.333333333333,4,2,6,20,0,0
318541,-133.333333333333,4,2,5,5,0,0
322458,-133.333333333333,4,2,5,20,0,0
323791,335.195530726257,4,2,5,70,1,0
323791,-133.333333333333,4,2,5,35,0,0
323874,-133.333333333333,4,2,5,5,0,0
325131,-133.333333333333,4,2,6,20,0,0
325215,-133.333333333333,4,2,5,5,0,0
326472,-133.333333333333,4,2,6,20,0,0
326556,-133.333333333333,4,2,5,5,0,0
327813,-133.333333333333,4,2,6,20,0,0
327897,-133.333333333333,4,2,5,5,0,0
328483,-133.333333333333,4,2,6,20,0,0
328567,-133.333333333333,4,2,5,5,0,0
329154,-133.333333333333,4,2,6,20,0,0
329237,-133.333333333333,4,2,5,5,0,0
330494,-133.333333333333,4,2,5,5,0,0

[Colours]
Combo1 : 128,128,255
Combo2 : 206,206,206
Combo3 : 185,185,255
Combo4 : 176,98,255
Combo5 : 255,98,255
Combo6 : 128,255,255
Combo7 : 248,156,248
Combo8 : 95,207,231
SliderTrackOverride : 40,40,40

[HitObjects]
63,174,1125,6,0,L|82:304,1,110.499994941712,12|2,0:0|0:0,0:0:0:0:
155,130,1791,2,0,P|127:89|134:27,1,110.499994941712,2|2,0:0|0:0,0:0:0:0:
237,204,2791,1,2,0:0:0:0:
155,130,3124,2,0,P|127:89|132:29,1,110.499994941712,2|2,0:0|0:0,0:0:0:0:
261,96,3791,6,0,L|233:221,1,110.499994941712,4|2,0:3|0:0,0:0:0:0:
291,326,4458,2,0,P|299:271|356:233,1,110.499994941712,2|2,0:0|0:0,0:0:0:0:
420,204,5458,1,2,0:0:0:0:
291,326,5791,2,0,P|299:271|356:233,1,110.499994941712,2|2,0:0|0:0,0:0:0:0:
328,143,6458,6,0,L|298:16,1,110.499994941712,4|2,0:3|0:0,0:0:0:0:
194,125,7124,2,0,L|216:249,1,110.499994941712,2|2,0:0|0:0,0:0:0:0:
12,230,8124,5,2,0:0:0:0:
12,230,8458,2,0,L|31:121,1,110.499994941712,2|2,0:0|0:0,0:0:0:0:
122,344,9458,5,2,0:0:0:0:
122,344,9792,2,0,L|102:235,1,110.499994941712,2|2,0:0|0:0,0:0:0:0:
290,218,10791,5,2,0:0:0:0:
290,218,11124,2,0,L|309:326,1,110.499994941712,2|2,0:0|0:0,0:0:0:0:
398,130,11791,6,0,P|341:136|281:100,1,110.499994941712,12|2,0:0|0:0,0:0:0:0:
195,160,12458,2,0,L|203:47,1,110.499994941712,2|2,0:0|0:0,0:0:0:0:
195,160,13457,1,2,0:0:0:0:
103,220,13791,2,0,L|111:107,1,110.499994941712,2|2,0:0|0:0,0:0:0:0:
207,310,14458,6,0,P|150:304|90:340,1,110.499994941712,10|2,0:0|0:0,0:0:0:0:
301,279,15124,2,0,L|288:148,1,110.499994941712,2|2,0:0|0:0,0:0:0:0:
301,279,16123,1,2,0:0:0:0:
393,339,16458,2,0,L|385:226,1,110.499994941712,2|2,0:0|0:0,0:0:0:0:
376,110,17124,6,0,P|307:140|290:180,1,110.499994941712,10|2,0:0|0:0,0:0:0:0:
122,67,17791,2,0,L|245:78,1,110.499994941712,2|2,0:0|0:0,0:0:0:0:
122,67,18790,5,2,0:0:0:0:
182,164,19124,2,0,L|305:168,1,110.499994941712,2|2,0:0|0:0,0:0:0:0:
182,164,20124,5,2,0:0:0:0:
242,261,20458,2,0,L|365:265,1,110.499994941712,2|2,0:0|0:0,0:0:0:0:
242,261,21458,5,2,0:0:0:0:
197,354,21791,2,0,P|154:315|149:256,1,110.499994941712,2|2,0:0|0:0,0:0:0:0:
105,114,22458,6,0,L|71:238,1,110.499994941712,4|2,0:0|0:0,0:0:0:0:
40,54,23124,2,0,P|86:28|154:42,1,110.499994941712,2|2,0:0|0:0,0:0:0:0:
79,220,24124,1,2,0:0:0:0:
40,54,24458,2,0,P|86:28|154:42,1,110.499994941712,2|2,0:0|0:0,0:0:0:0:
187,275,25124,6,0,L|217:158,1,110.499994941712,4|2,0:3|0:0,0:0:0:0:
125,330,25790,2,0,P|170:359|239:342,1,110.499994941712,2|2,0:0|0:0,0:0:0:0:
214,167,26791,1,2,0:0:0:0:
123,332,27124,2,0,P|169:358|237:344,1,110.499994941712,2|2,0:0|0:0,0:0:0:0:
214,167,27791,6,0,L|185:284,1,110.499994941712,4|2,0:3|0:0,0:0:0:0:
219,25,28458,2,0,L|309:98,1,110.499994941712,2|2,0:0|0:0,0:0:0:0:
187,135,29124,6,0,P|127:136|71:95,1,110.499994941712,4|2,0:3|0:0,0:0:0:0:
176,244,29791,2,0,P|228:255|280:298,1,110.499994941712,2|2,0:0|0:0,0:0:0:0:
184,347,30791,5,2,0:0:0:0:
329,209,31124,1,2,0:0:0:0:
184,347,31458,1,2,0:0:0:0:
184,347,32124,5,2,0:0:0:0:
331,207,32458,2,0,L|455:227,1,110.499994941712,6|2,0:3|0:0,0:0:0:0:
273,69,33124,6,0,P|211:84|145:68,1,110.499994941712,12|2,0:0|0:0,0:0:0:0:
359,22,33791,1,2,0:0:0:0:
269,159,34124,1,2,0:0:0:0:
269,159,34791,5,2,0:0:0:0:
359,22,35124,1,2,0:0:0:0:
269,159,35458,1,2,0:0:0:0:
485,292,35791,6,0,L|453:169,1,110.499994941712,4|2,0:3|0:0,0:0:0:0:
430,93,36458,1,2,0:0:0:0:
330,290,36791,1,2,0:0:0:0:
330,290,37458,5,2,0:0:0:0:
431,93,37791,1,2,0:0:0:0:
331,291,38124,1,2,0:0:0:0:
279,105,38458,6,0,B|266:148|266:148|299:228,1,110.499994941712,4|2,0:3|0:0,0:0:0:0:
291,208,39124,1,2,0:0:0:0:
291,208,39458,1,2,0:0:0:0:
209,68,39791,6,0,P|253:33|325:44,1,110.499994941712,4|2,0:3|0:0,0:0:0:0:
404,69,40458,1,2,0:0:0:0:
291,208,40791,1,2,0:0:0:0:
291,208,41458,5,2,0:0:0:0:
404,69,41792,1,2,0:0:0:0:
291,208,42124,1,2,0:0:0:0:
431,304,42458,6,0,L|403:185,1,110.499994941712,4|2,0:3|0:0,0:0:0:0:
265,100,43124,2,0,L|293:219,1,110.499994941712,6|2,0:3|0:0,0:0:0:0:
294,342,43791,6,0,L|203:333,1,85,6|0,0:0|0:0,0:0:0:0:
294,342,44124,1,10,0:0:0:0:
158,217,44291,1,2,0:0:0:0:
169,176,44374,1,0,0:0:0:0:
192,140,44457,1,2,0:0:0:0:
225,114,44541,1,0,0:0:0:0:
265,100,44624,1,0,0:0:0:0:
294,342,44791,5,8,0:0:0:0:
252,220,44958,1,0,0:0:0:0:
128,348,45124,2,0,P|177:330|221:340,1,85
321,262,45458,6,0,P|277:250|242:188,1,85,10|0,0:0|0:0,0:0:0:0:
414,310,45791,2,0,P|388:345|321:357,1,85,2|0,0:0|0:0,0:0:0:0:
470,217,46124,2,0,P|509:268|511:308,1,85,10|0,0:0|0:0,0:0:0:0:
189,281,46458,5,2,0:0:0:0:
326,145,46624,1,0,0:0:0:0:
350,359,46791,1,10,0:0:0:0:
252,220,46958,1,2,0:0:0:0:
240,179,47041,1,0,0:0:0:0:
217,143,47124,1,2,0:0:0:0:
184,117,47208,1,0,0:0:0:0:
144,103,47291,1,0,0:0:0:0:
121,210,47458,5,8,0:0:0:0:
189,281,47624,1,0,0:0:0:0:
316,100,47791,2,0,P|358:69|405:65,1,85
318,207,48124,6,0,P|277:201|234:172,1,85,10|0,0:0|0:0,0:0:0:0:
411,297,48458,2,0,P|379:321|319:323,1,85,2|0,0:0|0:0,0:0:0:0:
506,243,48791,2,0,P|490:193|457:165,1,85,10|0,0:0|0:0,0:0:0:0:
325,144,49124,5,2,0:0:0:0:
325,144,49291,1,0,0:0:0:0:
467,171,49458,1,10,0:0:0:0:
317,39,49624,1,2,0:0:0:0:
282,51,49708,1,0,0:0:0:0:
247,63,49791,1,2,0:0:0:0:
212,76,49875,1,0,0:0:0:0:
177,88,49958,1,0,0:0:0:0:
117,261,50124,1,8,0:0:0:0:
0,184,50291,1,0,0:0:0:0:
177,333,50458,6,0,P|108:356|66:338,1,85,2|0,0:0|0:0,0:0:0:0:
278,224,50791,2,0,L|268:334,1,85,10|0,0:0|0:0,0:0:0:0:
141,107,51124,6,0,L|254:138,1,85,2|0,0:0|0:0,0:0:0:0:
386,86,51458,2,0,L|271:56,1,85,10|0,0:0|0:0,0:0:0:0:
278,224,51791,5,0,0:0:0:0:
278,224,51958,1,0,0:0:0:0:
455,266,52124,1,10,0:0:0:0:
386,86,52291,1,2,0:0:0:0:
278,224,52458,2,0,L|271:339,1,85,2|0,0:0|0:0,0:0:0:0:
245,133,52791,6,0,P|299:129|351:171,1,85,8|0,0:0|0:0,0:0:0:0:
390,202,53124,1,0,0:0:0:0:
390,202,53291,1,0,0:0:0:0:
159,139,53458,6,0,L|179:44,1,85,10|0,0:0|0:0,0:0:0:0:
80,228,53791,2,0,L|65:130,1,85,2|0,0:0|0:0,0:0:0:0:
158,342,54124,2,0,L|175:244,1,85,10|0,0:0|0:0,0:0:0:0:
176,55,54458,5,6,0:0:0:0:
176,55,54624,1,0,0:0:0:0:
80,228,54791,1,10,0:0:0:0:
306,153,54958,1,2,0:0:0:0:
310,189,55041,1,0,0:0:0:0:
314,226,55124,1,2,0:0:0:0:
318,263,55208,1,0,0:0:0:0:
322,300,55291,1,0,0:0:0:0:
372,101,55458,6,0,P|331:69|285:66,1,85,8|0,0:0|0:0,0:0:0:0:
221,178,55791,1,0,0:0:0:0:
221,178,55958,1,0,0:0:0:0:
454,128,56124,6,0,P|453:75|429:42,1,85,10|0,0:0|0:0,0:0:0:0:
299,64,56457,2,0,P|332:70|373:103,1,85,2|0,0:0|0:0,0:0:0:0:
299,154,56791,2,0,P|249:159|209:196,1,85,10|0,0:0|0:0,0:0:0:0:
341,339,57124,5,2,0:0:0:0:
341,339,57291,1,0,0:0:0:0:
278,234,57458,1,10,0:0:0:0:
172,324,57624,1,2,0:0:0:0:
135,328,57707,1,0,0:0:0:0:
98,332,57790,1,2,0:0:0:0:
61,337,57874,1,0,0:0:0:0:
24,341,57957,1,0,0:0:0:0:
88,133,58124,2,0,L|122:249,1,85,8|0,0:0|0:0,0:0:0:0:
157,46,58458,5,0,0:0:0:0:
157,46,58624,1,0,0:0:0:0:
194,196,58791,6,0,L|75:222,1,85,10|0,0:0|0:0,0:0:0:0:
345,152,59124,2,0,L|249:127,1,85,2|0,0:0|0:0,0:0:0:0:
437,222,59458,2,0,L|319:252,1,85,10|0,0:0|0:0,0:0:0:0:
334,57,59791,5,2,0:0:0:0:
334,57,59958,1,0,0:0:0:0:
354,242,60124,1,10,0:0:0:0:
262,130,60291,1,2,0:0:0:0:
224,131,60374,1,0,0:0:0:0:
187,132,60457,1,2,0:0:0:0:
150,133,60541,1,0,0:0:0:0:
113,134,60624,1,0,0:0:0:0:
16,216,60791,5,8,0:0:0:0:
172,40,60958,1,0,0:0:0:0:
181,228,61124,6,0,L|160:327,1,85,2|0,0:0|0:0,0:0:0:0:
39,307,61458,2,0,L|87:416,1,85,10|0,0:0|0:0,0:0:0:0:
251,147,61791,6,0,L|280:244,1,85,2|0,0:0|0:0,0:0:0:0:
399,224,62125,2,0,L|359:331,1,85,10|0,0:0|0:0,0:0:0:0:
355,108,62458,5,0,0:0:0:0:
355,108,62624,1,0,0:0:0:0:
276,229,62791,2,0,L|233:230,1,42.5,10|0,0:0|0:0,0:0:0:0:
135,290,62958,2,0,L|176:299,1,42.5,2|0,0:0|0:0,0:0:0:0:
56,122,63124,6,8,L|37:322,1,170,2|8,0:0|0:0,0:0:0:0:
180,82,63624,1,0,0:0:0:0:
90,20,63791,1,0,0:0:0:0:
90,20,63874,1,0,0:0:0:0:
90,20,63958,1,0,0:0:0:0:
144,206,64124,6,0,L|132:325,1,85,10|0,0:0|0:0,0:0:0:0:
180,82,64458,2,0,P|225:106|246:168,1,85,2|0,0:0|0:0,0:0:0:0:
90,20,64791,2,0,P|132:-5|261:22,1,170,10|0,0:0|0:0,0:0:0:0:
339,266,65458,5,2,0:0:0:0:
241,134,65624,1,2,0:0:0:0:
339,266,65791,1,2,0:0:0:0:
120,331,66791,5,2,0:0:0:0:
69,242,67124,1,2,0:0:0:0:
120,331,67458,2,8,L|194:326,1,63.75,2|8,0:0|0:0,0:0:0:0:
191,240,67791,6,0,P|129:226|54:247,1,127.500004863739,6|4,0:0|0:3,0:0:0:0:
48,206,68041,1,0,0:0:0:0:
48,206,68124,6,0,L|52:118,1,63.7500024318696,10|0,0:0|0:0,0:0:0:0:
174,45,68291,2,0,L|170:126,1,63.7500024318696,2|0,0:0|0:0,0:0:0:0:
191,240,68458,2,0,P|260:249|334:220,1,127.500004863739,2|4,0:0|0:3,0:0:0:0:
315,346,68791,1,8,0:0:0:0:
296,133,68958,1,0,0:0:0:0:
296,133,69041,1,4,0:3:0:0:
296,133,69124,1,4,0:3:0:0:
183,326,69291,1,0,0:0:0:0:
196,157,69458,6,0,P|119:185|103:245,1,127.500004863739,10|0,0:0|0:0,0:0:0:0:
296,133,69791,2,0,P|288:71|238:34,1,127.500004863739,2|4,0:0|0:3,0:0:0:0:
324,246,70124,2,0,P|394:232|435:176,1,127.500004863739,10|0,0:0|0:0,0:0:0:0:
339,307,70458,6,0,L|320:229,1,63.7500024318696,6|0,0:3|0:0,0:0:0:0:
222,213,70624,2,0,L|209:148,1,63.7500024318696,4|0,0:3|0:0,0:0:0:0:
335,154,70791,1,10,0:0:0:0:
249,301,70958,1,2,0:0:0:0:
91,133,71124,6,0,P|152:122|233:185,1,127.500004863739,2|4,0:0|0:3,0:0:0:0:
172,384,71458,2,0,P|135:351|135:266,1,127.500004863739,8|0,0:0|0:0,0:0:0:0:
368,306,71791,5,4,0:3:0:0:
368,306,71874,1,0,0:0:0:0:
368,306,71958,1,4,0:3:0:0:
296,132,72124,6,0,P|355:144|394:221,1,127.500004863739,10|0,0:0|0:0,0:0:0:0:
227,85,72458,2,0,P|274:50|361:72,1,127.500004863739,2|4,0:0|0:3,0:0:0:0:
153,138,72791,2,0,P|134:79|186:7,1,127.500004863739,10|0,0:0|0:0,0:0:0:0:
296,132,73041,1,0,0:0:0:0:
296,132,73124,6,0,L|299:243,1,63.7500024318696,6|0,0:3|0:0,0:0:0:0:
238,353,73291,2,0,L|221:262,1,63.7500024318696,4|0,0:3|0:0,0:0:0:0:
208,207,73458,1,10,0:0:0:0:
252,47,73624,1,2,0:0:0:0:
252,47,73708,1,0,0:0:0:0:
252,47,73791,6,0,B|321:26|364:65|364:65|437:126|535:58,1,255.000009727478,2|8,0:0|0:0,0:0:0:0:
297,195,74291,1,0,0:0:0:0:
73,296,74458,6,0,P|132:287|218:318,1,127.500004863739,6|4,0:3|0:3,0:0:0:0:
367,368,74791,2,0,P|308:359|222:390,1,127.500004863739,10|0,0:0|0:0,0:0:0:0:
239,80,75124,6,0,L|208:208,1,127.500004863739,2|4,0:0|0:3,0:0:0:0:
155,30,75458,2,0,P|322:48|321:129,1,255.000009727478,10|4,0:0|0:3,0:0:0:0:
321,265,75958,1,4,0:3:0:0:
321,265,76041,1,0,0:0:0:0:
321,265,76124,6,0,L|327:166,1,63.7500024318696,10|0,0:0|0:0,0:0:0:0:
239,79,76291,2,0,L|216:173,1,63.7500024318696,2|0,0:0|0:0,0:0:0:0:
275,357,76458,6,0,P|423:287|391:188,1,255.000009727478,2|8,0:0|0:0,0:0:0:0:
174,289,76958,1,0,0:0:0:0:
174,289,77041,1,0,0:0:0:0:
174,289,77124,6,0,L|21:290,1,127.500004863739,6|4,0:3|0:3,0:0:0:0:
241,222,77458,6,0,P|269:308|237:351,1,127.500004863739,10|0,0:0|0:0,0:0:0:0:
243,130,77791,2,0,P|303:143|336:197,1,127.500004863739,2|4,0:0|0:3,0:0:0:0:
190,62,78124,2,0,P|277:37|319:67,1,127.500004863739,10|0,0:0|0:0,0:0:0:0:
345,260,78458,6,0,L|335:187,1,63.7500024318696,6|0,0:0|0:0,0:0:0:0:
436,64,78624,2,0,L|426:138,1,63.7500024318696,4|0,0:3|0:0,0:0:0:0:
426,218,78791,1,10,0:0:0:0:
304,52,78958,5,2,0:0:0:0:
264,32,79041,1,0,0:0:0:0:
217,34,79124,1,2,0:0:0:0:
177,42,79207,1,0,0:0:0:0:
142,70,79291,1,4,0:3:0:0:
170,217,79458,2,0,P|235:241|318:182,1,127.500004863739,8|0,0:0|0:0,0:0:0:0:
232,131,79791,1,4,0:3:0:0:
70,341,79958,5,4,0:3:0:0:
70,341,80124,2,0,L|64:199,1,127.500004863739,10|0,0:0|0:0,0:0:0:0:
168,143,80458,2,0,L|174:271,1,127.500004863739,2|4,0:0|0:3,0:0:0:0:
296,384,80791,2,0,L|301:256,1,127.500004863739,10|0,0:0|0:0,0:0:0:0:
269,133,81124,5,6,0:3:0:0:
195,44,81291,1,4,0:3:0:0:
142,242,81458,5,10,0:0:0:0:
175,271,81541,1,0,0:0:0:0:
223,284,81624,1,2,0:0:0:0:
261,278,81707,1,0,0:0:0:0:
300,256,81791,1,2,0:0:0:0:
227,155,81958,1,4,0:3:0:0:
49,242,82124,6,0,P|63:296|171:339,1,127.500004863739,8|0,0:0|0:0,0:0:0:0:
175,271,82458,1,4,0:3:0:0:
175,271,82624,1,4,0:3:0:0:
413,229,82791,6,0,P|360:177|269:187,1,127.500004863739,10|0,0:0|0:0,0:0:0:0:
118,339,83124,2,0,P|177:359|266:297,1,127.500004863739,2|0,0:0|0:0,0:0:0:0:
155,50,83458,2,0,P|138:118|177:187,1,127.500004863739,10|0,0:0|0:0,0:0:0:0:
351,327,83791,6,0,L|323:254,1,63.7500024318696,6|0,0:3|0:0,0:0:0:0:
431,73,83958,2,0,L|419:160,1,63.7500024318696,4|0,0:3|0:0,0:0:0:0:
413,229,84124,1,10,0:0:0:0:
331,125,84291,5,2,0:0:0:0:
287,136,84374,1,0,0:0:0:0:
244,147,84457,1,2,0:0:0:0:
201,158,84540,1,0,0:0:0:0:
158,169,84624,1,4,0:3:0:0:
106,274,84791,2,0,L|246:245,1,127.500004863739,8|0,0:0|0:0,0:0:0:0:
70,70,85124,6,0,P|5:124|10:195,1,127.500004863739,6|4,0:3|0:3,0:0:0:0:
153,81,85458,2,0,P|114:3|36:6,1,127.500004863739,10|0,0:0|0:0,0:0:0:0:
193,169,85791,2,0,P|245:102|225:34,1,127.500004863739,2|4,0:0|0:3,0:0:0:0:
111,182,86125,2,0,P|165:250|240:230,1,127.500004863739,10|0,0:0|0:0,0:0:0:0:
322,218,86458,5,4,0:3:0:0:
322,218,86624,1,4,0:3:0:0:
308,355,86791,1,10,0:0:0:0:
397,120,86958,1,2,0:0:0:0:
354,109,87042,1,0,0:0:0:0:
311,98,87124,1,2,0:0:0:0:
268,87,87208,1,0,0:0:0:0:
224,76,87291,1,4,0:3:0:0:
419,29,87458,2,0,P|477:58|490:141,1,127.500004863739,8|0,0:0|0:0,0:0:0:0:
438,282,87791,5,4,0:3:0:0:
438,282,87958,1,4,0:3:0:0:
266,300,88124,6,0,L|343:188,1,127.500004863739,10|0,0:0|0:0,0:0:0:0:
185,267,88458,2,0,P|175:323|227:386,1,127.500004863739,2|4,0:0|0:3,0:0:0:0:
198,175,88791,2,0,P|141:182|97:251,1,127.500004863739,10|0,0:0|0:0,0:0:0:0:
72,346,89124,5,6,0:0:0:0:
26,133,89291,1,4,0:3:0:0:
99,234,89458,1,10,0:0:0:0:
271,87,89624,5,2,0:0:0:0:
228,76,89708,1,0,0:0:0:0:
185,65,89791,1,2,0:0:0:0:
142,54,89874,1,0,0:0:0:0:
98,43,89957,1,4,0:3:0:0:
198,175,90124,6,0,B|179:230|179:230|212:306,1,127.500004863739,8|0,0:0|0:0,0:0:0:0:
265,360,90458,1,4,0:3:0:0:
265,360,90624,1,4,0:3:0:0:
280,141,90791,6,0,P|277:78|361:20,1,127.500004863739,10|0,0:0|0:0,0:0:0:0:
301,227,91124,2,0,P|238:220|192:129,1,127.500004863739,2|4,0:0|0:3,0:0:0:0:
393,241,91458,2,0,P|362:296|261:302,1,127.500004863739,10|0,0:0|0:0,0:0:0:0:
214,384,91791,5,6,0:3:0:0:
214,384,91958,1,4,0:3:0:0:
69,281,92124,1,10,0:0:0:0:
194,96,92291,5,2,0:0:0:0:
182,138,92375,1,0,0:0:0:0:
171,181,92458,1,2,0:0:0:0:
160,224,92541,1,0,0:0:0:0:
149,268,92624,1,4,0:3:0:0:
116,57,92791,6,0,P|161:17|268:48,1,127.500004863739,8|0,0:0|0:0,0:0:0:0:
308,101,93124,1,4,0:3:0:0:
308,101,93291,1,4,0:3:0:0:
171,181,93458,6,0,L|27:210,1,127.500004863739,10|0,0:0|0:0,0:0:0:0:
308,101,93791,2,0,L|447:137,1,127.500004863739,2|4,0:0|0:3,0:0:0:0:
289,275,94124,2,0,L|109:318,1,127.500004863739,10|0,0:0|0:0,0:0:0:0:
171,181,94458,6,0,L|154:92,1,63.7500024318696,6|0,0:3|0:0,0:0:0:0:
308,101,94624,2,0,L|309:168,1,63.7500024318696,4|0,0:3|0:0,0:0:0:0:
289,275,94791,1,10,0:0:0:0:
65,149,94958,5,2,0:0:0:0:
67,104,95041,1,0,0:0:0:0:
86,64,95124,1,2,0:0:0:0:
120,35,95207,1,0,0:0:0:0:
163,25,95291,1,4,0:3:0:0:
164,304,95458,2,0,P|97:282|66:222,1,127.500004863739,8|0,0:0|0:0,0:0:0:0:
308,101,95791,6,0,L|433:73,1,127.500004863739,6|4,0:3|0:3,0:0:0:0:
512,208,96124,2,0,L|395:158,1,127.500004863739,10|0,0:0|0:0,0:0:0:0:
288,274,96458,2,0,L|413:246,1,127.500004863739,2|4,0:0|0:3,0:0:0:0:
461,384,96791,2,0,L|339:335,1,127.500004863739,10|0,0:0|0:0,0:0:0:0:
88,294,97124,6,0,L|105:355,1,63.7500024318696,4|0,0:3|0:0,0:0:0:0:
205,302,97291,2,0,L|215:239,1,63.7500024318696,4|0,0:3|0:0,0:0:0:0:
164,154,97458,1,10,0:0:0:0:
342,336,97624,1,2,0:0:0:0:
384,322,97707,1,0,0:0:0:0:
427,308,97790,1,2,0:0:0:0:
468,294,97873,1,0,0:0:0:0:
511,280,97957,1,4,0:3:0:0:
318,87,98124,6,0,L|318:240,1,127.500004863739,8|0,0:0|0:0,0:0:0:0:
215,239,98458,2,0,L|227:302,1,63.7500024318696,4|0,0:3|0:0,0:0:0:0:
163,154,98624,2,0,L|198:100,1,63.7500024318696,4|0,0:3|0:0,0:0:0:0:
248,35,98791,6,0,P|304:5|404:35,1,127.500004863739,10|4,0:0|0:3,0:0:0:0:
63,97,99124,2,0,P|84:38|138:7,1,127.500004863739,2|4,0:0|0:3,0:0:0:0:
143,284,99458,2,0,P|88:251|62:150,1,127.500004863739,10|4,0:0|0:3,0:0:0:0:
163,154,99791,6,0,L|245:143,1,63.7500024318696,6|0,0:0|0:0,0:0:0:0:
366,189,99958,2,0,L|290:210,1,63.7500024318696,4|0,0:3|0:0,0:0:0:0:
216,240,100124,1,10,0:0:0:0:
341,12,100291,1,2,0:0:0:0:
347,56,100375,1,0,0:0:0:0:
353,100,100458,1,2,0:0:0:0:
359,144,100541,1,0,0:0:0:0:
366,189,100624,1,4,0:3:0:0:
466,152,100791,6,0,B|479:95|479:95|444:10,1,127.500004863739,8|0,0:0|0:0,0:0:0:0:
228,40,101124,1,4,0:3:0:0:
228,40,101291,1,4,0:3:0:0:
211,163,101458,6,0,P|150:140|116:51,1,127.500004863739,10|0,0:0|0:0,0:0:0:0:
222,251,101791,2,0,P|283:228|303:135,1,127.500004863739,2|4,0:0|0:3,0:0:0:0:
216,350,102124,2,0,P|157:329|126:275,1,127.500004863739,10|0,0:0|0:0,0:0:0:0:
368,277,102458,6,0,L|400:334,1,63.7500024318696,6|0,0:3|0:0,0:0:0:0:
455,239,102624,2,0,L|452:154,1,63.7500024318696,4|0,0:3|0:0,0:0:0:0:
408,73,102791,1,10,0:0:0:0:
308,174,102958,1,2,0:0:0:0:
263,169,103042,1,0,0:0:0:0:
219,164,103125,1,2,0:0:0:0:
175,159,103208,1,0,0:0:0:0:
130,155,103291,1,4,0:3:0:0:
288,54,103458,6,0,B|347:82|347:82|425:64,1,127.500004863739,8|0,0:0|0:0,0:0:0:0:
308,174,103791,1,4,0:3:0:0:
308,174,103958,1,4,0:3:0:0:
314,274,104124,6,0,L|153:290,1,127.500004863739,10|0,0:0|0:0,0:0:0:0:
308,174,104458,2,0,P|374:203|396:292,1,127.500004863739,2|4,0:0|0:3,0:0:0:0:
470,204,104791,2,0,P|440:150|385:113,1,127.500004863739,10|0,0:0|0:0,0:0:0:0:
215,115,105124,6,0,L|317:90,1,63.7500024318696,6|0,0:3|0:0,0:0:0:0:
197,13,105291,2,0,L|105:9,1,63.7500024318696,4|0,0:3|0:0,0:0:0:0:
74,95,105458,1,10,0:0:0:0:
137,284,105624,5,2,0:0:0:0:
176,304,105707,1,0,0:0:0:0:
219,313,105790,1,2,0:0:0:0:
264,309,105873,1,0,0:0:0:0:
305,293,105957,1,4,0:3:0:0:
120,196,106124,6,0,P|49:236|39:303,1,127.500004863739,8|0,0:0|0:0,0:0:0:0:
74,95,106458,1,6,0:3:0:0:
74,95,106624,1,4,0:3:0:0:
235,73,106791,6,0,L|282:204,1,127.500004863739,10|0,0:0|0:0,0:0:0:0:
390,4,107124,2,0,L|344:135,1,127.500004863739,2|4,0:0|0:3,0:0:0:0:
497,216,107458,2,0,L|453:95,1,127.500004863739,10|0,0:0|0:0,0:0:0:0:
360,216,107791,1,4,0:3:0:0:
360,216,107874,1,0,0:0:0:0:
360,216,107958,1,4,0:3:0:0:
172,70,108124,6,0,L|178:134,1,63.7500024318696,10|0,0:0|0:0,0:0:0:0:
69,180,108291,2,0,L|95:253,1,63.7500024318696,2|0,0:0|0:0,0:0:0:0:
135,332,108458,1,2,0:0:0:0:
135,332,108541,1,0,0:0:0:0:
135,332,108624,1,0,0:0:0:0:
319,183,108791,2,0,P|247:180|182:147,1,127.500004863739,10|0,0:0|0:0,0:0:0:0:
242,285,109124,5,4,0:3:0:0:
242,285,109291,1,4,0:3:0:0:
9,185,109458,6,0,L|19:260,1,63.7500024318696,8|0,0:0|0:0,0:0:0:0:
133,106,109791,2,0,L|143:193,1,85,2|0,0:0|0:0,0:0:0:0:
267,25,110124,2,0,L|281:149,1,106.25,10|0,0:0|0:0,0:0:0:0:
374,262,110458,5,14,0:0:0:0:
280,335,110791,1,2,0:0:0:0:
250,217,111124,1,2,0:0:0:0:
376,42,111458,6,0,P|366:108|392:178,1,136,2|0,0:0|0:0,0:0:0:0:
248,150,112458,2,0,P|254:181|247:226,1,68,2|0,0:0|0:0,0:0:0:0:
402,235,113124,5,10,0:0:0:0:
305,335,113458,1,2,0:0:0:0:
249,216,113791,1,2,0:0:0:0:
305,335,114124,5,2,0:0:0:0:
402,235,114458,2,0,L|413:309,1,68,2|0,0:0|0:0,0:0:0:0:
473,156,115124,2,0,P|443:133|425:106,1,68,2|0,0:0|0:0,0:0:0:0:
251,46,115791,6,0,P|260:132|186:217,1,204,2|0,0:0|0:0,0:0:0:0:
128,319,117124,6,0,P|208:288|309:337,1,204,2|0,0:0|0:0,0:0:0:0:
52,42,119791,6,0,P|93:71|109:93,1,68,2|0,0:0|0:0,0:0:0:0:
305,142,120458,2,0,P|264:171|257:186,1,68,2|0,0:0|0:0,0:0:0:0:
146,234,121124,5,10,0:0:0:0:
275,306,121458,1,2,0:0:0:0:
306,141,121791,1,2,0:0:0:0:
450,269,122124,6,0,P|390:292|347:355,1,136,2|0,0:0|0:0,0:0:0:0:
278,201,123124,2,0,P|297:177|307:131,1,68,2|0,0:0|0:0,0:0:0:0:
121,61,123791,5,10,0:0:0:0:
146,227,124124,1,2,0:0:0:0:
306,141,124458,1,2,0:0:0:0:
146,227,124791,1,2,0:0:0:0:
376,194,125124,6,0,P|407:169|417:137,1,68,2|0,0:0|0:0,0:0:0:0:
168,106,125791,2,0,L|189:215,1,102,2|0,0:0|0:0,0:0:0:0:
11,62,126458,6,0,B|107:88|109:-14|208:28,1,204,2|0,0:0|0:0,0:0:0:0:
343,250,127791,2,0,B|247:224|247:322|146:284,1,204,2|0,0:0|0:0,0:0:0:0:
183,37,131124,6,0,P|224:46|254:66,1,68,2|0,0:0|0:0,0:0:0:0:
344,180,131791,6,0,P|338:234|360:322,1,136,14|2,0:0|0:0,0:0:0:0:
246,60,132791,2,0,P|252:135|233:198,1,136,2|0,0:0|0:0,0:0:0:0:
189,274,133791,2,0,L|269:284,1,68,2|0,0:0|0:0,0:0:0:0:
344,180,134458,5,10,0:0:0:0:
257,283,134791,1,2,0:0:0:0:
164,174,135124,1,2,0:0:0:0:
164,174,135458,1,2,0:0:0:0:
344,180,135791,6,0,P|318:136|313:112,1,68,2|0,0:0|0:0,0:0:0:0:
180,108,136458,2,0,P|173:149|158:186,1,68,2|0,0:0|0:0,0:0:0:0:
58,214,137124,6,0,P|166:279|234:251,1,204,10|0,0:0|0:0,0:0:0:0:
373,73,138458,2,0,P|350:108|369:267,1,204,2|0,0:0|0:0,0:0:0:0:
258,355,141124,5,2,0:0:0:0:
152,267,141791,5,2,0:0:0:0:
257,187,142458,5,14,0:0:0:0:
428,113,142791,1,2,0:0:0:0:
372,278,143125,1,2,0:0:0:0:
143,171,143458,6,0,P|166:101|228:59,1,136,2|0,0:0|0:0,0:0:0:0:
46,146,144458,2,0,L|56:224,1,68,2|0,0:0|0:0,0:0:0:0:
112,48,145125,5,10,0:0:0:0:
282,97,145458,1,2,0:0:0:0:
154,204,145791,1,2,0:0:0:0:
154,204,146124,1,2,0:0:0:0:
375,181,146458,6,0,P|337:200|302:199,1,68,2|0,0:0|0:0,0:0:0:0:
473,212,147124,2,0,L|481:136,1,68,2|0,0:0|0:0,0:0:0:0:
475,30,147791,6,0,P|395:76|280:54,1,204,10|0,0:0|0:0,0:0:0:0:
113,49,149124,2,0,P|146:100|125:247,1,204,2|0,0:0|0:0,0:0:0:0:
102,324,151791,5,2,0:0:0:0:
188,247,152458,5,2,0:0:0:0:
400,238,153124,5,14,0:0:0:0:
314,325,153457,1,2,0:0:0:0:
276,222,153791,2,0,P|285:180|273:146,1,68,2|0,0:0|0:0,0:0:0:0:
170,108,154458,6,0,P|190:88|228:73,1,68,2|0,0:0|0:0,0:0:0:0:
107,182,155124,2,0,P|87:154|80:119,1,68,2|0,0:0|0:0,0:0:0:0:
212,236,155790,5,10,0:0:0:0:
322,321,156124,1,2,0:0:0:0:
370,197,156457,1,2,0:0:0:0:
322,321,156790,5,2,0:0:0:0:
213,238,157124,2,0,L|229:305,1,68,2|0,0:0|0:0,0:0:0:0:
149,135,157791,2,0,L|133:202,1,68,2|0,0:0|0:0,0:0:0:0:
255,37,158457,5,10,0:0:0:0:
334,134,158791,1,2,0:0:0:0:
430,70,159124,5,2,0:0:0:0:
331,258,159458,1,2,0:0:0:0:
439,233,159791,5,2,0:0:0:0:
230,267,160125,1,2,0:0:0:0:
285,366,160458,5,2,0:0:0:0:
195,173,160792,1,2,0:0:0:0:
336,267,161124,5,2,0:0:0:0:
336,267,161458,1,2,0:0:0:0:
259,102,161791,5,2,0:0:0:0:
128,187,162124,1,2,0:0:0:0:
155,69,162458,5,10,0:0:0:0:
173,280,162791,1,2,0:0:0:0:
59,288,163124,5,2,0:0:0:0:
266,337,163457,1,2,0:0:0:0:
266,170,163791,2,0,L|186:151,1,68,14|0,0:0|0:0,0:0:0:0:
305,53,164458,5,2,0:0:0:0:
266,170,164791,1,2,0:0:0:0:
374,166,165124,5,10,0:0:0:0:
219,248,165458,1,2,0:0:0:0:
347,288,165791,5,10,0:0:0:0:
115,268,166124,1,2,0:0:0:0:
297,181,166458,2,0,L|377:200,1,68,10|0,0:0|0:0,0:0:0:0:
246,315,167125,5,10,0:0:0:0:
297,181,167458,1,2,0:0:0:0:
138,218,167791,5,10,0:0:0:0:
288,94,168125,1,2,0:0:0:0:
174,72,168458,5,10,0:0:0:0:
374,125,168791,1,2,0:0:0:0:
385,304,169124,6,0,L|414:231,1,68,10|0,0:0|0:0,0:0:0:0:
322,230,169791,5,2,0:0:0:0:
277,323,170124,1,2,0:0:0:0:
205,157,170458,5,2,0:0:0:0:
146,271,170791,1,2,0:0:0:0:
108,75,171124,5,2,0:0:0:0:
39,193,171458,1,2,0:0:0:0:
205,157,171791,5,2,0:0:0:0:
205,157,172124,1,2,0:0:0:0:
322,154,172458,5,2,0:0:0:0:
277,61,172791,1,2,0:0:0:0:
212,240,173125,5,10,0:0:0:0:
139,92,173458,1,2,0:0:0:0:
108,309,173791,5,2,0:0:0:0:
0,131,174125,1,2,0:0:0:0:
125,203,174458,5,6,0:0:0:0:
125,203,174624,1,0,0:0:0:0:
201,326,174791,1,8,0:0:0:0:
276,234,174958,1,0,0:0:0:0:
282,205,175041,1,0,0:0:0:0:
289,176,175124,1,2,0:0:0:0:
296,147,175208,1,0,0:0:0:0:
302,118,175291,1,0,0:0:0:0:
421,85,175458,6,0,L|399:173,1,85,8|0,0:0|0:0,0:0:0:0:
380,261,175791,1,2,0:0:0:0:
380,261,175958,1,0,0:0:0:0:
491,179,176124,1,8,0:0:0:0:
342,39,176291,5,0,0:0:0:0:
342,39,176374,1,0,0:0:0:0:
342,39,176458,1,2,0:0:0:0:
400,167,176624,1,0,0:0:0:0:
302,118,176791,2,0,L|191:142,1,85,8|0,0:0|0:0,0:0:0:0:
161,225,177124,6,0,L|203:216,1,42.5,2|0,0:0|0:0,0:0:0:0:
75,175,177291,2,0,L|34:185,1,42.5
77,281,177458,1,8,0:0:0:0:
160,150,177624,1,0,0:0:0:0:
189,142,177707,1,0,0:0:0:0:
218,135,177791,1,2,0:0:0:0:
247,128,177874,1,0,0:0:0:0:
276,120,177957,1,0,0:0:0:0:
300,211,178124,2,0,L|281:330,1,85,8|0,0:0|0:0,0:0:0:0:
438,200,178458,5,2,0:0:0:0:
438,200,178624,1,0,0:0:0:0:
387,315,178791,1,8,0:0:0:0:
300,211,178958,1,0,0:0:0:0:
300,211,179042,1,0,0:0:0:0:
300,211,179125,5,2,0:0:0:0:
387,315,179291,1,0,0:0:0:0:
300,211,179458,2,0,P|250:205|196:232,1,85,8|0,0:0|0:0,0:0:0:0:
131,355,179791,5,2,0:0:0:0:
232,300,179958,1,0,0:0:0:0:
139,172,180124,2,0,L|131:285,1,85,8|0,0:0|0:0,0:0:0:0:
131,355,180374,1,0,0:0:0:0:
131,355,180458,1,2,0:0:0:0:
53,243,180624,1,0,0:0:0:0:
75,115,180791,6,0,L|154:186,1,85,8|0,0:0|0:0,0:0:0:0:
236,165,181041,1,0,0:0:0:0:
236,165,181124,1,2,0:0:0:0:
158,63,181291,1,0,0:0:0:0:
53,243,181458,2,0,P|88:257|144:251,1,85,8|0,0:0|0:0,0:0:0:0:
236,165,181708,1,0,0:0:0:0:
236,165,181791,1,2,0:0:0:0:
234,295,181958,1,0,0:0:0:0:
236,165,182124,2,0,P|284:132|338:131,1,85,8|0,0:0|0:0,0:0:0:0:
419,262,182458,5,2,0:0:0:0:
309,127,182624,1,0,0:0:0:0:
419,262,182791,2,0,P|373:253|331:215,1,85,8|0,0:0|0:0,0:0:0:0:
507,205,183041,1,0,0:0:0:0:
507,205,183124,6,0,P|522:292|460:364,1,170,2|8,0:0|0:0,0:0:0:0:
419,262,183624,1,0,0:0:0:0:
400,140,183791,5,2,0:0:0:0:
400,140,183958,1,0,0:0:0:0:
290,117,184124,1,8,0:0:0:0:
314,221,184291,5,0,0:0:0:0:
314,221,184374,1,0,0:0:0:0:
314,221,184458,1,2,0:0:0:0:
419,262,184624,1,0,0:0:0:0:
298,354,184791,2,0,P|269:322|214:300,1,85,8|0,0:0|0:0,0:0:0:0:
129,239,185124,5,2,0:0:0:0:
235,202,185291,1,0,0:0:0:0:
154,125,185458,2,0,P|85:128|43:159,1,85,8|0,0:0|0:0,0:0:0:0:
167,27,185708,1,0,0:0:0:0:
167,27,185791,5,2,0:0:0:0:
154,125,185958,1,0,0:0:0:0:
167,27,186124,2,0,P|204:40|270:27,1,85,8|0,0:0|0:0,0:0:0:0:
343,68,186458,5,2,0:0:0:0:
343,68,186624,1,0,0:0:0:0:
301,237,186791,2,0,P|287:200|304:134,1,85,8|0,0:0|0:0,0:0:0:0:
385,154,187041,1,0,0:0:0:0:
385,154,187124,5,2,0:0:0:0:
301,237,187291,1,0,0:0:0:0:
370,363,187457,2,0,L|393:281,1,85,8|0,0:0|0:0,0:0:0:0:
202,324,187791,5,2,0:0:0:0:
202,324,187958,1,0,0:0:0:0:
309,191,188124,2,0,L|406:184,1,85,8|0,0:0|0:0,0:0:0:0:
282,90,188374,5,0,0:0:0:0:
282,90,188458,1,2,0:0:0:0:
309,191,188624,1,0,0:0:0:0:
282,90,188791,2,0,P|245:42|193:31,1,85,8|0,0:0|0:0,0:0:0:0:
174,128,189124,5,2,0:0:0:0:
282,90,189291,1,0,0:0:0:0:
174,128,189458,2,0,L|58:151,1,85,8|0,0:0|0:0,0:0:0:0:
50,47,189708,1,0,0:0:0:0:
50,47,189791,5,2,0:0:0:0:
90,144,189958,1,0,0:0:0:0:
50,47,190124,2,0,L|168:41,1,85,8|0,0:0|0:0,0:0:0:0:
223,33,190458,5,2,0:0:0:0:
223,33,190625,1,0,0:0:0:0:
59,227,190792,2,0,P|99:240|142:237,1,85,8|0,0:0|0:0,0:0:0:0:
209,196,191041,1,0,0:0:0:0:
209,196,191125,5,2,0:0:0:0:
117,123,191292,1,0,0:0:0:0:
155,335,191458,2,0,P|192:322|258:335,1,85,8|0,0:0|0:0,0:0:0:0:
353,315,191792,5,2,0:0:0:0:
353,315,191958,1,0,0:0:0:0:
297,171,192125,2,0,L|264:284,1,85,8|0,0:0|0:0,0:0:0:0:
383,180,192374,1,0,0:0:0:0:
383,180,192458,5,2,0:0:0:0:
199,175,192624,1,0,0:0:0:0:
316,7,192791,2,0,L|339:88,1,85,8|0,0:0|0:0,0:0:0:0:
190,38,193124,5,2,0:0:0:0:
190,38,193292,1,0,0:0:0:0:
297,171,193458,2,0,L|394:178,1,85,8|0,0:0|0:0,0:0:0:0:
270,272,193708,1,0,0:0:0:0:
270,272,193792,5,2,0:0:0:0:
297,171,193958,1,0,0:0:0:0:
270,272,194125,2,0,P|233:320|181:331,1,85,8|0,0:0|0:0,0:0:0:0:
78,217,194458,5,2,0:0:0:0:
297,171,194625,1,0,0:0:0:0:
78,217,194792,2,0,L|162:234,1,85,8|0,0:0|0:0,0:0:0:0:
120,324,195041,1,0,0:0:0:0:
120,324,195125,5,2,0:0:0:0:
184,141,195292,1,0,0:0:0:0:
120,324,195458,2,0,L|60:309,1,46.7500014266968,8|0,0:0|0:0,0:0:0:0:
162,234,195791,6,0,L|248:252,1,74.3750007092953,6|0,0:0|0:0,0:0:0:0:
357,126,195958,2,0,L|280:133,1,74.3750007092953,4|0,0:3|0:0,0:0:0:0:
184,141,196124,1,8,0:0:0:0:
411,212,196291,5,0,0:0:0:0:
437,176,196374,1,0,0:0:0:0:
448,133,196457,1,2,0:0:0:0:
441,90,196541,1,0,0:0:0:0:
418,52,196624,1,4,0:3:0:0:
137,59,196791,2,0,P|87:102|127:223,1,148.750001418591,8|0,0:0|0:0,0:0:0:0:
353,192,197124,5,6,0:3:0:0:
184,141,197291,1,4,0:3:0:0:
353,192,197458,2,0,P|276:188|194:266,1,148.750001418591,8|0,0:0|0:0,0:0:0:0:
217,275,197708,1,0,0:0:0:0:
217,275,197791,2,0,P|245:315|285:328,1,74.3750007092953,2|0,0:0|0:0,0:0:0:0:
435,237,197958,2,4,P|445:191|430:137,1,74.3750007092953,4|0,0:3|0:0,0:3:0:0:
137,59,198124,2,0,P|87:102|127:223,1,148.750001418591,8|0,0:0|0:0,0:0:0:0:
47,294,198458,6,0,L|121:282,1,74.3750007092953,6|0,0:3|0:0,0:0:0:0:
291,140,198624,2,0,L|214:128,1,74.3750007092953,4|0,0:3|0:0,0:0:0:0:
367,351,198791,2,0,P|429:302|424:214,1,148.750001418591,8|0,0:0|0:0,0:0:0:0:
291,140,199124,5,2,0:0:0:0:
291,140,199207,1,0,0:0:0:0:
291,140,199291,1,4,0:3:0:0:
378,31,199458,2,0,B|292:11|292:11|210:51,1,148.750001418591,8|0,0:0|0:0,0:0:0:0:
78,140,199791,6,0,L|124:203,1,74.3750007092953,6|0,0:3|0:0,0:0:0:0:
95,331,199958,2,0,L|33:249,1,74.3750007092953,4|0,0:3|0:0,0:0:0:0:
24,53,200124,2,0,P|76:35|171:100,1,148.750001418591,8|0,0:0|0:0,0:0:0:0:
204,88,200374,1,0,0:0:0:0:
204,88,200458,2,0,L|193:173,1,74.3750007092953,2|0,0:0|0:0,0:0:0:0:
302,111,200624,2,0,L|311:18,1,74.3750007092953,4|0,0:3|0:0,0:0:0:0:
78,140,200791,2,0,B|34:197|34:197|52:289,1,148.750001418591,8|0,0:0|0:0,0:0:0:0:
185,295,201124,6,0,L|199:369,1,74.3750007092953,6|0,0:3|0:0,0:0:0:0:
294,275,201291,2,0,L|239:204,1,74.3750007092953,4|0,0:3|0:0,0:0:0:0:
194,161,201458,1,8,0:0:0:0:
392,213,201624,5,0,0:0:0:0:
384,169,201707,1,0,0:0:0:0:
375,125,201790,1,2,0:0:0:0:
366,81,201874,1,0,0:0:0:0:
357,38,201957,1,4,0:3:0:0:
176,64,202124,1,8,0:0:0:0:
248,216,202291,1,0,0:0:0:0:
425,220,202458,5,6,0:3:0:0:
417,176,202541,1,0,0:0:0:0:
408,132,202624,1,4,0:3:0:0:
143,220,202791,2,0,P|166:282|248:303,1,148.750001418591,8|0,0:0|0:0,0:0:0:0:
386,287,203124,5,2,0:0:0:0:
378,243,203207,1,0,0:0:0:0:
369,199,203290,1,4,0:3:0:0:
74,289,203458,2,0,P|100:355|170:375,1,148.750001418591,8|0,0:0|0:0,0:0:0:0:
97,128,203791,6,0,L|24:146,1,74.3750007092953,6|0,0:3|0:0,0:0:0:0:
106,43,203958,2,0,L|179:30,1,74.3750007092953,4|0,0:3|0:0,0:0:0:0:
319,83,204124,2,0,L|169:117,1,148.750001418591,8|0,0:0|0:0,0:0:0:0:
408,55,204458,6,0,P|373:159|330:168,1,148.750001418591,2|4,0:0|0:3,0:0:0:0:
437,217,204791,2,0,P|362:260|302:244,1,148.750001418591,8|0,0:0|0:0,0:0:0:0:
221,173,205041,1,0,0:0:0:0:
221,173,205124,6,0,L|213:165|160:99,1,74.3750007092953,6|0,0:3|0:0,0:0:0:0:
54,86,205291,2,0,L|97:148,1,74.3750007092953,4|0,0:3|0:0,0:0:0:0:
271,94,205458,2,0,P|220:28|125:35,1,148.750001418591,8|0,0:0|0:0,0:0:0:0:
131,210,205791,6,0,L|139:218|190:282,1,74.3750007092953,2|0,0:0|0:0,0:0:0:0:
316,310,205958,2,0,L|263:259,1,74.3750007092953,4|0,0:3|0:0,0:0:0:0:
87,292,206125,2,0,P|131:349|228:342,1,148.750001418591,8|0,0:0|0:0,0:0:0:0:
316,310,206458,6,0,L|263:259,1,74.3750007092953,6|0,0:0|0:0,0:0:0:0:
309,177,206624,2,0,L|225:175,1,74.3750007092953,4|0,0:3|0:0,0:0:0:0:
131,210,206791,1,8,0:0:0:0:
411,136,206958,5,0,0:0:0:0:
437,171,207041,1,0,0:0:0:0:
448,214,207124,1,2,0:0:0:0:
441,257,207208,1,0,0:0:0:0:
418,295,207291,1,4,0:3:0:0:
182,317,207458,2,0,P|259:340|339:252,1,148.750001418591,8|0,0:0|0:0,0:0:0:0:
353,156,207791,5,6,0:3:0:0:
245,251,207958,1,4,0:3:0:0:
353,156,208125,2,0,P|276:160|188:88,1,148.750001418591,8|0,0:0|0:0,0:0:0:0:
227,86,208375,1,0,0:0:0:0:
227,86,208458,2,0,L|232:2,1,74.3750007092953,2|0,0:0|0:0,0:0:0:0:
355,81,208624,2,0,L|352:187,1,74.3750007092953,4|0,0:3|0:0,0:0:0:0:
361,318,208791,2,0,P|275:298|242:215,1,148.750001418591,8|0,0:0|0:0,0:0:0:0:
169,193,209125,6,0,L|96:181,1,74.3750007092953,6|0,0:3|0:0,0:0:0:0:
226,86,209291,2,0,L|300:73,1,74.3750007092953,4|0,0:3|0:0,0:0:0:0:
482,248,209458,2,0,B|413:221|413:221|331:239,1,148.750001418591,8|0,0:0|0:0,0:0:0:0:
441,12,209791,5,2,0:0:0:0:
457,54,209874,1,0,0:0:0:0:
475,95,209957,1,4,0:3:0:0:
367,148,210124,2,0,P|298:123|233:153,1,148.750001418591,8|0,0:0|0:0,0:0:0:0:
78,201,210458,6,0,L|126:134,1,74.3750007092953,6|0,0:3|0:0,0:0:0:0:
112,1,210625,2,0,L|45:89,1,74.3750007092953,4|0,0:3|0:0,0:0:0:0:
0,324,210791,2,0,P|48:308|154:344,1,148.750001418591,8|0,0:0|0:0,0:0:0:0:
151,250,211041,1,0,0:0:0:0:
151,250,211124,6,0,P|192:257|227:247,1,74.3750007092953,2|0,0:0|0:0,0:0:0:0:
294,200,211291,2,0,P|320:175|361:151,1,74.3750007092953,4|0,0:3|0:0,0:0:0:0:
468,49,211457,2,0,P|387:57|305:1,1,148.750001418591,8|0,0:0|0:0,0:0:0:0:
286,10,211707,5,0,0:0:0:0:
286,10,211791,2,0,L|288:91,1,74.3750007092953,6|0,0:3|0:0,0:0:0:0:
193,177,211958,2,0,L|195:97,1,74.3750007092953,4|0,0:3|0:0,0:0:0:0:
148,254,212124,2,0,P|228:253|277:198,1,148.750001418591,8|0,0:0|0:0,0:0:0:0:
352,153,212458,5,2,0:0:0:0:
448,216,212624,1,4,0:3:0:0:
352,153,212791,2,0,P|408:107|514:124,1,148.750001418591,8|0,0:0|0:0,0:0:0:0:
320,38,213124,5,6,0:3:0:0:
352,153,213290,1,4,0:3:0:0:
320,38,213458,2,0,P|257:32|179:112,1,148.750001418591,8|0,0:0|0:0,0:0:0:0:
118,193,213791,5,2,0:0:0:0:
75,91,213957,1,4,0:3:0:0:
118,193,214124,2,0,P|181:209|285:120,1,148.750001418591,8|0,0:0|0:0,0:0:0:0:
336,126,214458,6,0,L|357:206,1,74.3750007092953,6|0,0:3|0:0,0:0:0:0:
429,299,214624,2,0,L|437:212,1,74.3750007092953,4|0,0:3|0:0,0:0:0:0:
429,129,214791,1,8,0:0:0:0:
244,300,214958,5,0,0:0:0:0:
199,306,215041,1,0,0:0:0:0:
155,313,215124,1,2,0:0:0:0:
111,319,215208,1,0,0:0:0:0:
67,326,215291,1,4,0:3:0:0:
254,92,215458,6,0,P|289:53|410:72,1,148.750001418591,8|0,0:0|0:0,0:0:0:0:
360,195,215791,2,0,L|339:119,1,74.3750007092953,6|0,0:3|0:0,0:0:0:0:
448,227,215958,2,0,L|427:303,1,74.3750007092953,4|0,0:3|0:0,0:0:0:0:
192,241,216124,6,0,P|265:245|356:312,1,148.750001418591,8|0,0:0|0:0,0:0:0:0:
94,208,216458,2,0,L|117:282,1,74.3750007092953,2|0,0:0|0:0,0:0:0:0:
11,189,216625,2,0,L|30:117,1,74.3750007092953,4|0,0:3|0:0,0:0:0:0:
260,162,216791,2,0,P|188:161|128:84,1,148.750001418591,8|0,0:0|0:0,0:0:0:0:
243,63,217124,6,0,L|349:46,1,74.3750007092953,6|0,0:0|0:0,0:0:0:0:
450,99,217291,2,0,L|355:131,1,74.3750007092953,4|0,0:3|0:0,0:0:0:0:
260,162,217458,1,8,0:0:0:0:
446,280,217624,5,0,0:0:0:0:
404,295,217707,1,0,0:0:0:0:
363,311,217790,1,2,0:0:0:0:
321,327,217874,1,0,0:0:0:0:
280,344,217957,1,4,0:3:0:0:
148,169,218124,2,0,P|172:231|273:257,1,148.750001418591,8|0,0:0|0:0,0:0:0:0:
260,162,218458,5,6,0:3:0:0:
148,169,218624,1,4,0:3:0:0:
260,162,218791,2,0,P|208:71|150:62,1,148.750001418591,8|0,0:0|0:0,0:0:0:0:
364,39,219124,5,2,0:0:0:0:
260,162,219291,1,4,0:3:0:0:
364,39,219458,2,0,B|352:83|352:83|379:204,1,148.750001418591,8|0,0:0|0:0,0:0:0:0:
347,332,219791,6,0,L|387:255,1,74.3750007092953,6|0,0:3|0:0,0:0:0:0:
259,163,219958,2,0,L|287:232,1,74.3750007092953,4|0,0:3|0:0,0:0:0:0:
198,326,220124,1,8,0:0:0:0:
265,36,220291,5,0,0:0:0:0:
309,41,220374,1,0,0:0:0:0:
353,47,220457,1,2,0:0:0:0:
397,53,220541,1,0,0:0:0:0:
442,58,220624,1,4,0:3:0:0:
227,207,220791,6,0,B|166:222|166:222|59:184,1,148.750001418591,8|0,0:0|0:0,0:0:0:0:
8,66,221124,2,0,L|37:163,1,74.3750007092953,6|0,0:3|0:0,0:0:0:0:
110,83,221291,2,0,L|148:9,1,74.3750007092953,4|0,0:3|0:0,0:0:0:0:
258,62,221458,6,0,L|228:207,1,148.750001418591,8|0,0:0|0:0,0:0:0:0:
259,231,221708,1,0,0:0:0:0:
259,231,221791,6,0,L|358:229,1,74.3750007092953,2|0,0:0|0:0,0:0:0:0:
443,142,221958,2,0,L|354:146,1,74.3750007092953,4|0,0:3|0:0,0:0:0:0:
160,312,222124,2,0,B|183:343|183:343|307:337,1,148.750001418591,8|0,0:0|0:0,0:0:0:0:
81,220,222458,6,0,L|3:248,1,74.3750007092953,6|0,0:3|0:0,0:0:0:0:
72,133,222624,2,0,L|154:107,1,74.3750007092953,4|0,0:3|0:0,0:0:0:0:
0,72,222791,1,8,0:0:0:0:
175,32,222958,5,0,0:0:0:0:
219,37,223041,1,0,0:0:0:0:
263,43,223124,1,2,0:0:0:0:
307,49,223208,1,0,0:0:0:0:
352,54,223291,1,4,0:3:0:0:
342,245,223458,2,0,L|425:113,1,148.750001418591,8|0,0:0|0:0,0:0:0:0:
270,139,223791,5,6,0:3:0:0:
342,245,223958,1,4,0:3:0:0:
270,139,224124,2,0,P|195:157|110:104,1,148.750001418591,8|0,0:0|0:0,0:0:0:0:
118,90,224374,1,0,0:0:0:0:
118,90,224458,2,0,L|25:86,1,74.3750007092953,2|0,0:0|0:0,0:0:0:0:
4,190,224624,2,0,L|104:193,1,74.3750007092953,4|0,0:3|0:0,0:0:0:0:
191,275,224791,2,0,P|125:276|57:367,1,148.750001418591,8|0,0:0|0:0,0:0:0:0:
153,363,225124,6,0,L|239:366,1,74.3750007092953,6|0,0:3|0:0,0:0:0:0:
270,207,225291,2,0,L|350:251,1,74.3750007092953,4|0,0:3|0:0,0:0:0:0:
440,161,225458,1,8,0:0:0:0:
286,83,225624,5,0,0:0:0:0:
242,88,225707,1,0,0:0:0:0:
198,94,225790,1,2,0:0:0:0:
154,100,225874,1,0,0:0:0:0:
109,105,225957,1,4,0:3:0:0:
401,31,226124,2,0,B|376:94|376:94|397:194,1,148.750001418591,8|0,0:0|0:0,0:0:0:0:
450,329,226458,6,0,L|339:306,1,74.3750007092953,6|0,0:3|0:0,0:0:0:0:
221,245,226624,2,0,L|332:229,1,74.3750007092953,4|0,0:3|0:0,0:0:0:0:
194,341,226791,2,0,P|118:355|39:304,1,148.750001418591,8|0,0:0|0:0,0:0:0:0:
35,164,227124,6,0,L|55:247,1,74.3750007092953,2|0,0:0|0:0,0:0:0:0:
146,148,227291,2,0,L|94:88,1,74.3750007092953,4|0,0:3|0:0,0:0:0:0:
187,48,227458,2,0,P|264:65|349:35,1,148.750001418591,8|0,0:0|0:0,0:0:0:0:
244,327,227791,6,0,L|343:343,1,74.3750007092953,6|0,0:0|0:0,0:0:0:0:
423,222,227958,2,0,L|325:244,1,74.3750007092953,4|0,0:3|0:0,0:0:0:0:
260,222,228125,1,8,0:0:0:0:
455,93,228291,5,0,0:0:0:0:
413,78,228374,1,0,0:0:0:0:
372,62,228457,1,2,0:0:0:0:
330,46,228541,1,0,0:0:0:0:
289,29,228624,1,4,0:3:0:0:
150,209,228791,2,0,P|174:147|272:123,1,148.750001418591,8|0,0:0|0:0,0:0:0:0:
260,222,229125,5,6,0:3:0:0:
150,209,229291,1,4,0:3:0:0:
260,222,229458,2,0,P|208:313|146:318,1,148.750001418591,8|0,0:0|0:0,0:0:0:0:
353,337,229791,5,2,0:0:0:0:
260,222,229958,1,4,0:3:0:0:
353,337,230125,2,0,L|384:178,1,148.750001418591,8|0,0:0|0:0,0:0:0:0:
330,46,230458,6,0,L|374:123,1,74.3750007092953,6|0,0:3|0:0,0:0:0:0:
231,195,230625,2,0,L|263:128,1,74.3750007092953,4|0,0:3|0:0,0:0:0:0:
198,58,230791,1,8,0:0:0:0:
259,342,230958,5,0,0:0:0:0:
303,337,231041,1,0,0:0:0:0:
347,331,231124,1,2,0:0:0:0:
391,325,231208,1,0,0:0:0:0:
436,320,231291,1,4,0:3:0:0:
232,196,231458,6,0,B|205:211|205:211|78:177,1,148.750001418591,8|0,0:0|0:0,0:0:0:0:
0,309,231791,2,0,L|20:235,1,74.3750007092953,6|0,0:3|0:0,0:0:0:0:
119,304,231958,2,0,L|132:388,1,74.3750007092953,4|0,0:3|0:0,0:0:0:0:
259,342,232125,6,0,L|231:195,1,148.750001418591,8|0,0:0|0:0,0:0:0:0:
259,153,232375,1,0,0:0:0:0:
259,153,232458,6,0,L|359:152,1,74.3750007092953,2|0,0:0|0:0,0:0:0:0:
430,248,232625,2,0,L|347:229,1,74.3750007092953,4|0,0:3|0:0,0:0:0:0:
160,71,232791,2,0,B|183:40|183:40|310:49,1,148.750001418591,8|0,0:0|0:0,0:0:0:0:
85,140,233125,6,0,L|9:113,1,74.3750007092953,6|0,0:3|0:0,0:0:0:0:
66,227,233291,2,0,L|150:252,1,74.3750007092953,4|0,0:3|0:0,0:0:0:0:
160,71,233458,1,8,0:0:0:0:
274,327,233625,5,0,0:0:0:0:
229,332,233708,1,0,0:0:0:0:
185,338,233792,1,2,0:0:0:0:
141,344,233875,1,0,0:0:0:0:
97,349,233958,1,4,0:3:0:0:
342,139,234125,2,0,P|406:178|401:291,1,148.750001418591,8|0,0:0|0:0,0:0:0:0:
285,250,234458,5,6,0:3:0:0:
342,139,234625,1,4,0:3:0:0:
285,250,234791,2,0,P|201:218|112:263,1,148.750001418591,8|0,0:0|0:0,0:0:0:0:
75,297,235041,1,0,0:0:0:0:
75,297,235124,2,0,L|-10:346,1,74.3750007092953,2|0,0:0|0:0,0:0:0:0:
140,359,235291,2,0,L|208:315,1,74.3750007092953,4|0,0:3|0:0,0:0:0:0:
147,232,235458,2,0,P|65:166|59:92,1,148.750001418591,8|0,0:0|0:0,0:0:0:0:
163,118,235791,6,0,L|246:119,1,74.3750007092953,6|0,0:3|0:0,0:0:0:0:
263,210,235958,2,0,L|340:164,1,74.3750007092953,4|0,0:3|0:0,0:0:0:0:
367,74,236125,1,8,0:0:0:0:
286,301,236291,5,0,0:0:0:0:
242,296,236374,1,0,0:0:0:0:
198,290,236457,1,2,0:0:0:0:
154,284,236541,1,0,0:0:0:0:
109,279,236624,1,4,0:3:0:0:
398,354,236791,2,0,B|364:281|364:281|386:197,1,148.750001418591,8|0,0:0|0:0,0:0:0:0:
441,66,237125,6,0,L|339:78,1,74.3750007092953,6|0,0:3|0:0,0:0:0:0:
243,139,237291,2,0,L|351:153,1,74.3750007092953,4|0,0:3|0:0,0:0:0:0:
224,52,237458,2,0,P|150:34|45:82,1,148.750001418591,8|0,0:0|0:0,0:0:0:0:
43,218,237791,6,0,L|64:133,1,74.3750007092953,2|0,0:0|0:0,0:0:0:0:
152,236,237958,2,0,L|99:295,1,74.3750007092953,4|0,0:3|0:0,0:0:0:0:
187,336,238125,2,0,P|259:346|339:295,1,148.750001418591,8|0,0:0|0:0,0:0:0:0:
243,139,238458,6,0,L|241:262,1,85,6|0,0:0|0:0,0:0:0:0:
377,173,238791,1,8,0:0:0:0:
196,55,238958,1,0,0:0:0:0:
196,55,239041,1,0,0:0:0:0:
196,55,239124,2,0,L|131:74,1,42.5
16,25,239291,2,0,L|74:8,1,42.5
73,98,239458,6,0,P|90:133|65:231,1,127.5,8|0,0:0|0:0,0:0:0:0:
108,306,239791,2,0,L|159:299,1,42.5,2|0,0:0|0:0,0:0:0:0:
189,229,239958,2,0,L|260:218,1,42.5
222,326,240124,1,8,0:0:0:0:
289,114,240291,5,0,0:0:0:0:
299,157,240374,1,0,0:0:0:0:
310,200,240457,1,0,0:0:0:0:
321,242,240541,1,0,0:0:0:0:
332,286,240624,1,0,0:0:0:0:
332,45,240791,2,0,P|269:34|230:58,1,85,8|0,0:0|0:0,0:0:0:0:
427,116,241124,6,0,P|458:87|500:81,1,85,2|0,0:0|0:0,0:0:0:0:
483,225,241458,1,8,0:0:0:0:
332,45,241624,5,0,0:0:0:0:
290,60,241707,1,0,0:0:0:0:
249,77,241790,1,0,0:0:0:0:
209,94,241874,1,0,0:0:0:0:
167,111,241957,1,0,0:0:0:0:
265,182,242124,2,0,L|377:129,1,85,8|0,0:0|0:0,0:0:0:0:
452,155,242458,6,0,L|434:99,1,42.5,2|0,0:0|0:0,0:0:0:0:
498,56,242624,2,0,L|469:5,1,42.5,0|0,0:0|0:0,0:0:0:0:
506,239,242791,2,0,P|466:257|393:243,1,85,8|0,0:0|0:0,0:0:0:0:
315,208,243041,1,0,0:0:0:0:
315,208,243125,6,0,L|324:267,1,42.5,2|0,0:0|0:0,0:0:0:0:
224,277,243291,2,0,L|253:328,1,42.5
246,122,243458,2,0,P|286:104|359:118,1,85,8|0,0:0|0:0,0:0:0:0:
422,129,243791,6,0,P|417:73|458:21,1,85,2|0,0:0|0:0,0:0:0:0:
505,93,244124,1,8,0:0:0:0:
326,104,244291,1,0,0:0:0:0:
324,146,244374,1,0,0:0:0:0:
322,188,244457,1,0,0:0:0:0:
321,230,244540,1,0,0:0:0:0:
319,273,244624,1,0,0:0:0:0:
228,354,244791,2,0,L|234:233,1,85,8|0,0:0|0:0,0:0:0:0:
59,193,245124,6,0,L|52:309,1,85,2|0,0:0|0:0,0:0:0:0:
0,121,245458,1,8,0:0:0:0:
152,35,245625,1,0,0:0:0:0:
155,77,245708,1,0,0:0:0:0:
158,119,245791,1,0,0:0:0:0:
162,162,245875,1,0,0:0:0:0:
165,204,245958,1,0,0:0:0:0:
282,203,246124,6,0,P|247:239|247:307,1,85,8|0,0:0|0:0,0:0:0:0:
344,314,246458,2,0,L|329:263,1,42.5
410,231,246624,2,0,L|425:180,1,42.5,0|0,0:0|0:0,0:0:0:0:
358,130,246791,1,8,0:0:0:0:
239,271,246958,5,0,0:0:0:0:
196,277,247041,1,0,0:0:0:0:
154,283,247124,1,0,0:0:0:0:
112,290,247208,1,0,0:0:0:0:
71,296,247291,1,0,0:0:0:0:
248,64,247458,6,0,L|235:182,1,85,8|0,0:0|0:0,0:0:0:0:
145,71,247791,2,0,L|123:22,1,42.5,2|0,0:0|0:0,0:0:0:0:
50,162,247958,2,0,L|84:106,1,42.5,0|0,0:0|0:0,0:0:0:0:
28,49,248124,1,8,0:0:0:0:
71,296,248291,5,0,0:0:0:0:
113,290,248374,1,0,0:0:0:0:
155,283,248458,1,0,0:0:0:0:
197,277,248541,1,0,0:0:0:0:
240,271,248624,1,0,0:0:0:0:
323,361,248791,2,0,P|261:357|216:380,1,85,8|0,0:0|0:0,0:0:0:0:
327,165,249124,6,0,P|380:164|438:122,1,106.25,2|0,0:0|0:0,0:0:0:0:
322,271,249458,1,8,0:0:0:0:
424,137,249624,1,0,0:0:0:0:
424,137,249708,1,0,0:0:0:0:
424,137,249791,2,0,L|421:203,1,53.125
498,303,249958,2,0,L|506:219,1,53.125
477,49,250124,2,0,P|420:34|352:77,1,106.25,8|0,0:0|0:0,0:0:0:0:
242,80,250458,6,0,L|161:81,1,53.125,2|0,0:0|0:0,0:0:0:0:
274,157,250624,2,0,L|361:169,1,53.125
86,93,250791,1,8,0:0:0:0:
132,214,250958,5,0,0:0:0:0:
132,214,251041,1,0,0:0:0:0:
132,214,251124,2,0,L|110:140,1,53.125,2|0,0:0|0:0,0:0:0:0:
190,300,251291,2,0,L|205:224,1,53.125
286,322,251458,2,0,P|330:318|416:356,1,106.25,8|0,0:0|0:0,0:0:0:0:
41,179,251791,6,0,P|51:120|117:87,1,106.25,2|0,0:0|0:0,0:0:0:0:
231,70,252124,2,0,L|161:74,1,53.125,8|0,0:0|0:0,0:0:0:0:
248,161,252291,1,0,0:0:0:0:
248,161,252374,1,0,0:0:0:0:
248,161,252458,2,0,B|283:173|314:162|314:162|357:203|357:203|390:186|456:202,1,212.5,2|8,0:0|0:0,0:0:0:0:
402,105,252958,1,0,0:0:0:0:
402,105,253041,1,0,0:0:0:0:
402,105,253124,6,0,P|394:79|464:124,1,212.5,2|8,0:0|0:0,0:0:0:0:
460,335,253624,1,0,0:0:0:0:
460,335,253708,1,0,0:0:0:0:
460,335,253791,2,0,P|364:282|351:378,1,212.5,2|8,0:0|0:0,0:0:0:0:
178,354,254291,1,0,0:0:0:0:
198,135,254458,6,0,P|140:94|57:101,1,106.25,2|0,0:0|0:0,0:0:0:0:
225,44,254791,2,0,P|280:45|331:16,1,106.25,8|0,0:0|0:0,0:0:0:0:
402,86,255041,1,0,0:0:0:0:
402,86,255124,2,0,L|353:119,1,53.125
288,182,255291,2,0,L|337:215,1,53.125
414,295,255458,2,0,P|349:311|314:371,1,106.25,8|0,0:0|0:0,0:0:0:0:
85,328,255791,6,0,L|153:325,1,53.125
89,247,255958,2,0,L|23:248,1,53.125
195,257,256124,2,0,P|223:299|202:385,1,106.25,8|0,0:0|0:0,0:0:0:0:
324,339,256374,5,0,0:0:0:0:
324,339,256458,2,0,L|300:257,1,53.125
334,158,256624,2,0,L|331:220,1,53.125
275,85,256791,2,0,P|325:64|398:95,1,106.25,8|0,0:0|0:0,0:0:0:0:
212,161,257124,6,0,L|154:154,1,53.125
115,69,257291,2,0,L|39:63,1,53.125
93,252,257458,2,0,L|226:263,1,106.25,8|0,0:0|0:0,0:0:0:0:
289,280,257708,5,0,0:0:0:0:
289,280,257791,2,0,L|297:353,1,53.125
385,244,257958,2,0,L|389:179,1,53.125
212,161,258124,2,0,P|193:201|228:299,1,106.25,8|0,0:0|0:0,0:0:0:0:
251,83,258458,6,0,P|211:74|162:84,1,53.125,2|0,0:0|0:0,0:0:0:0:
295,161,258624,2,0,P|319:141|346:88,1,53.125
385,244,258791,6,0,P|301:279|247:268,1,106.25,8|0,0:0|0:0,0:0:0:0:
381,350,259041,1,0,0:0:0:0:
381,350,259124,2,0,P|405:340|442:288,1,53.125
468,215,259291,2,0,P|444:179|399:160,1,53.125
332,124,259458,6,0,P|336:77|249:99,1,159.375,8|0,0:0|0:0,0:0:0:0:
165,99,259791,6,0,P|130:115|37:108,1,106.25,2|0,0:0|0:0,0:0:0:0:
193,199,260124,1,8,0:0:0:0:
37,200,260291,2,0,L|92:243,1,53.125
93,331,260458,1,0,0:0:0:0:
93,331,260541,2,0,L|148:288,1,53.125
230,308,260791,2,0,P|277:282|377:288,1,106.25,8|0,0:0|0:0,0:0:0:0:
328,137,261124,6,0,P|266:122|215:61,1,106.25,2|0,0:0|0:0,0:0:0:0:
460,38,261458,1,8,0:0:0:0:
449,160,261624,2,0,L|394:117,1,53.125
358,26,261791,1,0,0:0:0:0:
358,26,261874,2,0,L|303:69,1,53.125
234,95,262124,2,0,P|182:78|98:101,1,106.25,8|0,0:0|0:0,0:0:0:0:
75,174,262458,2,0,P|32:133|28:75,1,106.25,2|0,0:0|0:0,0:0:0:0:
12,242,262791,1,8,0:0:0:0:
131,83,262958,5,0,0:0:0:0:
131,83,263041,1,0,0:0:0:0:
131,83,263124,2,0,L|150:154,1,53.125,0|0,0:0|0:0,0:0:0:0:
243,165,263291,2,0,L|228:238,1,53.125,0|0,0:0|0:0,0:0:0:0:
132,336,263458,2,0,P|208:319|271:359,1,106.25,8|0,0:0|0:0,0:0:0:0:
332,149,263791,6,0,P|292:89|228:70,1,106.25,2|0,0:0|0:0,0:0:0:0:
377,237,264124,1,8,0:0:0:0:
490,173,264291,2,0,L|435:130,1,53.125
434,42,264458,1,2,0:0:0:0:
434,42,264541,2,0,L|379:85,1,53.125
264,75,264791,2,0,L|116:94,1,106.25,8|0,0:0|0:0,0:0:0:0:
100,261,265124,6,0,L|41:186,1,53.125,2|0,0:0|0:0,0:0:0:0:
201,264,265291,2,0,L|259:208,1,53.125,0|0,0:0|0:0,0:0:0:0:
151,344,265458,1,8,0:0:0:0:
169,140,265624,6,0,L|153:67,1,53.125
41,52,265791,1,0,0:0:0:0:
41,52,265874,2,0,L|53:104,1,53.125
137,229,266124,2,0,P|184:241|253:216,1,106.25,8|0,0:0|0:0,0:0:0:0:
317,74,266458,6,0,L|256:39,1,53.125,2|0,0:0|0:0,0:0:0:0:
414,45,266624,2,0,L|480:76,1,53.125,0|0,0:0|0:0,0:0:0:0:
252,132,266791,1,8,0:0:0:0:
366,162,266958,6,0,L|382:235,1,53.125
463,180,267124,1,0,0:0:0:0:
463,180,267208,2,0,L|479:253,1,53.125
349,304,267458,2,0,P|299:290|208:319,1,106.25,8|0,0:0|0:0,0:0:0:0:
80,200,267791,6,0,L|-2:221,1,53.125
150,90,267958,2,0,L|70:107,1,53.125,0|0,0:0|0:0,0:0:0:0:
69,307,268124,1,8,0:0:0:0:
150,90,268291,1,0,0:0:0:0:
186,83,268374,1,0,0:0:0:0:
223,76,268457,1,0,0:0:0:0:
259,69,268540,1,0,0:0:0:0:
296,63,268624,1,0,0:0:0:0:
265,237,268791,6,0,P|211:233|140:273,1,106.25,8|0,0:0|0:0,0:0:0:0:
360,239,269124,6,0,L|343:157,1,53.125,2|0,0:0|0:0,0:0:0:0:
240,372,269291,2,0,L|230:307,1,53.125,0|0,0:0|0:0,0:0:0:0:
333,330,269458,1,8,0:0:0:0:
225,141,269624,1,0,0:0:0:0:
188,147,269707,1,0,0:0:0:0:
151,154,269790,1,0,0:0:0:0:
115,161,269873,1,0,0:0:0:0:
78,167,269957,1,0,0:0:0:0:
208,53,270124,2,0,P|262:54|306:124,1,106.25,8|0,0:0|0:0,0:0:0:0:
160,278,270458,6,0,P|91:266|22:313,1,106.25,2|0,0:0|0:0,0:0:0:0:
250,207,270791,1,8,0:0:0:0:
160,278,270958,6,0,L|136:184,1,53.125
48,182,271124,1,0,0:0:0:0:
48,182,271208,2,0,L|24:88,1,53.125
154,98,271458,2,0,P|208:93|284:28,1,106.25,8|0,0:0|0:0,0:0:0:0:
250,207,271791,6,0,L|257:269,1,53.125,2|0,0:0|0:0,0:0:0:0:
340,278,271958,2,0,L|327:338,1,53.125,0|0,0:0|0:0,0:0:0:0:
160,278,272124,1,8,0:0:0:0:
376,158,272291,6,0,L|323:162,1,53.125
251,67,272458,1,2,0:0:0:0:
251,67,272541,2,0,L|305:64,1,53.125
468,173,272791,2,0,P|452:223|410:256,1,106.25,8|0,0:0|0:0,0:0:0:0:
195,151,273124,6,0,P|151:96|154:42,1,106.25,2|0,0:0|0:0,0:0:0:0:
63,286,273458,2,0,P|79:239|74:180,1,106.25,8|0,0:0|0:0,0:0:0:0:
222,283,273791,2,0,B|262:235|262:235|428:258,1,212.5,2|8,0:0|0:0,0:0:0:0:
310,343,274291,1,0,0:0:0:0:
365,168,274458,6,0,B|311:143|248:152|248:152|272:90|225:49,1,212.5,2|8,0:0|0:0,0:0:0:0:
159,113,274958,1,0,0:0:0:0:
128,224,275124,6,0,P|25:208|30:287,1,212.5,2|8,0:0|0:0,0:0:0:0:
128,323,275624,1,0,0:0:0:0:
61,80,275791,6,0,P|114:85|178:140,1,106.25,2|0,0:0|0:0,0:0:0:0:
236,182,276124,1,8,0:0:0:0:
158,112,276291,6,0,L|134:206,1,53.125
52,210,276458,1,0,0:0:0:0:
52,210,276541,2,0,L|28:304,1,53.125
158,294,276791,2,0,P|212:299|288:364,1,106.25,8|0,0:0|0:0,0:0:0:0:
236,182,277124,6,0,L|243:120,1,53.125
344,114,277291,2,0,L|354:58,1,53.125
158,112,277457,1,8,0:0:0:0:
380,233,277624,6,0,L|327:230,1,53.125
256,324,277791,1,0,0:0:0:0:
256,324,277874,2,0,L|309:328,1,53.125
446,303,278124,2,0,P|468:255|460:203,1,106.25,8|0,0:0|0:0,0:0:0:0:
308,119,278458,6,0,L|310:45,1,53.125
235,180,278624,2,0,L|221:90,1,53.125,0|0,0:0|0:0,0:0:0:0:
237,271,278791,2,0,P|297:261|337:193,1,106.25,8|0,0:0|0:0,0:0:0:0:
308,119,279041,1,0,0:0:0:0:
308,119,279124,2,0,L|373:121,1,53.125,0|0,0:0|0:0,0:0:0:0:
476,47,279291,2,0,L|408:48,1,53.125,0|0,0:0|0:0,0:0:0:0:
467,228,279458,2,0,L|411:364,1,106.25,8|0,0:0|0:0,0:0:0:0:
242,218,279791,6,0,L|235:280,1,53.125,2|0,0:0|0:0,0:0:0:0:
145,288,279958,2,0,L|158:348,1,53.125,0|0,0:0|0:0,0:0:0:0:
307,342,280124,1,8,0:0:0:0:
110,154,280291,6,0,L|164:158,1,53.125
258,62,280458,1,0,0:0:0:0:
258,62,280541,2,0,L|204:62,1,53.125
15,157,280791,2,0,P|25:208|62:245,1,106.25,8|0,0:0|0:0,0:0:0:0:
203,265,281124,6,0,B|182:291|189:345|240:382|300:348|300:348|353:318|415:334|415:334|459:340|519:315|500:206|418:215|418:215|520:137|398:-2|286:34|318:269|135:183|98:112|118:48,1,1020.00003890991,6|2,0:0|0:0,0:0:0:0:
256,131,285124,6,0,B|340:69|255:-32|175:3|154:60|154:60|96:12|-6:69|24:166|100:180|100:180|24:167|-5:198|-72:258|-40:330|-17:380|65:390|106:393|146:362|163:322|181:249|181:249|234:338|284:346|324:294|324:294|272:184|362:124|499:153|487:257|444:304|394:339|394:339|436:319|502:349|502:349|580:240|526:76|400:100|400:100,1,2040.00007781983,2|2,0:0|0:0,0:0:0:0:
431,56,291791,6,0,B|527:17|352:-90|309:49|377:142|435:157|487:234|381:375|381:375|335:182|218:218|218:218|277:193|296:38|168:21,1,1020.00003890991,2|2,0:0|0:0,0:0:0:0:
153,353,295124,6,0,B|59:360|18:294|30:208|70:190|70:190|13:214|-90:135|10:26|82:95|82:95|161:32|223:102|197:198|108:189|108:189|270:298|294:98|263:28|205:26|335:-47|466:-42|510:68|452:185|268:173|386:349|441:341|441:341|525:338|533:205|425:181|377:269|377:269|334:330|256:372|148:344|148:344|117:236|274:344|321:180,1,2295.00008754731,2|2,0:0|0:0,0:0:0:0:
179,166,302458,6,0,B|173:269|44:212|4:137|189:-32|246:183|244:188|302:280|404:266,1,510.000019454957,6|2,0:0|0:0,0:0:0:0:
415,279,305124,6,0,B|450:326|508:256|508:256|485:177|376:158|376:158|276:247|310:356|310:356|230:298|168:321|79:366|79:366|135:234|3:146|3:146|99:112|137:117|192:244|192:244|233:235|233:235|250:183|283:126,1,1402.50005350113,2|0,0:0|0:0,0:0:0:0:
190,12,309124,6,0,B|177:55|222:79|222:79|280:47|339:85|339:85|337:44|376:16|376:16|434:109,1,382.500014591218,2|0,0:0|0:0,0:0:0:0:
248,373,311791,6,0,B|261:330|216:306|216:306|158:338|99:300|99:300|101:341|62:369|62:369|4:276,1,382.500014591218,2|0,0:0|0:0,0:0:0:0:
135,115,313124,6,0,B|101:98|64:35|127:-57|290:22|290:22|359:59|499:18|499:18|411:109|400:238|400:238|284:130|164:237,1,1020.00003890991,2|2,0:0|0:0,0:0:0:0:
245,323,316458,6,0,B|137:300|6:357|6:357|61:221|215:233|215:233|153:186|218:69|334:111|325:191|325:191|377:158|455:180|457:289|372:299|372:299|365:356|472:375|515:296|515:296|565:181|447:145|512:58|512:58|400:122|323:49|323:49|187:-9|110:97|142:188|29:186|29:186|85:105|84:31|84:31|34:88|-18:100,1,2295.00008754731,2|2,0:0|0:0,0:0:0:0:
157,76,323791,6,0,B|70:35|17:176|120:202|158:181|158:181|274:131|267:248|406:112|406:112|447:198|504:175|504:175|516:106|454:-6|369:19|369:19|322:94|255:90|255:90|234:14|130:-65|47:-25|-19:34|-71:148|33:227|33:227|9:325|72:375|154:342|162:277|162:277|294:240|297:309|408:247|408:247|458:296|513:272|513:272|523:295|517:380|517:380|374:325|348:405|243:377|228:326,1,2550.00009727478,6|2,0:0|0:0,0:0:0:0:
