osu file format v14

[General]
AudioFilename: audio.mp3
AudioLeadIn: 0
PreviewTime: 22410
Countdown: 1
SampleSet: Soft
StackLeniency: 0.7
Mode: 0
LetterboxInBreaks: 0
WidescreenStoryboard: 0

[Editor]
DistanceSpacing: 0.5
BeatDivisor: 4
GridSize: 32
TimelineZoom: 1

[Metadata]
Title:Peace and Tranquility
TitleUnicode:Peace and Tranquility
Artist:A Hat in Time?
ArtistUnicode:A Hat in Time?
Creator:Negus
Version:r e l a x
Source:A Hat in Time ost
Tags:
BeatmapID:2039939
BeatmapSetID:974584

[Difficulty]
HPDrainRate:7
CircleSize:4
OverallDifficulty:6
ApproachRate:8.6
SliderMultiplier:2
SliderTickRate:1

[Events]
//Background and Video events
0,0,"practice_by_ex_trident_dbtzzkb-pre.jpg",0,0
//Break Periods
//Storyboard Layer 0 (Background)
//Storyboard Layer 1 (Fail)
//Storyboard Layer 2 (Pass)
//Storyboard Layer 3 (Foreground)
//Storyboard Layer 4 (Overlay)
//Storyboard Sound Samples

[TimingPoints]
614,468.75,4,2,0,10,1,0
22410,-80,4,2,0,10,0,0
123895,-66.6666666666667,4,2,0,10,0,0
135145,-50,4,2,0,10,0,1
136082,-100,4,2,0,10,0,1
136317,-50,4,2,0,10,0,1
137723,-100,4,2,0,10,0,1
137957,-50,4,2,0,10,0,1
138895,-100,4,2,0,10,0,1
139129,-50,4,2,0,10,0,1
140535,-100,4,2,0,10,0,1
140770,-50,4,2,0,10,0,1
141707,-100,4,2,0,10,0,1
141942,-50,4,2,0,10,0,1
143348,-100,4,2,0,10,0,1
143582,-50,4,2,0,10,0,1
144520,-100,4,2,0,10,0,1
144754,-50,4,2,0,10,0,1
146160,-100,4,2,0,10,0,1
146395,-50,4,2,0,10,0,1
147332,-100,4,2,0,10,0,1
147567,-50,4,2,0,10,0,1
148973,-100,4,2,0,10,0,1
149207,-50,4,2,0,10,0,1
150145,-100,4,2,0,10,0,1
150379,-50,4,2,0,10,0,1
151785,-100,4,2,0,10,0,1
152020,-50,4,2,0,10,0,1
152957,-100,4,2,0,10,0,1
153192,-50,4,2,0,10,0,1
154598,-100,4,2,0,10,0,1
154832,-50,4,2,0,10,0,1
155770,-100,4,2,0,10,0,1
156004,-50,4,2,0,10,0,0

[Colours]
Combo1 : 255,0,128
Combo2 : 255,128,64
Combo3 : 200,0,255
Combo4 : 0,255,255
Combo5 : 255,128,255
Combo6 : 255,128,128

[HitObjects]
245,189,614,5,10,0:0:0:0:
327,17,848,1,0,0:0:0:0:
186,145,1082,1,0,0:0:0:0:
262,120,1317,1,0,0:0:0:0:
234,260,1551,5,10,0:0:0:0:
406,178,1785,1,0,0:0:0:0:
278,319,2019,1,0,0:0:0:0:
306,247,2254,1,0,0:0:0:0:
158,271,2489,5,10,0:0:0:0:
240,99,2723,1,0,0:0:0:0:
99,227,2957,1,0,0:0:0:0:
167,195,3192,1,0,0:0:0:0:
333,331,3426,6,0,L|303:287,1,50,8|0,0:0|0:0,0:0:0:0:
341,265,3660,1,0,0:0:0:0:
378,239,3895,1,0,0:0:0:0:
394,198,4129,1,0,0:0:0:0:
440,145,4364,6,0,L|379:151,1,50,8|0,0:0|0:0,0:0:0:0:
358,115,4598,1,0,0:0:0:0:
319,96,4832,1,0,0:0:0:0:
271,110,5067,1,0,0:0:0:0:
202,128,5301,6,0,L|252:154,1,50,8|0,0:0|0:0,0:0:0:0:
250,195,5535,1,0,0:0:0:0:
292,207,5770,1,0,0:0:0:0:
326,178,6004,1,0,0:0:0:0:
174,87,6239,5,10,0:0:0:0:
358,122,6473,1,0,0:0:0:0:
172,162,6707,1,0,0:0:0:0:
243,221,6941,1,0,0:0:0:0:
254,65,7176,1,10,0:0:0:0:
438,100,7410,1,0,0:0:0:0:
252,140,7644,1,0,0:0:0:0:
320,201,7878,1,0,0:0:0:0:
245,275,8114,5,10,0:0:0:0:
436,243,8348,1,0,0:0:0:0:
250,203,8582,1,0,0:0:0:0:
318,142,8816,1,0,0:0:0:0:
218,53,9051,6,0,L|238:102,1,50,8|0,0:0|0:0,0:0:0:0:
252,140,9285,1,0,0:0:0:0:
273,190,9520,1,0,0:0:0:0:
295,238,9754,1,0,0:0:0:0:
121,145,9989,6,0,L|161:180,1,50,8|0,0:0|0:0,0:0:0:0:
196,209,10223,1,0,0:0:0:0:
233,242,10457,1,0,0:0:0:0:
274,278,10692,1,0,0:0:0:0:
75,315,10926,6,0,L|136:324,1,50,8|0,0:0|0:0,0:0:0:0:
169,328,11160,1,0,0:0:0:0:
219,333,11395,1,0,0:0:0:0:
268,340,11629,1,0,0:0:0:0:
121,159,11864,5,10,0:0:0:0:
167,76,12098,1,0,0:0:0:0:
282,174,12332,1,0,0:0:0:0:
259,94,12567,1,0,0:0:0:0:
271,75,12801,5,10,0:0:0:0:
364,56,13035,1,0,0:0:0:0:
282,174,13269,1,0,0:0:0:0:
362,207,13504,1,0,0:0:0:0:
451,161,13739,5,10,0:0:0:0:
501,241,13973,1,0,0:0:0:0:
362,207,14207,1,0,0:0:0:0:
359,294,14442,1,0,0:0:0:0:
366,80,14676,6,0,L|373:25,1,50,8|0,0:0|0:0,0:0:0:0:
321,26,14910,1,0,0:0:0:0:
270,37,15145,1,0,0:0:0:0:
228,63,15379,1,0,0:0:0:0:
232,139,15614,6,0,L|191:96,1,50,8|0,0:0|0:0,0:0:0:0:
170,146,15848,1,0,0:0:0:0:
155,189,16082,1,0,0:0:0:0:
161,239,16317,1,0,0:0:0:0:
221,260,16551,6,0,L|160:275,1,50,8|0,0:0|0:0,0:0:0:0:
196,318,16785,1,0,0:0:0:0:
236,347,17020,1,0,0:0:0:0:
285,359,17254,1,0,0:0:0:0:
406,260,17489,5,8,0:0:0:0:
384,184,17723,1,0,0:0:0:0:
180,260,17957,1,0,0:0:0:0:
251,287,18192,1,0,0:0:0:0:
241,211,18426,5,8,0:0:0:0:
192,148,18660,1,0,0:0:0:0:
373,28,18894,1,0,0:0:0:0:
353,101,19129,1,0,0:0:0:0:
425,123,19364,5,8,0:0:0:0:
366,176,19598,1,0,0:0:0:0:
231,6,19832,1,0,0:0:0:0:
306,20,20067,1,0,0:0:0:0:
370,135,20301,6,0,L|424:129,1,50,8|0,0:0|0:0,0:0:0:0:
424,179,20535,1,0,0:0:0:0:
420,227,20770,1,0,0:0:0:0:
405,275,21004,1,0,0:0:0:0:
335,276,21239,6,0,L|376:320,1,50,8|0,0:0|0:0,0:0:0:0:
330,348,21473,1,0,0:0:0:0:
251,315,21707,1,0,0:0:0:0:
192,254,21942,1,0,0:0:0:0:
131,168,22176,2,0,L|184:167,1,50,8|0,0:0|0:0,0:0:0:0:
329,166,22410,1,0,0:0:0:0:
250,40,22645,1,0,0:0:0:0:
181,168,22879,1,0,0:0:0:0:
112,42,23114,5,8,0:0:0:0:
191,79,23348,1,0,0:0:0:0:
122,126,23582,1,0,0:0:0:0:
193,170,23817,1,0,0:0:0:0:
258,113,24051,5,8,0:0:0:0:
133,221,24285,1,0,0:0:0:0:
212,52,24519,1,0,0:0:0:0:
192,203,24754,1,0,0:0:0:0:
122,126,24989,5,8,0:0:0:0:
74,211,25223,1,0,0:0:0:0:
159,66,25457,1,0,0:0:0:0:
221,206,25692,1,0,0:0:0:0:
366,214,25926,6,0,L|323:249,1,50,8|0,0:0|0:0,0:0:0:0:
326,322,26160,1,0,0:0:0:0:
297,354,26395,1,0,0:0:0:0:
282,306,26629,1,0,0:0:0:0:
435,285,26864,6,0,L|400:242,1,50,8|0,0:0|0:0,0:0:0:0:
327,245,27098,1,0,0:0:0:0:
295,216,27333,1,0,0:0:0:0:
343,201,27567,1,0,0:0:0:0:
354,365,27801,6,0,L|319:322,1,50,8|0,0:0|0:0,0:0:0:0:
246,325,28035,1,0,0:0:0:0:
214,296,28270,1,0,0:0:0:0:
262,281,28504,1,0,0:0:0:0:
404,361,28739,5,8,0:0:0:0:
472,257,28973,1,0,0:0:0:0:
307,350,29207,1,0,0:0:0:0:
291,228,29442,1,0,0:0:0:0:
377,276,29676,5,8,0:0:0:0:
361,154,29911,1,0,0:0:0:0:
196,247,30145,1,0,0:0:0:0:
264,143,30379,1,0,0:0:0:0:
291,228,30614,5,8,0:0:0:0:
359,124,30848,1,0,0:0:0:0:
194,217,31082,1,0,0:0:0:0:
178,95,31317,1,0,0:0:0:0:
256,148,31551,6,0,L|302:110,1,50,8|0,0:0|0:0,0:0:0:0:
260,72,31785,1,0,0:0:0:0:
178,95,32020,1,0,0:0:0:0:
256,148,32254,1,0,0:0:0:0:
309,70,32489,6,0,L|271:24,1,50,8|0,0:0|0:0,0:0:0:0:
233,66,32723,1,0,0:0:0:0:
256,148,32958,1,0,0:0:0:0:
309,70,33192,1,0,0:0:0:0:
231,17,33426,6,0,L|185:55,1,50,8|0,0:0|0:0,0:0:0:0:
227,93,33660,1,0,0:0:0:0:
309,70,33895,1,0,0:0:0:0:
231,17,34129,1,0,0:0:0:0:
144,102,34364,5,8,0:0:0:0:
257,53,34598,1,0,0:0:0:0:
340,147,34832,1,0,0:0:0:0:
264,28,35067,1,0,0:0:0:0:
128,80,35301,5,8,0:0:0:0:
259,66,35535,1,0,0:0:0:0:
341,170,35769,1,0,0:0:0:0:
236,96,36004,1,0,0:0:0:0:
118,144,36239,5,8,0:0:0:0:
259,66,36473,1,0,0:0:0:0:
354,150,36707,1,0,0:0:0:0:
264,28,36942,1,0,0:0:0:0:
82,86,37176,6,0,L|135:54,1,50,8|0,0:0|0:0,0:0:0:0:
230,80,37410,5,2,0:0:0:0:
303,142,37645,2,0,L|254:168,1,50
118,296,37879,5,2,0:0:0:0:
209,331,38114,2,0,L|281:264,1,50
305,119,38348,5,2,0:0:0:0:
270,194,38582,2,0,L|212:231,1,50
74,112,38817,5,2,0:0:0:0:
135,46,39051,2,0,L|193:43,1,50,8|0,0:0|0:0,0:0:0:0:
56,182,39285,5,2,0:0:0:0:
104,262,39520,2,0,L|160:281,1,50
250,257,39754,5,2,0:0:0:0:
275,212,39871,1,2,0:0:0:0:
270,165,39989,5,8,0:0:0:0:
203,129,40223,1,0,0:0:0:0:
206,204,40457,1,0,0:0:0:0:
243,135,40692,1,0,0:0:0:0:
179,172,40926,5,8,0:0:0:0:
243,211,41160,1,0,0:0:0:0:
206,145,41394,1,0,0:0:0:0:
200,218,41629,1,0,0:0:0:0:
256,170,41864,5,8,0:0:0:0:
188,150,42098,1,0,0:0:0:0:
211,220,42332,1,0,0:0:0:0:
223,146,42567,1,0,0:0:0:0:
412,109,42801,6,0,L|401:182,1,50,8|0,0:0|0:0,0:0:0:0:
406,330,43035,5,0,0:0:0:0:
451,311,43153,1,0,0:0:0:0:
479,268,43270,2,0,L|430:242,1,50
203,256,43504,5,0,0:0:0:0:
246,281,43621,1,0,0:0:0:0:
294,291,43739,2,0,L|366:224,1,50,8|0,0:0|0:0,0:0:0:0:
195,169,43973,5,0,0:0:0:0:
155,176,44090,1,0,0:0:0:0:
112,176,44207,2,0,L|50:144,1,50
301,29,44442,5,0,0:0:0:0:
348,26,44559,1,0,0:0:0:0:
389,45,44676,2,0,L|422:92,1,50,8|0,0:0|0:0,0:0:0:0:
248,175,44910,5,0,0:0:0:0:
214,154,45028,1,0,0:0:0:0:
178,140,45145,2,0,P|131:159|135:266,1,150
178,140,45614,2,0,P|241:131|234:85,1,100,8|0,0:0|0:0,0:0:0:0:
178,140,46082,2,0,P|144:109|88:100,1,100
322,254,46551,6,0,P|354:215|300:122,1,150,8|0,0:0|0:0,0:0:0:0:
322,254,47020,2,0,P|270:291|298:328,1,100
322,254,47488,2,0,P|351:288|405:304,1,100,8|0,0:0|0:0,0:0:0:0:
230,82,47957,6,0,P|206:127|280:205,1,150
230,82,48426,2,0,P|271:33|236:3,1,100,8|0,0:0|0:0,0:0:0:0:
230,82,48894,2,0,P|194:53|137:48,1,100
113,314,49364,6,0,P|161:298|164:191,1,150,8|0,0:0|0:0,0:0:0:0:
113,314,49833,2,0,P|49:318|53:364,1,100
113,314,50301,2,0,P|135:352|182:383,1,100,8|0,0:0|0:0,0:0:0:0:
158,100,50770,6,0,P|215:156|256:233,1,150
249,216,51239,2,0,P|285:172|324:205,1,100,8|0,0:0|0:0,0:0:0:0:
316,186,51707,2,0,P|305:134|272:98,1,100
109,36,52176,6,0,P|52:92|10:169,1,150,8|0,0:0|0:0,0:0:0:0:
17,152,52645,2,0,P|67:177|43:222,1,100
59,210,53113,2,0,P|111:208|152:181,1,100,8|0,0:0|0:0,0:0:0:0:
323,325,53582,6,0,P|380:269|421:191,1,150
414,208,54051,2,0,P|378:163|339:196,1,100,8|0,0:0|0:0,0:0:0:0:
347,178,54519,2,0,P|336:126|303:90,1,100
139,133,54989,6,0,P|82:189|40:266,1,150,8|0,0:0|0:0,0:0:0:0:
47,249,55458,2,0,P|0:216|30:175,1,100
12,184,55926,2,0,P|22:132|55:96,1,100,8|0,0:0|0:0,0:0:0:0:
312,251,56395,6,0,P|355:214|368:109,1,150
271,145,56864,2,0,P|257:81|211:52,1,100,8|0,0:0|0:0,0:0:0:0:
186,130,57332,2,0,P|136:119|83:144,1,100
80,326,57801,6,0,P|123:289|136:184,1,150,8|0,0:0|0:0,0:0:0:0:
32,206,58270,2,0,P|46:142|92:113,1,100
249,63,58738,2,0,P|199:52|146:77,1,100,8|0,0:0|0:0,0:0:0:0:
206,152,59207,6,0,P|249:189|262:294,1,150
386,227,59676,2,0,P|372:163|333:125,1,100,8|0,0:0|0:0,0:0:0:0:
188,101,60144,2,0,P|234:83|282:94,1,100
396,353,60614,6,0,P|439:316|452:211,1,150,8|0,0:0|0:0,0:0:0:0:
428,58,61083,2,0,P|364:72|335:118,1,100
171,169,61551,2,0,P|121:158|68:183,1,100,8|0,0:0|0:0,0:0:0:0:
80,326,62020,6,0,P|123:289|136:184,1,150
32,206,62489,2,0,P|46:142|92:113,1,100,8|0,0:0|0:0,0:0:0:0:
249,63,62957,2,0,P|199:52|146:77,1,100
206,152,63426,6,0,P|249:189|262:294,1,150,8|0,0:0|0:0,0:0:0:0:
386,227,63895,2,0,P|372:163|333:125,1,100
188,101,64363,2,0,P|234:83|282:94,1,100,8|0,0:0|0:0,0:0:0:0:
396,353,64833,6,0,P|439:316|452:211,1,150
428,58,65302,2,0,P|364:72|335:118,1,100,8|0,0:0|0:0,0:0:0:0:
171,169,65770,2,0,P|121:158|68:183,1,100
201,263,66239,6,0,P|244:226|257:121,1,150,8|0,0:0|0:0,0:0:0:0:
442,233,66708,2,0,P|378:247|349:293,1,100
38,302,67176,2,0,P|84:284|133:296,1,100,8|0,0:0|0:0,0:0:0:0:
382,140,67645,5,0,0:0:0:0:
333,63,68114,1,0,0:0:0:0:
214,25,68582,1,0,0:0:0:0:
212,147,68817,1,0,0:0:0:0:
263,229,69285,1,0,0:0:0:0:
345,271,69754,1,0,0:0:0:0:
326,144,70222,5,0,0:0:0:0:
345,271,70457,1,0,0:0:0:0:
270,218,70926,1,0,0:0:0:0:
278,342,71395,1,0,0:0:0:0:
270,218,71629,1,0,0:0:0:0:
205,284,72098,1,0,0:0:0:0:
137,219,72567,1,0,0:0:0:0:
223,182,73035,5,0,0:0:0:0:
111,128,73270,1,0,0:0:0:0:
137,219,73739,1,0,0:0:0:0:
208,153,74207,1,0,0:0:0:0:
268,255,74442,1,0,0:0:0:0:
339,194,74910,1,0,0:0:0:0:
338,103,75379,1,0,0:0:0:0:
253,231,75848,5,0,0:0:0:0:
296,51,76082,1,0,0:0:0:0:
205,178,76551,1,0,0:0:0:0:
137,0,77019,1,0,0:0:0:0:
205,178,77254,1,0,0:0:0:0:
282,79,77722,1,0,0:0:0:0:
321,194,78191,1,0,0:0:0:0:
395,21,78660,5,0,0:0:0:0:
321,194,78894,1,0,0:0:0:0:
305,75,79364,1,0,0:0:0:0:
251,185,79832,1,0,0:0:0:0:
255,0,80067,1,0,0:0:0:0:
165,85,80535,1,0,0:0:0:0:
251,185,81004,1,0,0:0:0:0:
439,185,81473,5,0,0:0:0:0:
251,185,81707,1,0,0:0:0:0:
252,307,82176,1,0,0:0:0:0:
206,120,82644,1,0,0:0:0:0:
252,307,82879,1,0,0:0:0:0:
251,185,83347,1,0,0:0:0:0:
252,307,83816,1,0,0:0:0:0:
306,120,84285,5,0,0:0:0:0:
252,307,84519,1,0,0:0:0:0:
142,239,84989,1,0,0:0:0:0:
251,185,85457,1,0,0:0:0:0:
160,347,85692,1,0,0:0:0:0:
251,185,86160,1,0,0:0:0:0:
358,240,86629,1,0,0:0:0:0:
252,307,87098,5,0,0:0:0:0:
257,121,87332,1,0,0:0:0:0:
132,120,87801,1,0,0:0:0:0:
190,228,88269,1,0,0:0:0:0:
193,41,88504,1,0,0:0:0:0:
282,130,88972,1,0,0:0:0:0:
337,241,89441,1,0,0:0:0:0:
255,192,90145,5,0,0:0:0:0:
141,299,90614,5,8,0:0:0:0:
380,76,90848,1,0,0:0:0:0:
239,286,91082,1,0,0:0:0:0:
10,71,91316,1,0,0:0:0:0:
67,323,91551,5,8,0:0:0:0:
72,12,91785,1,0,0:0:0:0:
109,262,92019,1,0,0:0:0:0:
283,0,92253,1,0,0:0:0:0:
183,233,92489,5,8,0:0:0:0:
400,4,92723,1,0,0:0:0:0:
162,77,92957,1,0,0:0:0:0:
475,31,93191,1,0,0:0:0:0:
111,147,93426,6,0,L|155:178,1,50,8|0,0:0|0:0,0:0:0:0:
349,288,93660,1,0,0:0:0:0:
204,338,93895,1,0,0:0:0:0:
244,190,94129,1,0,0:0:0:0:
372,13,94364,6,0,L|393:62,1,50,8|0,0:0|0:0,0:0:0:0:
503,256,94598,1,0,0:0:0:0:
353,224,94833,1,0,0:0:0:0:
456,114,95067,1,0,0:0:0:0:
476,347,95301,6,0,L|433:314,1,50,8|0,0:0|0:0,0:0:0:0:
255,178,95535,1,0,0:0:0:0:
410,146,95770,1,0,0:0:0:0:
363,294,96004,1,0,0:0:0:0:
72,224,96239,5,8,0:0:0:0:
292,42,96473,1,0,0:0:0:0:
363,184,96707,1,0,0:0:0:0:
205,165,96942,1,0,0:0:0:0:
457,36,97176,5,8,0:0:0:0:
386,280,97410,1,0,0:0:0:0:
306,146,97644,1,0,0:0:0:0:
462,141,97879,1,0,0:0:0:0:
231,303,98114,5,0,0:0:0:0:
269,25,98349,1,0,0:0:0:0:
345,158,98583,1,0,0:0:0:0:
190,149,98817,1,8,0:0:0:0:
424,60,99051,6,0,L|486:54,1,50,8|0,0:0|0:0,0:0:0:0:
303,76,99285,1,0,0:0:0:0:
358,39,99520,1,0,0:0:0:0:
317,142,99754,1,0,0:0:0:0:
152,57,99989,2,0,L|83:25,1,50,8|0,0:0|0:0,0:0:0:0:
246,182,100223,1,0,0:0:0:0:
185,183,100457,1,0,0:0:0:0:
298,129,100691,1,0,0:0:0:0:
402,299,100809,6,0,L|383:356,1,50,8|0,0:0|0:0,0:0:0:0:
329,306,101160,1,0,0:0:0:0:
365,360,101395,1,0,0:0:0:0:
290,249,101629,1,0,0:0:0:0:
365,360,101864,5,8,0:0:0:0:
363,222,102098,1,0,0:0:0:0:
362,291,102332,1,0,0:0:0:0:
362,158,102567,1,0,0:0:0:0:
298,159,102801,1,8,0:0:0:0:
428,159,103035,1,0,0:0:0:0:
234,162,103269,1,0,0:0:0:0:
362,158,103504,1,0,0:0:0:0:
169,162,103739,5,8,0:0:0:0:
303,80,103973,1,0,0:0:0:0:
428,159,104207,1,0,0:0:0:0:
251,46,104442,1,0,0:0:0:0:
109,159,104676,6,0,L|66:193,1,50,8|0,0:0|0:0,0:0:0:0:
251,46,104910,5,0,0:0:0:0:
291,100,105145,2,0,L|241:101,1,50
109,244,105379,5,0,0:0:0:0:
69,190,105614,2,0,L|119:189,1,50,8|0,0:0|0:0,0:0:0:0:
291,100,105848,5,0,0:0:0:0:
289,167,106083,2,0,L|248:137,1,50
47,79,106317,5,0,0:0:0:0:
46,11,106551,2,0,L|87:39,1,50,8|0,0:0|0:0,0:0:0:0:
154,217,106785,5,0,0:0:0:0:
107,265,107020,2,0,L|97:215,1,50
206,35,107254,5,0,0:0:0:0:
256,43,107371,1,0,0:0:0:0:
289,77,107489,5,8,0:0:0:0:
231,183,107723,1,0,0:0:0:0:
165,46,107957,1,0,0:0:0:0:
279,142,108192,1,0,0:0:0:0:
127,121,108426,5,8,0:0:0:0:
128,0,108660,1,0,0:0:0:0:
250,89,108894,1,0,0:0:0:0:
105,58,109129,1,0,0:0:0:0:
223,15,109364,5,8,0:0:0:0:
319,87,109598,1,0,0:0:0:0:
175,133,109832,1,0,0:0:0:0:
285,33,110067,1,0,0:0:0:0:
226,181,110301,1,8,0:0:0:0:
137,92,110535,5,0,0:0:0:0:
162,52,110652,1,0,0:0:0:0:
206,37,110770,2,0,P|236:39|282:70,1,50
342,215,111004,1,0,0:0:0:0:
183,322,111239,2,0,L|127:306,1,50
29,196,111473,1,0,0:0:0:0:
54,156,111590,1,0,0:0:0:0:
98,141,111708,2,0,P|128:143|174:174,1,50
287,270,111942,1,0,0:0:0:0:
383,109,112176,2,0,L|357:153,1,50,8|0,0:0|0:0,0:0:0:0:
170,80,112410,5,2,0:0:0:0:
118,68,112528,1,2,0:0:0:0:
77,83,112645,2,0,P|58:131|126:94,1,150
199,106,113114,2,0,P|200:163|155:202,1,100,8|0,0:0|0:0,0:0:0:0:
104,218,113582,2,0,P|141:262|199:260,1,100
212,248,113934,1,2,0:0:0:0:
234,216,114051,6,0,P|253:264|185:227,1,150,8|0,0:0|0:0,0:0:0:0:
167,187,114520,2,0,P|209:148|268:157,1,100
112,235,114988,2,0,P|95:186|142:119,1,100,8|0,0:0|0:0,0:0:0:0:
138,110,115340,1,2,0:0:0:0:
149,80,115457,6,0,P|128:32|106:106,1,150
189,139,115926,2,0,P|218:99|214:51,1,100,8|0,0:0|0:0,0:0:0:0:
149,92,116278,1,2,0:0:0:0:
121,160,116394,2,0,P|158:204|216:202,1,100
241,149,116864,6,0,P|268:192|194:168,1,150,8|0,0:0|0:0,0:0:0:0:
202,89,117333,2,0,P|252:79|310:122,1,100
271,127,117684,1,2,0:0:0:0:
241,149,117801,2,0,P|300:175|341:152,1,100,8|0,0:0|0:0,0:0:0:0:
411,85,118270,6,0,P|477:97|403:113,1,187.5
382,202,118739,2,0,P|441:219|500:200,1,125,8|0,0:0|0:0,0:0:0:0:
512,240,119090,1,2,0:0:0:0:
501,283,119207,2,0,P|421:291|341:260,1,125
294,112,119676,6,0,P|228:117|301:154,1,187.5,8|0,0:0|0:0,0:0:0:0:
350,66,120145,2,0,P|289:27|208:39,1,125
195,53,120496,1,0,0:0:0:0:
159,87,120614,2,0,P|149:157|171:207,1,125,8|0,0:0|0:0,0:0:0:0:
300,296,121082,6,0,P|261:355|261:282,1,187.5
382,192,121551,2,0,P|316:160|238:191,1,125,8|0,0:0|0:0,0:0:0:0:
375,103,122020,2,0,P|434:144|462:207,1,125
375,290,122489,6,0,P|308:265|380:239,1,187.5,8|0,0:0|0:0,0:0:0:0:
396,363,122957,2,0,P|325:372|268:338,1,125
301,197,123426,2,0,P|233:182|164:197,1,125,8|0,0:0|0:0,0:0:0:0:
196,119,123778,1,0,0:0:0:0:
183,50,123895,6,0,P|105:79|14:222,1,225.000008583069
125,301,124364,2,0,P|145:213|205:164,1,150.000005722046,8|0,0:0|0:0,0:0:0:0:
340,210,124832,2,0,P|268:267|248:347,1,150.000005722046
295,341,125184,1,0,0:0:0:0:
339,347,125301,6,0,P|438:328|503:217,1,225.000008583069,8|0,0:0|0:0,0:0:0:0:
346,248,125770,2,0,P|390:178|456:172,1,150.000005722046
327,130,126239,2,0,P|282:192|272:269,1,150.000005722046,8|0,0:0|0:0,0:0:0:0:
275,309,126590,1,0,0:0:0:0:
232,300,126707,6,0,P|154:211|18:165,1,225.000008583069
175,61,127176,2,0,P|245:103|305:176,1,150.000005722046,8|0,0:0|0:0,0:0:0:0:
331,187,127528,1,0,0:0:0:0:
371,157,127645,2,0,P|434:96|505:83,1,150.000005722046
466,235,128114,5,8,0:0:0:0:
402,303,128582,1,0,0:0:0:0:
314,315,129051,1,8,0:0:0:0:
355,164,129520,5,0,0:0:0:0:
273,125,129989,1,8,0:0:0:0:
180,134,130457,1,0,0:0:0:0:
137,279,130926,5,8,0:0:0:0:
188,356,131395,1,0,0:0:0:0:
229,270,131864,1,8,0:0:0:0:
256,192,132098,12,0,134676,0:0:0:0:
102,100,135145,38,0,B|158:193|312:67|346:250,1,300,4|0,0:0|0:0,0:0:0:0:
295,80,135614,6,0,B|398:100|502:324|295:305,1,300,8|0,0:0|0:0,0:0:0:0:
179,182,136082,6,0,L|245:178,1,50
382,225,136317,6,0,L|69:242,1,300
7,361,136785,6,0,P|42:321|277:354,1,300
434,323,137254,6,0,B|357:301|350:129|213:113,1,300
66,165,137723,6,0,L|2:192,1,50
201,49,137957,6,0,B|237:31|363:44|415:197|431:214|449:270,1,300
236,122,138426,6,0,B|308:136|351:234|417:281|355:341|250:348,1,300,8|0,0:0|0:0,0:0:0:0:
118,162,138894,6,0,L|220:157,1,100
368,206,139129,6,0,L|55:223,1,300
5,257,139597,6,0,P|7:181|120:273,1,300
5,329,140066,6,0,B|88:267|120:371|219:363|237:239|202:151,1,300
177,62,140535,6,0,P|146:72|105:113,1,50
134,254,140770,6,0,B|126:152|158:100|226:108|260:134|291:107|299:209|303:284,1,300
210,344,141239,6,0,B|434:281|365:219|380:173|321:73,1,300,8|0,0:0|0:0,0:0:0:0:
163,154,141707,6,0,L|84:161,1,50
241,17,141942,6,0,B|432:15|469:194|431:278,1,300
359,318,142410,6,0,B|390:164|355:124|317:94|275:91|190:88,1,300
69,140,142879,6,0,B|191:179|208:164|334:133|299:194|289:314,1,300
142,249,143348,6,0,L|202:252,1,50
299,365,143582,6,0,B|401:310|390:167|353:73|217:110,1,300
283,283,144051,6,0,B|305:256|325:150|254:156|97:106,1,300
163,250,144520,6,0,L|238:265,1,50
355,291,144754,6,0,P|233:226|303:352,1,300
250,46,145223,6,0,B|280:139|73:184|156:351,1,300
250,341,145692,6,0,B|160:276|224:216|278:167|372:138|294:2,1,300
186,18,146160,6,0,L|120:-16,1,50
251,81,146395,6,0,B|262:0|340:0|382:19|439:49|401:145|348:217|317:241,1,300
216,147,146864,6,0,P|131:231|263:251,1,300
203,217,147332,6,0,L|271:200,1,50
322,70,147567,6,0,B|332:259|339:293|314:329|240:355,1,300
400,274,148035,6,0,B|401:238|402:166|398:117|393:93|396:47|397:19|377:-4|262:-9,1,300
185,33,148504,6,0,L|181:356,1,300
115,193,148973,6,0,L|113:270,1,50
34,74,149207,6,0,P|110:14|80:137,1,300
179,184,149676,6,0,B|233:142|231:103|228:65|228:36|374:2|467:111,1,300,8|0,0:0|0:0,0:0:0:0:
296,122,150145,6,0,L|279:204,1,50
191,353,150379,6,0,B|291:338|364:273|337:206|365:160|367:96,1,300
270,0,150848,6,0,B|447:56|443:103|437:156|413:247,1,300
387,328,151317,6,0,B|339:295|341:276|342:172|356:148|372:135|402:109|326:114|299:80|252:68,1,300
149,33,151785,6,0,L|221:56,1,50
27,124,152020,6,0,P|116:232|110:115,1,300
285,85,152489,6,0,B|228:169|207:245|200:255|177:310|67:323,1,300,8|0,0:0|0:0,0:0:0:0:
88,127,152957,6,0,L|75:176,1,50
181,362,153192,6,0,B|245:321|264:293|278:262|291:220|306:190|321:163|365:88,1,300
476,25,153660,6,0,B|396:176|386:199|376:210|373:228|322:329,1,300
227,186,154129,6,0,B|215:220|184:270|184:270|128:338|57:277|43:250|65:186,1,300
129,224,154598,6,0,L|162:165,1,50
85,38,154832,6,0,L|359:253,1,300
475,195,155301,6,0,L|193:18,1,300,8|0,0:0|0:0,0:0:0:0:
347,16,155770,6,0,L|417:55,1,50
446,371,156004,6,0,L|156:222,1,300
57,249,156473,6,0,L|347:394,1,300
505,246,156942,6,0,L|221:109,1,300
57,249,157645,5,0,0:0:0:0:
156,123,157879,1,0,0:0:0:0:
291,203,158114,1,0,0:0:0:0:
461,187,158582,5,0,0:0:0:0:
379,104,158816,1,0,0:0:0:0:
276,139,159051,1,0,0:0:0:0:
55,312,159520,5,0,0:0:0:0:
178,216,159754,1,0,0:0:0:0:
307,305,159989,1,0,0:0:0:0:
457,147,160457,5,0,0:0:0:0:
338,45,160691,1,0,0:0:0:0:
196,113,160926,1,0,0:0:0:0:
87,176,161395,5,0,0:0:0:0:
163,273,161629,1,0,0:0:0:0:
219,167,161864,1,0,0:0:0:0:
384,111,162332,5,0,0:0:0:0:
263,80,162566,1,0,0:0:0:0:
303,201,162801,1,0,0:0:0:0:
449,147,163270,5,0,0:0:0:0:
370,240,163504,1,0,0:0:0:0:
317,128,163739,1,0,0:0:0:0:
224,255,164207,5,0,0:0:0:0:
300,303,164441,1,0,0:0:0:0:
223,171,164676,1,0,0:0:0:0:
187,66,165145,5,0,0:0:0:0:
234,124,165379,1,0,0:0:0:0:
106,58,165614,1,0,0:0:0:0:
389,33,166082,5,0,0:0:0:0:
331,80,166316,1,0,0:0:0:0:
459,60,166551,1,0,0:0:0:0:
192,236,167020,5,0,0:0:0:0:
271,187,167254,1,0,0:0:0:0:
105,250,167489,1,0,0:0:0:0:
11,137,167957,5,0,0:0:0:0:
0,228,168192,1,0,0:0:0:0:
81,79,168426,1,0,0:0:0:0:
107,173,168895,5,0,0:0:0:0:
152,91,169129,1,0,0:0:0:0:
129,261,169364,1,0,0:0:0:0:
256,192,169832,12,0,176864,0:0:0:0:
