osu file format v14

[General]
AudioFilename: audio.mp3
AudioLeadIn: 0
PreviewTime: 190306
Countdown: 1
SampleSet: Soft
StackLeniency: 0.7
Mode: 0
LetterboxInBreaks: 0
WidescreenStoryboard: 0

[Editor]
DistanceSpacing: 0.9
BeatDivisor: 2
GridSize: 32
TimelineZoom: 1

[Metadata]
Title:If it Means A Lot to You
TitleUnicode:If it Means A Lot to You
Artist:A Day To Remember
ArtistUnicode:A Day To Remember
Creator:quanhitter39
Version:Darling
Source:
Tags:adtr homesick osuskrub defiance
BeatmapID:1900147
BeatmapSetID:910592

[Difficulty]
HPDrainRate:6
CircleSize:4
OverallDifficulty:6
ApproachRate:7
SliderMultiplier:1.6
SliderTickRate:1

[Events]
//Background and Video events
0,0,"C02C8E4D6.jpg",0,0
//Break Periods
//Storyboard Layer 0 (Background)
//Storyboard Layer 1 (Fail)
//Storyboard Layer 2 (Pass)
//Storyboard Layer 3 (Foreground)
//Storyboard Sound Samples

[TimingPoints]
70,472.44094488189,4,2,0,50,1,0
177944,472.44094488189,4,1,0,25,1,0
181723,-95.2380952380952,4,1,0,30,0,0
185503,-90.9090909090909,4,1,0,35,0,0
189282,-86.9565217391304,4,1,0,40,0,0
189755,-86.9565217391304,4,1,0,45,0,0
190227,-86.9565217391304,4,1,0,50,0,0
190699,-86.9565217391304,4,1,0,55,0,0
191172,-86.9565217391304,4,1,1,60,0,0
193062,472.44094488189,4,1,1,80,1,1
193062,-76.9230769230769,4,1,1,80,0,1
208180,-71.4285714285714,4,1,1,90,0,1
223298,-100,4,2,0,50,0,0

[Colours]
Combo1 : 228,228,228
Combo2 : 148,148,148

[HitObjects]
163,26,70,6,0,P|146:100|244:121,1,160,2|0,0:0|0:0,0:0:0:0:
297,162,778,2,0,P|257:205|249:238,1,80,2|0,0:0|0:0,0:0:0:0:
283,305,1251,1,0,0:0:0:0:
368,253,1723,6,0,L|450:276,1,80,2|0,0:0|0:0,0:0:0:0:
502,211,2195,2,0,L|468:138,1,80
381,123,2668,2,0,L|328:195,1,80,2|0,0:0|0:0,0:0:0:0:
255,207,3140,1,2,0:0:0:0:
289,15,3377,2,0,P|293:55|287:95,1,80,2|0,0:0|0:0,0:0:0:0:
157,85,3849,6,0,P|132:156|154:244,1,160,2|0,0:0|0:0,0:0:0:0:
77,289,4558,2,0,P|36:306|10:342,1,80,2|0,0:0|0:0,0:0:0:0:
154,322,5030,1,0,0:0:0:0:
233,285,5503,6,0,L|321:309,1,80,2|0,0:0|0:0,0:0:0:0:
372,240,5975,1,0,0:0:0:0:
299,146,6211,2,0,L|289:225,1,80,0|2,0:0|0:0,0:0:0:0:
372,97,6684,1,0,0:0:0:0:
242,72,6920,2,0,P|194:80|133:75,1,80,2|0,0:0|0:0,0:0:0:0:
312,8,7392,1,0,0:0:0:0:
477,59,7629,6,0,P|445:117|493:199,1,160,2|0,0:0|0:0,0:0:0:0:
444,265,8337,2,0,P|391:262|351:298,1,80,2|0,0:0|0:0,0:0:0:0:
292,342,8810,1,0,0:0:0:0:
213,262,9282,6,0,L|119:271,1,80,2|0,0:0|0:0,0:0:0:0:
71,207,9755,2,0,L|119:128,1,80
214,114,10227,2,0,L|270:215,1,80,2|0,0:0|0:0,0:0:0:0:
340,184,10699,1,2,0:0:0:0:
335,14,10936,2,0,P|307:50|300:109,1,80,2|0,0:0|0:0,0:0:0:0:
365,190,11408,6,0,P|430:194|457:92,1,160,2|0,0:0|0:0,0:0:0:0:
493,247,12117,2,0,P|466:289|466:341,1,80,2|0,0:0|0:0,0:0:0:0:
392,365,12589,1,0,0:0:0:0:
330,297,13062,6,0,L|246:308,1,80,2|0,0:0|0:0,0:0:0:0:
188,241,13534,2,0,L|208:147,2,80
114,294,14243,1,2,0:0:0:0:
22,221,14479,2,0,P|20:181|38:131,1,80,0|2,0:0|0:0,0:0:0:0:
99,57,14951,1,0,0:0:0:0:
99,57,15188,6,0,B|229:86|193:9|343:47,1,240,2|2,0:0|0:0,0:0:0:0:
400,98,16132,1,0,0:0:0:0:
400,98,16369,2,0,L|378:197,1,80
433,255,16841,1,2,0:0:0:0:
304,168,17077,1,0,0:0:0:0:
354,303,17314,6,0,P|302:291|186:314,1,160,0|2,0:0|0:0,0:0:0:0:
130,251,18022,1,0,0:0:0:0:
215,194,18258,2,0,P|225:141|212:93,1,80
279,41,18731,1,0,0:0:0:0:
375,178,18967,6,0,B|339:108|375:4,1,160,2|0,0:0|0:0,0:0:0:0:
476,170,19676,2,0,P|486:219|482:264,1,80,2|0,0:0|0:0,0:0:0:0:
420,312,20148,1,2,0:0:0:0:
328,276,20384,1,0,0:0:0:0:
357,363,20621,1,2,0:0:0:0:
403,193,20857,6,0,P|412:130|422:33,1,160
311,184,21566,2,0,P|315:223|317:263,1,80,2|0,0:0|0:0,0:0:0:0:
230,151,22038,2,0,P|231:111|236:71,1,80
147,197,22510,1,2,0:0:0:0:
236,284,22747,6,0,P|177:281|100:369,1,160
326,307,23455,2,0,P|322:258|313:215,1,80,2|0,0:0|0:0,0:0:0:0:
358,149,23928,1,0,0:0:0:0:
358,149,24164,1,0,0:0:0:0:
230,237,24400,1,2,0:0:0:0:
432,251,24636,5,2,0:0:0:0:
391,321,24873,2,0,L|378:134,1,160
476,109,25581,1,0,0:0:0:0:
358,16,25818,1,2,0:0:0:0:
364,31,26054,1,2,0:0:0:0:
287,196,26290,1,0,0:0:0:0:
179,153,26526,6,0,P|248:162|310:78,1,160,2|0,0:0|0:0,0:0:0:0:
98,95,27235,2,0,P|87:138|85:174,1,80,2|0,0:0|0:0,0:0:0:0:
200,82,27707,2,0,P|196:39|180:0,1,80,0|2,0:0|0:0,0:0:0:0:
154,231,28180,1,0,0:0:0:0:
196,163,28416,6,0,L|203:346,1,160,2|0,0:0|0:0,0:0:0:0:
285,159,29125,2,0,P|300:97|314:45,1,80,2|0,0:0|0:0,0:0:0:0:
365,208,29597,1,0,0:0:0:0:
431,296,29833,2,0,P|369:300|334:316,1,80,2|0,0:0|0:0,0:0:0:0:
247,369,30306,6,0,P|267:328|240:222,1,160,2|0,0:0|0:0,0:0:0:0:
354,129,31014,2,0,P|332:173|333:216,1,80,2|0,0:0|0:0,0:0:0:0:
277,96,31487,1,2,0:0:0:0:
442,154,31723,1,2,0:0:0:0:
506,89,31959,1,0,0:0:0:0:
432,171,32195,6,0,P|405:219|419:337,1,160
324,252,32904,2,0,P|279:242|223:260,1,80,2|0,0:0|0:0,0:0:0:0:
162,298,33377,1,2,0:0:0:0:
275,153,33613,1,2,0:0:0:0:
205,59,33849,1,0,0:0:0:0:
288,142,34085,6,0,P|329:153|371:57,1,160
192,134,34794,2,0,P|174:176|167:229,1,80,2|0,0:0|0:0,0:0:0:0:
175,29,35266,1,2,0:0:0:0:
255,66,35503,2,0,P|295:74|353:60,1,80,2|0,0:0|0:0,0:0:0:0:
114,106,35975,6,0,P|49:116|8:210,1,160
98,262,36684,2,0,P|52:278|14:316,1,80,2|0,0:0|0:0,0:0:0:0:
176,284,37156,1,2,0:0:0:0:
251,247,37392,2,0,P|257:197|244:145,1,80,2|0,0:0|0:0,0:0:0:0:
366,334,37865,6,0,P|298:325|202:373,1,160
133,307,38573,1,2,0:0:0:0:
215,359,38810,1,0,0:0:0:0:
238,260,39046,2,0,P|248:211|272:164,1,80,2|0,0:0|0:0,0:0:0:0:
189,130,39518,1,0,0:0:0:0:
342,174,39755,6,0,P|385:168|434:165,1,80,2|0,0:0|0:0,0:0:0:0:
480,101,40227,1,0,0:0:0:0:
420,27,40463,2,0,P|367:29|311:22,1,80,2|0,0:0|0:0,0:0:0:0:
257,65,40936,1,2,0:0:0:0:
303,132,41172,1,2,0:0:0:0:
241,196,41408,1,0,0:0:0:0:
392,134,41644,6,0,P|450:141|481:250,1,160
423,291,42353,1,2,0:0:0:0:
347,229,42589,2,0,P|300:235|256:251,1,80,0|2,0:0|0:0,0:0:0:0:
205,317,43062,2,0,P|160:317|107:330,1,80
32,167,43534,6,0,P|40:228|38:339,1,160,2|0,0:0|0:0,0:0:0:0:
111,198,44243,2,0,P|116:148|135:101,1,80
184,51,44715,1,2,0:0:0:0:
96,22,44951,2,0,P|51:17|-5:27,1,80,2|0,0:0|0:0,0:0:0:0:
227,147,45424,5,2,0:0:0:0:
227,147,46605,1,0,0:0:0:0:
322,168,47077,1,0,0:0:0:0:
44,243,47550,5,2,0:0:0:0:
143,279,48258,1,0,0:0:0:0:
143,279,48495,1,0,0:0:0:0:
233,313,48967,1,0,0:0:0:0:
90,48,49440,5,2,0:0:0:0:
90,48,50857,1,0,0:0:0:0:
144,122,51093,6,0,P|214:97|212:22,1,160,0|2,0:0|0:0,0:0:0:0:
292,114,51802,1,0,0:0:0:0:
368,168,52038,1,2,0:0:0:0:
460,147,52274,1,0,0:0:0:0:
510,40,52510,1,2,0:0:0:0:
395,89,52747,1,0,0:0:0:0:
447,228,52983,1,2,0:0:0:0:
498,325,53219,6,0,P|454:315|396:334,1,80,2|0,0:0|0:0,0:0:0:0:
349,257,53692,1,2,0:0:0:0:
283,380,53928,2,0,L|269:294,2,80
178,235,54636,1,2,0:0:0:0:
290,170,54873,1,0,0:0:0:0:
244,79,55109,6,0,L|229:244,1,160,0|2,0:0|0:0,0:0:0:0:
98,12,55818,2,0,L|112:171,1,160
0,94,56526,1,2,0:0:0:0:
30,241,56762,6,0,L|40:148,1,80
133,265,57235,2,0,L|146:360,1,80,0|2,0:0|0:0,0:0:0:0:
205,207,57707,1,0,0:0:0:0:
131,134,57944,1,0,0:0:0:0:
202,57,58180,1,0,0:0:0:0:
272,131,58416,1,2,0:0:0:0:
327,74,58652,6,0,P|307:182|298:236,1,160
212,235,59361,1,2,0:0:0:0:
371,278,59597,2,0,P|384:240|401:204,1,80
383,364,60070,1,0,0:0:0:0:
280,310,60306,1,2,0:0:0:0:
189,351,60542,6,0,P|141:362|98:359,1,80
0,244,61014,2,0,P|39:243|78:233,1,80,0|2,0:0|0:0,0:0:0:0:
192,96,61487,2,0,P|158:149|167:250,1,160
92,109,62195,1,2,0:0:0:0:
277,151,62432,1,0,0:0:0:0:
355,187,62668,6,0,P|359:126|359:87,1,80,2|0,0:0|0:0,0:0:0:0:
472,32,63140,2,0,P|450:76|446:119,1,80
490,195,63613,1,2,0:0:0:0:
378,38,63849,2,0,P|335:34|296:52,1,80,0|2,0:0|0:0,0:0:0:0:
220,217,64321,1,0,0:0:0:0:
248,114,64558,6,0,L|254:218,1,80,2|0,0:0|0:0,0:0:0:0:
166,75,65030,1,2,0:0:0:0:
131,202,65266,2,0,P|133:256|135:294,1,80
86,357,65739,1,0,0:0:0:0:
186,356,65975,1,2,0:0:0:0:
254,292,66211,1,0,0:0:0:0:
335,363,66447,6,0,P|339:316|303:191,1,160,0|2,0:0|0:0,0:0:0:0:
407,209,67156,1,0,0:0:0:0:
331,122,67392,2,0,P|319:78|333:42,1,80
248,166,67865,1,2,0:0:0:0:
168,217,68101,1,0,0:0:0:0:
98,279,68337,6,0,P|102:326|106:375,1,80,2|0,0:0|0:0,0:0:0:0:
23,218,68810,1,2,0:0:0:0:
99,110,69046,2,0,L|112:203,2,80
158,39,69755,1,2,0:0:0:0:
23,94,69991,1,0,0:0:0:0:
175,125,70227,6,0,P|231:116|349:134,1,160,0|2,0:0|0:0,0:0:0:0:
432,71,70936,2,0,P|405:133|434:252,1,160
510,249,71644,1,2,0:0:0:0:
358,286,71881,6,0,P|313:298|283:330,1,80
138,304,72353,2,0,P|176:295|206:269,1,80,0|2,0:0|0:0,0:0:0:0:
292,70,72825,2,0,P|275:136|283:232,1,160
191,137,73534,1,2,0:0:0:0:
376,153,73770,6,0,P|375:102|355:-5,1,160
451,46,74479,1,2,0:0:0:0:
509,113,74715,2,0,P|490:182|508:296,1,160
433,347,75424,1,2,0:0:0:0:
308,257,75660,6,0,P|364:247|413:332,1,160
231,240,76369,1,2,0:0:0:0:
304,173,76605,2,0,P|305:121|265:14,1,160
370,62,77314,1,2,0:0:0:0:
227,121,77550,1,0,0:0:0:0:
133,88,77786,6,0,P|148:146|143:196,1,80,2|0,0:0|0:0,0:0:0:0:
42,250,78258,2,0,P|44:210|56:172,1,80,2|0,0:0|0:0,0:0:0:0:
112,304,78731,1,0,0:0:0:0:
212,216,78967,2,0,L|215:334,1,80,0|2,0:0|0:0,0:0:0:0:
292,349,79440,6,0,B|378:332|369:377|468:354,1,160
377,262,80148,1,2,0:0:0:0:
472,199,80384,2,0,P|481:149|479:105,1,80
422,38,80857,1,0,0:0:0:0:
296,116,81093,2,0,P|343:126|398:116,1,80,2|0,0:0|0:0,0:0:0:0:
236,181,81566,6,0,P|175:190|55:184,1,160,0|2,0:0|0:0,0:0:0:0:
44,25,82274,1,0,0:0:0:0:
44,25,82510,2,0,L|23:119,1,80
92,190,82983,1,2,0:0:0:0:
222,94,83219,6,0,P|160:92|93:180,1,160,2|0,0:0|0:0,0:0:0:0:
16,215,83928,2,0,P|41:257|43:301,1,80,2|0,0:0|0:0,0:0:0:0:
8,370,84400,1,0,0:0:0:0:
128,307,84873,6,0,L|222:316,1,80,2|0,0:0|0:0,0:0:0:0:
270,252,85346,2,0,L|222:173,1,80
127,159,85818,2,0,L|71:260,1,80,2|0,0:0|0:0,0:0:0:0:
41,304,86290,1,2,0:0:0:0:
163,288,86526,2,0,P|187:329|189:378,1,80,2|0,0:0|0:0,0:0:0:0:
247,245,86999,6,0,P|216:183|284:102,1,160,2|0,0:0|0:0,0:0:0:0:
342,45,87707,2,0,P|300:50|262:29,1,80,2|0,0:0|0:0,0:0:0:0:
428,16,88180,1,0,0:0:0:0:
487,93,88652,6,0,L|496:184,1,80,2|0,0:0|0:0,0:0:0:0:
403,250,89125,2,0,L|419:151,2,80,0|0|2,0:0|0:0|0:0,0:0:0:0:
458,314,89833,1,2,0:0:0:0:
314,247,90070,2,0,P|267:251|225:269,1,80,2|0,0:0|0:0,0:0:0:0:
153,328,90542,1,0,0:0:0:0:
153,328,90778,6,0,B|132:232|174:189|139:62,1,240,2|2,0:0|0:0,0:0:0:0:
225,26,91723,1,0,0:0:0:0:
225,26,91959,2,0,P|273:24|336:30,1,80
392,73,92432,1,2,0:0:0:0:
317,138,92668,1,0,0:0:0:0:
429,232,92904,6,0,P|378:216|302:285,1,160,0|2,0:0|0:0,0:0:0:0:
500,275,93613,1,0,0:0:0:0:
461,157,93849,2,0,P|455:108|470:65,1,80
386,29,94321,1,0,0:0:0:0:
249,102,94558,6,0,P|313:86|382:141,1,160,2|0,0:0|0:0,0:0:0:0:
169,121,95266,2,0,P|156:77|167:19,1,80
226,182,95739,1,2,0:0:0:0:
282,278,95975,1,2,0:0:0:0:
330,174,96211,1,0,0:0:0:0:
131,290,96447,6,0,P|202:280|255:359,1,160
59,252,97156,2,0,P|75:215|73:171,1,80,2|0,0:0|0:0,0:0:0:0:
54,83,97629,1,2,0:0:0:0:
133,137,97865,2,0,P|176:148|219:127,1,80,2|0,0:0|0:0,0:0:0:0:
284,48,98337,6,0,P|251:90|266:198,1,160,2|0,0:0|0:0,0:0:0:0:
186,241,99046,1,2,0:0:0:0:
268,338,99282,2,0,P|274:294|289:247,1,80,0|2,0:0|0:0,0:0:0:0:
366,181,99755,1,2,0:0:0:0:
366,277,99991,1,0,0:0:0:0:
294,104,100227,6,0,P|286:143|291:194,1,80,2|0,0:0|0:0,0:0:0:0:
367,226,100699,1,0,0:0:0:0:
208,182,100936,2,0,P|139:208|130:310,1,160,2|2,0:0|0:0,0:0:0:0:
156,352,101644,1,2,0:0:0:0:
40,250,101881,1,0,0:0:0:0:
9,324,102117,6,0,L|1:160,1,160,2|0,0:0|0:0,0:0:0:0:
110,272,102825,2,0,P|103:319|91:363,1,80,2|0,0:0|0:0,0:0:0:0:
87,184,103298,1,2,0:0:0:0:
173,230,103534,2,0,P|224:247|280:239,1,80,2|0,0:0|0:0,0:0:0:0:
312,179,104007,6,0,P|263:166|234:50,1,160,2|0,0:0|0:0,0:0:0:0:
301,25,104715,2,0,P|313:67|297:113,1,80,2|0,0:0|0:0,0:0:0:0:
215,171,105188,1,2,0:0:0:0:
370,154,105424,2,0,P|419:173|443:205,1,80,2|0,0:0|0:0,0:0:0:0:
293,239,105896,6,0,P|287:165|283:70,1,160,2|0,0:0|0:0,0:0:0:0:
217,213,106605,2,0,P|206:264|189:316,1,80
260,344,107077,1,2,0:0:0:0:
121,276,107314,2,0,P|77:281|39:308,1,80,2|0,0:0|0:0,0:0:0:0:
222,235,107786,6,0,P|303:235|393:208,1,160,2|0,0:0|0:0,0:0:0:0:
190,159,108495,2,0,P|142:163|106:154,1,80,2|0,0:0|0:0,0:0:0:0:
241,77,108967,1,2,0:0:0:0:
285,151,109203,2,0,P|270:208|255:255,1,80,2|0,0:0|0:0,0:0:0:0:
309,351,109676,1,2,0:0:0:0:
217,322,109912,6,0,L|391:301,1,160
502,168,110857,1,2,0:0:0:0:
461,241,111093,2,0,P|450:283|468:342,1,80,2|0,0:0|0:0,0:0:0:0:
388,197,111566,6,0,P|408:131|385:37,1,160,2|0,0:0|0:0,0:0:0:0:
502,30,112274,2,0,P|487:84|492:135,1,80,2|0,0:0|0:0,0:0:0:0:
512,199,112747,1,2,0:0:0:0:
410,146,112983,2,0,P|355:164|336:180,1,80,2|0,0:0|0:0,0:0:0:0:
240,220,113455,6,0,P|268:166|238:70,1,160,2|0,0:0|0:0,0:0:0:0:
341,7,114164,2,0,P|333:55|348:106,1,80
346,172,114636,1,2,0:0:0:0:
256,143,114873,1,2,0:0:0:0:
164,172,115109,1,0,0:0:0:0:
239,229,115345,6,0,P|242:278|132:336,1,160,2|0,0:0|0:0,0:0:0:0:
311,314,116054,2,0,P|367:316|393:333,1,80,2|0,0:0|0:0,0:0:0:0:
467,359,116526,1,2,0:0:0:0:
429,255,116762,1,2,0:0:0:0:
497,176,116999,1,0,0:0:0:0:
452,103,117235,6,0,L|474:273,1,160,2|0,0:0|0:0,0:0:0:0:
363,91,117944,2,0,P|381:41|389:9,1,80,2|0,0:0|0:0,0:0:0:0:
279,120,118416,1,2,0:0:0:0:
207,169,118652,1,0,0:0:0:0:
226,250,118888,1,0,0:0:0:0:
157,313,119125,6,0,P|90:316|32:240,1,160,2|0,0:0|0:0,0:0:0:0:
234,262,119833,2,0,P|245:310|238:352,1,80,2|0,0:0|0:0,0:0:0:0:
324,208,120306,1,2,0:0:0:0:
187,156,120542,1,2,0:0:0:0:
279,103,120778,1,0,0:0:0:0:
231,247,121014,5,2,0:0:0:0:
231,247,122195,1,0,0:0:0:0:
328,265,122668,1,0,0:0:0:0:
118,50,123140,5,2,0:0:0:0:
118,50,124085,1,0,0:0:0:0:
207,63,124558,1,0,0:0:0:0:
13,255,125030,1,2,0:0:0:0:
13,255,126447,1,0,0:0:0:0:
92,205,126684,6,0,P|138:217|142:320,1,160,2|0,0:0|0:0,0:0:0:0:
225,330,127392,2,0,P|265:321|308:332,1,80,2|0,0:0|0:0,0:0:0:0:
350,226,127865,1,2,0:0:0:0:
415,335,128101,2,0,L|427:253,1,80
438,155,128573,5,2,0:0:0:0:
438,155,129755,1,0,0:0:0:0:
339,183,130227,1,0,0:0:0:0:
90,66,130699,5,2,0:0:0:0:
90,66,131408,1,0,0:0:0:0:
90,66,131644,1,0,0:0:0:0:
172,86,132117,1,0,0:0:0:0:
14,283,132589,6,0,P|9:237|12:194,1,80,2|0,0:0|0:0,0:0:0:0:
98,154,133062,1,2,0:0:0:0:
176,234,133298,2,0,P|129:242|91:238,2,80
247,170,134007,1,2,0:0:0:0:
188,314,134243,1,0,0:0:0:0:
89,369,134479,6,0,P|167:355|255:370,1,160,2|0,0:0|0:0,0:0:0:0:
338,319,135188,2,0,P|288:298|268:255,1,80,2|0,0:0|0:0,0:0:0:0:
238,191,135660,1,0,0:0:0:0:
386,244,135896,1,2,0:0:0:0:
340,56,136132,6,0,P|312:116|323:218,1,160
406,111,136841,1,2,0:0:0:0:
247,76,137077,2,0,P|168:70|86:88,1,160
33,145,137786,1,2,0:0:0:0:
103,183,138022,6,0,P|107:258|45:332,1,160
150,366,138731,1,2,0:0:0:0:
216,314,138967,2,0,P|282:306|350:371,1,160
374,259,139676,1,2,0:0:0:0:
468,186,139912,6,0,P|453:227|454:267,1,80
345,161,140384,2,0,P|358:110|353:76,1,80,0|2,0:0|0:0,0:0:0:0:
262,22,140857,2,0,P|316:35|436:3,1,160
230,121,141566,1,2,0:0:0:0:
281,196,141802,1,0,0:0:0:0:
359,144,142038,6,0,P|332:187|324:221,1,80,2|0,0:0|0:0,0:0:0:0:
420,322,142510,2,0,P|386:300|344:297,1,80,2|0,0:0|0:0,0:0:0:0:
258,306,142983,1,0,0:0:0:0:
302,238,143219,2,0,P|310:180|283:132,1,80,0|2,0:0|0:0,0:0:0:0:
252,96,143692,1,0,0:0:0:0:
184,10,143928,6,0,P|174:69|164:127,1,80,2|0,0:0|0:0,0:0:0:0:
112,155,144400,1,2,0:0:0:0:
219,197,144636,2,0,P|171:211|144:232,2,80
297,208,145345,1,2,0:0:0:0:
248,104,145581,1,0,0:0:0:0:
312,221,145818,6,0,P|322:274|247:356,1,160,0|2,0:0|0:0,0:0:0:0:
382,347,146526,1,0,0:0:0:0:
242,284,146762,2,0,P|190:295|153:317,1,80,2|0,0:0|0:0,0:0:0:0:
80,354,147235,2,0,P|93:308|94:249,1,80,2|0,0:0|0:0,0:0:0:0:
0,226,147707,6,0,P|39:224|75:203,1,80,2|0,0:0|0:0,0:0:0:0:
122,115,148180,1,2,0:0:0:0:
175,233,148416,2,0,L|198:148,2,80
274,147,149125,1,2,0:0:0:0:
227,66,149361,1,0,0:0:0:0:
284,155,149597,6,0,L|324:-14,1,160,2|2,0:0|0:0,0:0:0:0:
373,176,150306,2,0,P|354:218|336:262,1,80
441,238,150778,1,0,0:0:0:0:
330,328,151014,1,2,0:0:0:0:
431,353,151251,6,0,P|485:352|511:260,1,160
439,213,151959,1,2,0:0:0:0:
389,111,152195,2,0,L|409:292,1,160
478,145,152904,1,2,0:0:0:0:
446,52,153140,6,0,P|381:32|307:96,1,160
251,22,153849,1,2,0:0:0:0:
309,93,154085,2,0,P|333:150|288:234,1,160
221,188,154794,1,2,0:0:0:0:
145,287,155030,6,0,P|203:278|282:349,1,160
64,306,155739,1,2,0:0:0:0:
118,215,155975,2,0,P|126:129|108:49,1,160
193,50,156684,1,2,0:0:0:0:
275,100,156920,1,0,0:0:0:0:
374,113,157156,6,0,P|365:163|373:198,1,80,2|0,0:0|0:0,0:0:0:0:
489,239,157629,2,0,P|493:198|481:149,1,80,2|0,0:0|0:0,0:0:0:0:
496,332,158101,1,0,0:0:0:0:
416,291,158337,2,0,P|366:310|343:338,1,80,0|2,0:0|0:0,0:0:0:0:
489,239,158810,6,0,P|498:196|474:67,1,160,2|0,0:0|0:0,0:0:0:0:
371,17,159518,2,0,P|392:54|387:101,1,80,2|0,0:0|0:0,0:0:0:0:
320,160,159991,1,0,0:0:0:0:
421,163,160227,2,0,P|447:200|448:255,1,80,0|2,0:0|0:0,0:0:0:0:
385,294,160699,1,0,0:0:0:0:
250,231,160936,6,0,P|308:208|375:270,1,160,0|2,0:0|0:0,0:0:0:0:
168,228,161644,1,0,0:0:0:0:
216,158,161881,2,0,P|221:109|210:70,1,80
190,260,162353,1,2,0:0:0:0:
253,366,162589,5,2,0:0:0:0:
503,128,164715,5,2,0:0:0:0:
503,128,166369,1,2,0:0:0:0:
445,225,168495,5,2,0:0:0:0:
445,225,170149,1,2,0:0:0:0:
375,293,172274,5,2,0:0:0:0:
375,293,173928,1,2,0:0:0:0:
276,317,176054,5,2,0:0:0:0:
158,21,177944,6,0,P|159:84|163:131,1,80
232,162,178416,2,0,P|231:201|229:241,1,80
271,0,178888,6,0,P|272:63|276:110,1,80
345,141,179360,2,0,P|344:180|342:220,1,80
285,315,179833,5,0,0:0:0:0:
363,352,180069,1,0,0:0:0:0:
225,256,180306,1,0,0:0:0:0:
147,293,180542,1,0,0:0:0:0:
42,303,180778,5,0,0:0:0:0:
5,225,181014,1,0,0:0:0:0:
101,87,181251,1,0,0:0:0:0:
64,165,181487,1,0,0:0:0:0:
152,231,181723,6,0,P|214:238|273:243,1,83.9999974365235
385,162,182195,2,0,P|323:169|264:174,1,83.9999974365235
146,125,182668,2,0,P|208:132|267:137,1,83.9999974365235
379,56,183140,2,0,P|317:63|258:68,1,83.9999974365235
487,88,183613,5,0,0:0:0:0:
421,167,183849,1,0,0:0:0:0:
499,236,184085,1,0,0:0:0:0:
446,313,184321,1,0,0:0:0:0:
356,256,184558,5,0,0:0:0:0:
277,190,184794,1,0,0:0:0:0:
208,268,185030,1,0,0:0:0:0:
131,215,185266,1,0,0:0:0:0:
196,136,185503,6,0,P|204:82|203:34,1,88.000002685547
307,0,185975,2,0,P|307:43|315:87,1,88.000002685547
393,218,186447,6,0,P|401:164|400:116,1,88.000002685547
504,82,186919,2,0,P|504:125|512:169,1,88.000002685547
488,303,187392,5,0,0:0:0:0:
409,342,187629,1,0,0:0:0:0:
255,224,187865,1,0,0:0:0:0:
336,248,188101,1,0,0:0:0:0:
285,122,188337,5,0,0:0:0:0:
206,161,188574,1,0,0:0:0:0:
52,43,188810,1,0,0:0:0:0:
133,67,189046,1,0,0:0:0:0:
15,152,189282,5,0,0:0:0:0:
234,229,189518,1,0,0:0:0:0:
130,311,189755,1,0,0:0:0:0:
216,56,189991,1,0,0:0:0:0:
312,140,190227,5,0,0:0:0:0:
56,218,190463,1,0,0:0:0:0:
256,319,190699,1,0,0:0:0:0:
186,384,190936,1,0,0:0:0:0:
219,37,191172,1,8,0:0:0:0:
220,78,193062,6,0,B|318:112|318:112|448:57,1,207.999990478516,4|0,0:0|0:0,0:0:0:0:
172,10,193770,1,0,0:0:0:0:
241,245,194006,2,0,L|261:138,1,103.999995239258,8|0,0:0|0:0,0:0:0:0:
55,207,194479,2,0,L|74:309,1,103.999995239258
377,348,194951,6,0,B|269:318|291:385|173:355,1,207.999990478516,4|0,0:0|0:0,0:0:0:0:
451,291,195660,1,0,0:0:0:0:
322,122,195896,2,0,L|301:224,1,103.999995239258,8|0,0:0|0:0,0:0:0:0:
469,127,196369,2,0,L|445:8,1,103.999995239258
211,104,196841,6,0,P|282:119|364:16,2,207.999990478516,4|0|8,0:0|0:0|0:0,0:0:0:0:
388,172,198022,1,0,0:0:0:0:
388,172,198258,1,0,0:0:0:0:
206,23,198495,6,0,P|158:31|83:48,1,103.999995239258
288,46,198967,1,0,0:0:0:0:
149,146,199203,2,0,P|140:212|133:256,1,103.999995239258
12,41,199676,1,8,0:0:0:0:
265,151,199912,1,8,0:3:0:0:
259,170,200030,1,4,0:3:0:0:
253,188,200148,1,8,0:0:0:0:
216,70,200384,1,0,0:0:0:0:
486,301,200621,6,0,B|384:326|392:253|284:281,1,207.999990478516,4|0,0:0|0:0,0:0:0:0:
325,368,201329,1,0,0:0:0:0:
452,211,201565,2,0,L|422:86,1,103.999995239258,8|0,0:0|0:0,0:0:0:0:
324,8,202038,2,0,L|280:132,1,103.999995239258
69,31,202510,6,0,P|141:22|217:141,1,207.999990478516,4|0,0:0|0:0,0:0:0:0:
246,0,203219,1,0,0:0:0:0:
128,138,203455,2,0,L|150:261,1,103.999995239258,8|0,0:0|0:0,0:0:0:0:
248,360,203928,2,0,L|285:227,1,103.999995239258
0,320,204400,6,0,B|97:352|97:352|198:295,2,207.999990478516,4|0|8,0:0|0:0|0:0,0:0:0:0:
284,362,205581,1,0,0:0:0:0:
213,213,205817,1,0,0:0:0:0:
349,286,206054,6,0,P|413:291|471:297,1,103.999995239258
491,369,206526,1,0,0:0:0:0:
304,118,206762,2,0,P|300:179|296:238,1,103.999995239258
392,25,207235,1,8,0:0:0:0:
204,220,207471,1,8,0:0:0:0:
293,313,207707,1,8,0:0:0:0:
213,100,207943,1,0,0:0:0:0:
511,172,208180,6,0,L|281:191,1,223.999993164063,4|0,0:0|0:0,0:0:0:0:
474,261,208888,1,0,0:0:0:0:
305,4,209124,2,0,P|285:60|294:118,1,111.999996582031,8|0,0:0|0:0,0:0:0:0:
389,233,209597,1,0,0:0:0:0:
308,196,209833,1,0,0:0:0:0:
85,95,210069,6,0,P|151:86|216:214,1,223.999993164063,4|0,0:0|0:0,0:0:0:0:
15,182,210778,2,0,P|7:124|1:30,1,111.999996582031,0|8,0:0|0:0,0:0:0:0:
75,238,211250,1,0,0:0:0:0:
164,311,211487,1,0,0:0:0:0:
280,306,211723,1,0,0:0:0:0:
394,166,211959,6,0,P|372:226|504:335,1,223.999993164063,4|0,0:0|0:0,0:0:0:0:
294,188,212668,1,0,0:0:0:0:
495,60,212904,2,0,P|510:119|496:182,1,111.999996582031,8|0,0:0|0:0,0:0:0:0:
384,8,213376,1,0,0:0:0:0:
219,82,213613,6,0,L|336:104,1,111.999996582031
152,8,214085,1,0,0:0:0:0:
88,94,214321,2,0,P|59:147|74:233,1,111.999996582031
240,298,214794,2,0,P|191:271|135:274,1,111.999996582031,8|8,0:0|0:3,0:0:0:0:
101,297,215148,1,4,0:3:0:0:
101,297,215266,1,8,0:0:0:0:
443,244,215502,1,0,0:0:0:0:
374,94,215739,6,0,B|419:204|320:204|386:325,1,223.999993164063,4|0,0:0|0:0,0:0:0:0:
300,152,216447,1,0,0:0:0:0:
480,130,216684,2,0,P|491:66|482:15,1,111.999996582031,8|0,0:0|0:0,0:0:0:0:
282,23,217156,2,0,P|264:77|295:157,1,111.999996582031
426,231,217628,6,0,P|320:231|276:327,1,223.999993164063,4|0,0:0|0:0,0:0:0:0:
221,183,218337,1,0,0:0:0:0:
382,144,218573,2,0,P|393:79|380:16,1,111.999996582031,8|0,0:0|0:0,0:0:0:0:
474,204,219046,1,0,0:0:0:0:
400,290,219282,1,0,0:0:0:0:
219,352,219518,6,0,B|332:310|331:406|471:358,1,223.999993164063,4|0,0:0|0:0,0:0:0:0:
172,267,220227,1,0,0:0:0:0:
280,149,220463,2,0,P|298:206|282:271,1,111.999996582031,8|0,0:0|0:0,0:0:0:0:
371,78,220936,1,0,0:0:0:0:
237,50,221172,6,0,L|114:38,1,111.999996582031
313,1,221644,1,0,0:0:0:0:
199,126,221880,2,0,P|177:179|195:254,1,111.999996582031
293,333,222353,5,8,0:0:0:0:
266,324,222471,1,8,0:3:0:0:
238,320,222589,1,4,0:3:0:0:
210,319,222707,1,4,0:3:0:0:
182,321,222825,1,8,0:3:0:0:
155,327,222943,1,8,0:3:0:0:
129,336,223061,1,4,0:3:0:0:
104,349,223179,1,4,0:3:0:0:
81,365,223297,1,4,0:0:0:0:
