osu file format v14

[General]
AudioFilename: audio.mp3
AudioLeadIn: 0
PreviewTime: -1
Countdown: 0
SampleSet: Normal
StackLeniency: 0.7
Mode: 0
LetterboxInBreaks: 0
WidescreenStoryboard: 1

[Editor]
Bookmarks: 36725,84350,96725,102162,189350,189912,190475
DistanceSpacing: 1
BeatDivisor: 2
GridSize: 16
TimelineZoom: 1.4

[Metadata]
Title:All I Want
TitleUnicode:All I Want
Artist:A Day To Remember
ArtistUnicode:A Day To Remember
Creator:Nat3
Version:Normal
Source:
Tags:ADTR
BeatmapID:2118066
BeatmapSetID:1011991

[Difficulty]
HPDrainRate:3
CircleSize:3.6
OverallDifficulty:3.5
ApproachRate:5
SliderMultiplier:1.3
SliderTickRate:1

[Events]
//Background and Video events
0,0,"wp2932612.jpg",0,0
//Break Periods
2,12550,21650
2,144362,154775
//Storyboard Layer 0 (Background)
//Storyboard Layer 1 (Fail)
//Storyboard Layer 2 (Pass)
//Storyboard Layer 3 (Foreground)
//Storyboard Layer 4 (Overlay)
//Storyboard Sound Samples

[TimingPoints]
350,375,4,1,1,75,1,0
350,-100,4,1,1,75,0,0

[Colours]
Combo1 : 0,232,232
Combo2 : 83,255,83
Combo3 : 33,81,192
Combo4 : 207,46,231

[HitObjects]
135,277,350,5,6,0:0:0:0:
145,147,725,1,8,0:0:0:0:
267,189,1100,2,0,P|292:163|310:129,2,65,2|2|8,0:0|0:0|0:0,0:0:0:0:
139,212,1850,5,2,0:0:0:0:
41,125,2225,1,8,0:0:0:0:
125,28,2600,2,0,B|155:15|188:17,2,65,2|2|8,0:0|0:0|0:0,0:0:0:0:
256,44,3350,5,6,0:0:0:0:
364,83,3725,2,0,B|407:131|407:131|407:209,1,130,12|4,0:0|0:0,0:0:0:0:
338,307,4475,5,12,0:0:0:0:
466,288,4850,2,0,B|509:240|509:240|509:162,1,130,6|12,0:0|0:0,0:0:0:0:
430,70,5600,1,6,0:0:0:0:
300,71,5975,5,10,0:0:0:0:
300,71,6162,1,10,0:0:0:0:
300,71,6350,2,0,P|245:128|244:207,1,130,6|8,0:0|0:0,0:0:0:0:
242,305,7100,5,2,0:0:0:0:
289,260,7287,1,2,0:0:0:0:
330,209,7475,1,8,0:0:0:0:
347,82,7850,5,2,0:0:0:0:
444,167,8225,1,8,0:0:0:0:
369,273,8600,2,0,L|369:338,2,65,2|2|8,0:0|0:0|0:0,0:0:0:0:
313,155,9350,6,0,B|249:128|236:206|167:135,1,130,6|12,0:0|0:0,0:0:0:0:
112,50,10100,2,0,B|65:79|65:79|35:80|35:80|-21:122,2,130,6|14|6,0:0|0:0|0:0,0:0:0:0:
242,50,11225,5,8,0:0:0:0:
371,51,11600,2,0,P|402:95|342:132,2,130,6|6|6,0:0|0:0|0:0,0:0:0:0:
256,192,22850,12,6,24350,0:0:0:0:
377,88,24725,5,8,0:0:0:0:
465,183,25100,2,0,L|542:269,2,65,2|2|8,0:0|0:0|0:0,0:0:0:0:
390,289,25850,5,2,0:0:0:0:
260,289,26225,1,8,0:0:0:0:
155,211,26600,2,0,B|137:184|137:184|137:112,2,65,2|2|8,0:0|0:0|0:0,0:0:0:0:
186,84,27350,6,0,B|223:35|223:35|314:36,1,130,2|8,0:0|0:0,0:0:0:0:
356,38,28100,2,0,B|417:38|417:38|477:109,1,130,2|8,0:0|0:0,0:0:0:0:
477,219,28850,2,0,P|401:243|351:201,2,130
433,170,29787,6,8,L|430:125,2,32.5
394,117,30162,2,8,L|391:72,2,32.5
296,203,30725,5,12,0:0:0:0:
240,85,31100,1,2,0:0:0:0:
183,201,31475,2,0,L|177:265,1,65,8|2,0:0|0:0,0:0:0:0:
216,317,31850,6,0,B|256:317|298:306,2,65,2|2|8,0:0|0:0|0:0,0:0:0:0:
290,210,32600,1,2,0:0:0:0:
290,210,32787,1,2,0:0:0:0:
290,210,32975,1,8,0:0:0:0:
420,210,33350,6,0,L|514:210,2,65,2|2|8,0:0|0:0|0:0,0:0:0:0:
309,142,34100,2,0,L|192:142,2,65,2|2|8,0:0|0:0|0:0,0:0:0:0:
434,104,34850,6,0,P|443:70|440:19,2,65,2|8|8,0:0|0:0|0:0,0:0:0:0:
353,206,35600,2,0,P|344:240|347:291,2,65,10|8|8,0:0|0:0|0:0,0:0:0:0:
474,159,36350,1,4,0:0:0:0:
356,99,36725,5,8,0:0:0:0:
229,127,37100,2,0,P|284:138|324:247,1,130,2|8,0:0|0:0,0:0:0:0:
407,92,37850,2,0,P|345:107|309:159,1,130,2|8,0:0|0:0,0:0:0:0:
312,289,38600,2,0,P|394:277|423:224,2,130,2|12|4,0:0|0:0|0:0,0:0:0:0:
226,139,39725,5,8,0:0:0:0:
334,211,40100,1,2,0:0:0:0:
334,211,40287,1,2,0:0:0:0:
334,211,40475,1,8,0:0:0:0:
412,107,40850,6,0,P|461:146|467:209,1,130,4|8,0:0|0:0,0:0:0:0:
410,240,41412,6,0,P|426:300|482:330,2,130,0|8|0,0:0|0:0|0:0,0:0:0:0:
436,180,42350,6,0,L|367:205,2,65,8|0|8,0:0|0:0|0:0,0:0:0:0:
368,69,43100,1,8,0:0:0:0:
243,102,43475,2,8,P|211:127|184:248,2,130
312,211,44600,1,2,0:0:0:0:
309,275,44787,1,2,0:0:0:0:
269,326,44975,1,8,0:0:0:0:
157,258,45350,6,0,B|120:214|120:214|119:87,1,130,12|0,0:0|0:0,0:0:0:0:
184,141,45912,2,0,B|185:82|185:82|290:2,1,130,12|0,0:0|0:0,0:0:0:0:
287,85,46475,2,0,B|332:47|332:47|462:77,1,130,12|0,0:0|0:0,0:0:0:0:
423,124,47037,5,12,0:0:0:0:
423,124,47225,2,0,B|449:174|449:174|430:244,1,130,12|8,0:0|0:0,0:0:0:0:
179,126,48350,5,2,0:0:0:0:
292,62,48725,2,0,L|329:3,2,65,10|0|2,0:0|0:0|0:0,0:0:0:0:
226,174,49475,2,0,L|172:261,2,65,10|0|2,0:0|0:0|0:0,0:0:0:0:
355,168,50225,5,8,0:0:0:0:
355,168,50412,2,4,P|443:169|521:182,2,130,6|6|4,0:0|0:0|0:0,0:0:0:0:
482,316,51725,6,0,L|482:389,2,65,10|0|2,0:0|0:0|0:0,0:0:0:0:
382,232,52475,2,0,L|382:159,2,65,10|0|2,0:0|0:0|0:0,0:0:0:0:
278,310,53225,5,8,0:0:0:0:
278,310,53412,2,0,P|190:309|112:296,2,130,6|4|4,0:0|0:0|0:0,0:0:0:0:
259,115,54725,6,0,B|413:181|371:11|516:78,2,260,12|8|8,0:0|0:0|0:0,0:0:0:0:
134,75,56600,1,2,0:0:0:0:
130,204,56975,1,8,0:0:0:0:
259,205,57350,6,0,P|318:206|372:195,2,65,12|0|12,0:0|0:0|0:0,0:0:0:0:
178,306,58100,2,0,L|88:390,2,65,12|2|12,0:0|0:0|0:0,0:0:0:0:
65,239,58850,2,0,B|95:207|95:207|271:237|178:-20|296:130|199:-19|245:398|412:142|406:238|346:356,1,520,2|4,0:0|0:0,0:0:0:0:
229,326,60725,5,8,0:0:0:0:
167,211,61100,1,2,0:0:0:0:
135,154,61287,1,2,0:0:0:0:
104,96,61475,1,8,0:0:0:0:
233,80,61850,5,2,0:0:0:0:
348,142,62225,1,8,0:0:0:0:
244,220,62600,1,2,0:0:0:0:
133,147,62975,6,0,L|61:60,2,65,12|0|4,0:0|0:0|0:0,0:0:0:0:
263,147,63725,1,12,0:0:0:0:
393,147,64100,1,4,0:0:0:0:
394,276,64475,6,0,L|469:276,2,65,12|0|4,0:0|0:0|0:0,0:0:0:0:
264,272,65225,2,0,B|264:206|264:206|309:160,1,130,12|4,0:0|0:0,0:0:0:0:
435,126,65975,2,8,B|435:181|435:181|378:237,1,130,10|2,0:0|0:0,0:0:0:0:
262,178,66725,5,12,0:0:0:0:
238,50,67100,1,2,0:0:0:0:
176,70,67287,1,2,0:0:0:0:
137,122,67475,1,8,0:0:0:0:
162,246,67850,6,0,P|223:229|261:178,1,130,2|8,0:0|0:0,0:0:0:0:
133,153,68600,1,2,0:0:0:0:
155,91,68788,1,2,0:0:0:0:
185,33,68975,1,8,0:0:0:0:
311,61,69350,6,0,L|379:167,1,65,4|2,0:0|0:0,0:0:0:0:
411,117,69725,2,0,L|445:231,1,65,4|0,0:0|0:0,0:0:0:0:
483,216,70100,2,0,L|483:316,2,65,6|0|4,0:0|0:0|0:0,0:0:0:0:
369,279,70850,5,2,0:0:0:0:
269,195,71225,1,10,0:0:0:0:
167,275,71600,1,10,0:0:0:0:
42,238,71975,1,2,0:0:0:0:
107,125,72350,6,0,L|206:158,1,65,6|0,0:0|0:0,0:0:0:0:
137,202,72725,2,0,L|236:235,1,65,8|0,0:0|0:0,0:0:0:0:
167,275,73100,2,0,B|223:271|233:347|305:315,1,130,2|8,0:0|0:0,0:0:0:0:
412,340,73850,6,0,L|467:277,1,65,2|0,0:0|0:0,0:0:0:0:
415,238,74225,2,0,L|426:159,1,65,8|0,0:0|0:0,0:0:0:0:
397,114,74600,2,0,P|340:131|308:231,1,130,2|8,0:0|0:0,0:0:0:0:
176,164,75350,5,2,0:0:0:0:
266,70,75725,1,8,0:0:0:0:
387,22,76100,2,0,L|493:22,2,65,2|0|8,0:0|0:0|0:0,0:0:0:0:
396,151,76850,5,2,0:0:0:0:
396,281,77225,1,8,0:0:0:0:
266,279,77600,2,0,L|266:343,2,65,0|4|0,0:0|0:0|0:0,0:0:0:0:
144,233,78350,5,2,0:0:0:0:
144,168,78537,1,2,0:0:0:0:
201,199,78725,1,8,0:0:0:0:
287,102,79100,5,2,0:0:0:0:
331,55,79287,1,2,0:0:0:0:
354,115,79475,1,8,0:0:0:0:
422,225,79850,5,2,0:0:0:0:
487,215,80037,1,2,0:0:0:0:
468,277,80225,1,8,0:0:0:0:
357,345,80600,6,0,P|332:341|280:312,2,65,2|2|8,0:0|0:0|0:0,0:0:0:0:
348,215,81350,2,0,P|260:132|203:268,2,260,2|2|2,0:0|0:0|0:0,0:0:0:0:
362,278,83037,6,0,L|384:380,1,65,8|2,0:0|0:0,0:0:0:0:
261,278,83600,2,0,L|261:343,2,65,10|2|8,0:0|0:0|0:0,0:0:0:0:
131,286,84350,5,6,0:0:0:0:
131,286,84537,1,2,0:0:0:0:
131,286,84725,2,0,B|163:209|163:209|217:175,2,130,8|2|8,0:0|0:0|0:0,0:0:0:0:
98,159,85850,5,2,0:0:0:0:
98,159,86037,1,2,0:0:0:0:
98,159,86225,2,0,B|164:120|164:120|164:30,2,130,12|2|12,0:0|0:0|0:0,0:0:0:0:
102,29,87350,5,2,0:0:0:0:
231,29,87725,1,12,0:0:0:0:
315,128,88100,1,2,0:0:0:0:
267,248,88475,1,12,0:0:0:0:
380,185,88850,5,6,0:0:0:0:
250,171,89225,2,0,B|220:148|220:148|220:48,2,130,12|6|12,0:0|0:0|0:0,0:0:0:0:
361,237,90350,6,0,P|400:245|432:244,2,65,12|2|12,0:0|0:0|0:0,0:0:0:0:
479,182,91100,1,12,0:0:0:0:
351,155,91475,2,8,P|356:104|448:12,2,130,12|6|8,0:0|0:0|0:0,0:0:0:0:
345,284,92600,5,2,0:0:0:0:
292,322,92787,1,2,0:0:0:0:
226,322,92975,1,8,0:0:0:0:
256,192,93350,12,4,96350,0:0:0:0:
280,84,96725,6,0,L|354:84,1,65,8|0,0:0|0:0,0:0:0:0:
410,87,97100,2,0,P|434:160|423:223,2,130,2|8|0,0:0|0:0|0:0,0:0:0:0:
320,181,98225,5,8,0:0:0:0:
265,215,98412,2,0,P|219:260|213:323,2,130,4|4|6,0:0|0:0|0:0,0:0:0:0:
319,96,99537,6,0,L|375:64,2,65,0|8|0,0:0|0:0|0:0,0:0:0:0:
266,134,100100,2,0,L|266:234,1,65,2|2,0:0|0:0,0:0:0:0:
265,264,100475,2,0,L|321:296,2,65,8|0|0,0:0|0:0|0:0,0:0:0:0:
156,335,101225,5,0,0:0:0:0:
105,294,101412,2,0,L|76:213,1,65,6|0,0:0|0:0,0:0:0:0:
129,186,101787,2,0,L|100:105,1,65,6|2,0:0|0:0,0:0:0:0:
43,110,102162,2,0,P|64:43|175:7,1,195,6|10,0:0|0:0,0:0:0:0:
172,137,103100,5,2,0:0:0:0:
223,97,103287,1,2,0:0:0:0:
285,77,103475,1,8,0:0:0:0:
325,200,103850,6,0,L|326:296,2,65,2|2|8,0:0|0:0|0:0,0:0:0:0:
399,93,104600,1,2,0:0:0:0:
346,54,104788,1,2,0:0:0:0:
285,77,104975,1,8,0:0:0:0:
162,119,105350,6,0,P|129:132|81:185,2,65,12|2|12,0:0|0:0|0:0,0:0:0:0:
234,226,106100,2,0,P|264:214|290:195,2,65,12|2|12,0:0|0:0|0:0,0:0:0:0:
162,335,106850,6,0,B|115:297|115:297|115:226,1,130,6|12,0:0|0:0,0:0:0:0:
144,100,107600,2,0,B|191:138|191:138|191:260|191:260|274:333,1,260,6|6,0:0|0:0,0:0:0:0:
354,235,108725,5,8,0:0:0:0:
439,136,109100,2,0,B|439:99|439:99|421:77,2,65,2|2|8,0:0|0:0|0:0,0:0:0:0:
322,77,109850,2,0,B|302:102|302:102|302:139,2,65,2|2|8,0:0|0:0|0:0,0:0:0:0:
370,197,110600,2,0,B|395:216|395:216|432:216,2,65,2|2|8,0:0|0:0|0:0,0:0:0:0:
242,170,111350,5,2,0:0:0:0:
207,115,111537,1,2,0:0:0:0:
169,168,111725,1,8,0:0:0:0:
85,267,112100,5,2,0:0:0:0:
82,331,112287,1,2,0:0:0:0:
25,299,112475,1,8,0:0:0:0:
25,169,112850,6,0,L|25:103,2,65,2|2|8,0:0|0:0|0:0,0:0:0:0:
89,176,113412,2,0,P|105:205|110:260,1,65,6|0,0:0|0:0,0:0:0:0:
61,277,113787,2,0,P|58:310|77:362,1,65,6|0,0:0|0:0,0:0:0:0:
120,374,114162,2,0,B|198:331|198:331|241:275|235:223,1,195,6|8,0:0|0:0,0:0:0:0:
159,128,115100,6,0,B|113:128|113:128|83:106,2,65,2|2|8,0:0|0:0|0:0,0:0:0:0:
235,234,115850,2,0,B|250:245|250:245|296:245,2,65,2|2|8,0:0|0:0|0:0,0:0:0:0:
311,128,116600,2,0,B|323:112|323:112|323:67,2,65,2|2|8,0:0|0:0|0:0,0:0:0:0:
439,138,117350,5,12,0:0:0:0:
437,267,117725,1,12,0:0:0:0:
356,165,118100,1,12,0:0:0:0:
356,293,118475,2,0,P|309:256|260:293,1,130,6|2,0:0|0:0,0:0:0:0:
170,199,119225,5,10,0:0:0:0:
71,283,119600,1,2,0:0:0:0:
200,291,119975,1,2,0:0:0:0:
261,176,120350,6,0,L|309:114,2,65,10|0|2,0:0|0:0|0:0,0:0:0:0:
196,176,120912,2,0,L|144:136,2,65,10|0|2,0:0|0:0|0:0,0:0:0:0:
230,231,121475,2,0,L|223:306,2,65,10|0|2,0:0|0:0|0:0,0:0:0:0:
294,240,122037,5,10,0:0:0:0:
294,240,122225,2,0,P|355:271|437:275,2,130,10|8|8,0:0|0:0|0:0,0:0:0:0:
344,120,123350,6,0,L|345:36,2,65,10|0|2,0:0|0:0|0:0,0:0:0:0:
393,161,123912,2,0,L|457:160,2,65,10|0|2,0:0|0:0|0:0,0:0:0:0:
344,204,124475,2,0,L|344:293,2,65,10|0|2,0:0|0:0|0:0,0:0:0:0:
292,165,125037,5,8,0:0:0:0:
292,165,125225,2,0,P|226:143|166:88,2,130,10|8|8,0:0|0:0|0:0,0:0:0:0:
176,225,126350,6,8,B|153:267|153:267|182:332|182:332|236:333|236:333|237:296,2,195,10|10|10,0:0|0:0|0:0,0:0:0:0:
370,245,128037,2,8,P|399:230|446:226,2,65,10|8|10,0:0|0:0|0:0,0:0:0:0:
310,273,128600,2,8,P|281:288|234:292,2,65,10|10|10,0:0|0:0|0:0,0:0:0:0:
256,192,129350,12,6,132350,0:0:0:0:
359,75,132912,6,0,B|422:179|300:196|391:296,2,195,2|2|2,0:0|0:0|0:0,0:0:0:0:
296,53,134225,2,0,L|252:6,2,65,10|10|10,0:0|0:0|0:0,0:0:0:0:
305,117,134787,2,0,L|264:171,2,65,10|10|10,0:0|0:0|0:0,0:0:0:0:
364,144,135350,6,0,B|428:157|454:225|454:225|427:314,2,195,4|2|2,0:0|0:0|0:0,0:0:0:0:
176,91,137037,2,0,L|176:7,2,65,10|10|10,0:0|0:0|0:0,0:0:0:0:
176,221,137787,2,0,L|175:326,2,65,10|10|10,0:0|0:0|0:0,0:0:0:0:
111,212,138350,6,0,P|82:128|117:79,1,130,6|0,0:0|0:0,0:0:0:0:
138,45,138912,2,0,P|222:16|271:51,1,130,6|0,0:0|0:0,0:0:0:0:
304,72,139475,2,0,P|330:130|312:191,1,130,6|0,0:0|0:0,0:0:0:0:
189,151,140225,5,10,0:0:0:0:
190,280,140600,2,0,L|190:381,2,65,2|2|10,0:0|0:0|0:0,0:0:0:0:
189,151,141350,5,10,0:0:0:0:
285,63,141725,1,10,0:0:0:0:
285,193,142100,1,10,0:0:0:0:
384,109,142475,1,10,0:0:0:0:
386,238,142850,6,0,P|329:267|241:262,1,130,10|8,0:0|0:0,0:0:0:0:
134,252,143600,1,2,0:0:0:0:
71,236,143787,2,8,L|1:197,2,65,10|8|4,0:0|0:0|0:0,0:0:0:0:
259,190,155975,6,8,L|314:179,4,32.5,8|8|8|8|4,0:0|0:0|0:0|0:0|0:0,0:0:0:0:
228,63,156725,1,8,0:0:0:0:
103,99,157100,1,2,0:0:0:0:
144,222,157475,1,8,0:0:0:0:
191,343,157850,5,2,0:0:0:0:
318,312,158225,2,0,P|351:303|396:270,1,65,8|6,0:0|0:0,0:0:0:0:
489,222,158787,2,0,B|490:151|490:151|421:84,1,130,6|6,0:0|0:0,0:0:0:0:
332,50,159537,5,2,0:0:0:0:
332,50,159725,2,0,P|236:42|199:80,2,130,8|0|8,0:0|0:0|0:0,0:0:0:0:
279,168,160850,1,2,0:0:0:0:
394,226,161225,5,0,0:0:0:0:
357,279,161412,2,0,L|276:308,1,65,6|0,0:0|0:0,0:0:0:0:
272,240,161787,2,0,L|191:269,1,65,6|0,0:0|0:0,0:0:0:0:
184,202,162162,2,0,P|110:260|171:331,1,195,6|8,0:0|0:0,0:0:0:0:
285,351,163100,5,2,0:0:0:0:
285,351,163287,1,2,0:0:0:0:
285,351,163475,2,8,P|363:318|367:227,1,130,8|2,0:0|0:0,0:0:0:0:
257,231,164225,5,8,0:0:0:0:
139,176,164600,2,0,P|65:170|41:170,2,65,2|2|8,0:0|0:0|0:0,0:0:0:0:
147,300,165350,5,8,0:0:0:0:
207,185,165725,1,8,0:0:0:0:
287,82,166100,1,8,0:0:0:0:
399,17,166475,6,0,P|432:3|464:6,2,65,10|0|2,0:0|0:0|0:0,0:0:0:0:
268,12,167225,2,0,B|231:14|210:62|210:62|210:158,2,130,10|2|4,0:0|0:0|0:0,0:0:0:0:
362,102,168350,5,2,0:0:0:0:
418,133,168537,1,2,0:0:0:0:
363,169,168725,1,8,0:0:0:0:
269,259,169100,5,2,0:0:0:0:
238,315,169287,1,2,0:0:0:0:
202,260,169475,1,8,0:0:0:0:
108,169,169850,5,2,0:0:0:0:
52,138,170037,1,2,0:0:0:0:
107,102,170225,1,8,0:0:0:0:
213,27,170600,5,2,0:0:0:0:
269,58,170787,1,2,0:0:0:0:
214,94,170975,1,8,0:0:0:0:
110,172,171350,2,0,P|53:227|50:287,1,130,2|8,0:0|0:0,0:0:0:0:
177,269,172100,5,2,0:0:0:0:
177,269,172287,1,2,0:0:0:0:
177,269,172475,2,0,P|256:268|311:221,1,130,8|2,0:0|0:0,0:0:0:0:
226,130,173225,1,8,0:0:0:0:
355,138,173600,5,2,0:0:0:0:
355,138,173787,1,2,0:0:0:0:
355,138,173975,2,0,P|405:199|404:271,1,130,10|2,0:0|0:0,0:0:0:0:
325,346,174725,1,8,0:0:0:0:
241,246,175100,6,0,L|192:183,2,65,2|2|8,0:0|0:0|0:0,0:0:0:0:
116,207,175850,2,0,L|76:155,2,65,2|2|8,0:0|0:0|0:0,0:0:0:0:
108,77,176600,2,0,L|68:25,2,65,2|2|8,0:0|0:0|0:0,0:0:0:0:
69,307,177350,6,0,B|69:235|69:235|96:170,1,130,10|10,0:0|0:0,0:0:0:0:
142,60,178100,2,0,P|187:21|230:60,2,130,10|10|14,0:0|0:0|0:0,0:0:0:0:
333,23,179412,1,12,0:0:0:0:
410,202,179975,1,12,0:0:0:0:
322,108,180350,6,0,P|255:86|191:147,1,130,6|0,0:0|0:0,0:0:0:0:
200,178,180912,2,0,P|155:197|91:136,1,130,6|0,0:0|0:0,0:0:0:0:
79,89,181475,2,0,P|19:121|8:196,1,130,6|0,0:0|0:0,0:0:0:0:
49,299,182225,6,0,L|81:377,2,65,2|0|2,0:0|0:0|0:0,0:0:0:0:
134,202,182975,1,6,0:0:0:0:
111,73,183350,6,0,P|181:81|213:163,1,130,6|0,0:0|0:0,0:0:0:0:
226,189,183912,2,0,P|277:237|361:209,1,130,6|0,0:0|0:0,0:0:0:0:
397,224,184475,2,0,P|437:278|416:350,1,130,6|0,0:0|0:0,0:0:0:0:
296,334,185225,6,0,L|231:334,2,65,2|2|2,0:0|0:0|0:0,0:0:0:0:
295,204,185975,1,4,0:0:0:0:
296,74,186350,6,0,P|366:82|398:164,1,130,6|0,0:0|0:0,0:0:0:0:
421,188,186912,2,0,P|439:248|406:302,1,130,6|0,0:0|0:0,0:0:0:0:
342,321,187475,2,0,P|279:328|231:285,1,130,6|0,0:0|0:0,0:0:0:0:
210,224,188037,6,0,L|264:156,2,65,8|8|8,0:0|0:0|0:0,0:0:0:0:
167,273,188600,2,0,L|86:300,2,65,8|8|8,0:0|0:0|0:0,0:0:0:0:
173,143,189350,5,14,0:0:0:0:
343,48,189912,1,14,0:0:0:0:
426,224,190475,2,0,L|426:128,2,65,10|10|10,0:0|0:0|0:0,0:0:0:0:
361,224,191037,5,12,0:0:0:0:
295,224,191225,1,12,0:0:0:0:
165,224,191600,2,0,B|68:267|68:267|166:341|166:341|166:305,1,260,14|6,0:0|0:0,0:0:0:0:
