osu file format v14

[General]
AudioFilename: audio.mp3
AudioLeadIn: 0
PreviewTime: 19125
Countdown: 1
SampleSet: Normal
StackLeniency: 0.7
Mode: 0
LetterboxInBreaks: 0
WidescreenStoryboard: 0

[Editor]
Bookmarks: 35,1057,2080,2762,3784,4807,5489,6512,7534,8216,9239,10262,10944,21171,21341,21512,21682,31910,31966,32023,32080,32421,42819,42875,42932,42989,43330,53898,54239,54580,75716,75887,76057,76228,86455,86512,86569,86625,86966,97364,97421,97478,97535,97875,98216
DistanceSpacing: 2
BeatDivisor: 8
GridSize: 16
TimelineZoom: 2.4

[Metadata]
Title:Ransom
TitleUnicode:Ransom
Artist:A Boogie Wit Da Hoodie
ArtistUnicode:A Boogie Wit Da Hoodie
Creator:Clappy
Version:Kidnapped
Source:
Tags:Rap & Hip Hop A Boogie Down Bronx TBA TheOnlyLeon
BeatmapID:1264575
BeatmapSetID:598251

[Difficulty]
HPDrainRate:6.5
CircleSize:4
OverallDifficulty:9
ApproachRate:9.3
SliderMultiplier:1.8
SliderTickRate:1

[Events]
//Background and Video events
0,0,"bgosu.jpg",0,0
//Break Periods
2,11144,18490
//Storyboard Layer 0 (Background)
//Storyboard Layer 1 (Fail)
//Storyboard Layer 2 (Pass)
//Storyboard Layer 3 (Foreground)
//Storyboard Layer 4 (Overlay)
//Storyboard Sound Samples

[TimingPoints]
35,340.909090909091,4,1,1,75,1,0
35,-133.333333333333,4,1,1,75,0,0
19125,-100,4,1,1,75,0,0
21171,-100,4,1,1,75,0,1
21853,-80,4,1,1,75,0,0
31910,-80,4,1,1,75,0,1
32421,-80,4,1,2,75,0,0
32762,-80,4,1,1,75,0,0
42819,-80,4,1,1,75,0,1
43330,-80,4,1,2,75,0,0
43671,-100,4,1,1,75,0,0
53898,-200,4,1,1,75,0,1
54239,-100,4,1,1,75,0,1
54580,-100,4,1,1,75,0,0
75716,-100,4,1,1,75,0,1
76398,-133.333333333333,4,1,1,75,0,1
76483,-80,4,1,1,75,0,1
76995,-80,4,1,69,75,0,1
77165,-80,4,1,1,75,0,1
77336,-80,4,1,1,75,0,0
86455,-80,4,1,1,75,0,1
86881,-80,4,1,2,75,0,1
86966,-80,4,1,2,75,0,0
87052,-80,4,1,1,75,0,0
97364,-80,4,1,1,75,0,1
97875,-80,4,1,2,75,0,1
98557,-80,4,1,2,75,0,0

[Colours]
Combo1 : 128,128,192
Combo2 : 64,0,128
Combo3 : 255,128,255
Combo4 : 255,255,0
Combo5 : 0,255,0
Combo6 : 255,0,0

[HitObjects]
64,104,35,6,0,P|67:143|75:180,1,67.5000025749208,4|0,0:0|2:2,0:0:0:0:
155,326,375,1,0,0:0:0:0:
137,102,716,1,0,0:0:0:0:
296,345,1057,6,0,P|299:307|291:266,1,67.5000025749208,4|0,0:0|2:2,0:0:0:0:
246,117,1398,1,0,0:0:0:0:
213,335,1739,1,0,0:0:0:0:
69,135,2080,6,0,P|103:140|137:151,1,67.5000025749208,4|0,0:0|2:2,0:0:0:0:
352,243,2421,1,2,0:0:0:0:
66,339,2762,6,0,L|76:265,1,67.5000025749208,4|0,0:0|0:0,0:0:0:0:
120,173,3103,1,0,0:0:0:0:
167,289,3273,1,0,0:0:0:0:
120,173,3444,1,0,0:0:0:0:
167,289,3614,1,0,0:0:0:0:
187,109,3784,6,0,P|213:87|252:66,1,67.5000025749208,4|0,0:0|2:2,0:0:0:0:
422,26,4125,1,0,0:0:0:0:
238,168,4466,1,0,0:0:0:0:
436,328,4807,6,0,P|443:294|445:262,1,67.5000025749208,4|0,0:0|2:2,0:0:0:0:
440,70,5148,1,0,0:0:0:0:
187,321,5489,6,0,P|179:285|178:245,1,67.5000025749208,4|0,0:0|2:2,0:0:0:0:
188,36,5830,1,0,0:0:0:0:
267,301,6171,1,0,0:0:0:0:
74,84,6512,6,0,P|108:79|148:76,1,67.5000025749208,4|0,0:0|2:2,0:0:0:0:
324,59,6853,1,0,0:0:0:0:
83,166,7194,1,0,0:0:0:0:
261,327,7534,6,0,P|258:292|249:256,1,67.5000025749208,4|0,0:0|2:2,0:0:0:0:
198,80,7875,1,0,0:0:0:0:
137,350,8216,6,0,P|139:314|143:282,1,67.5000025749208,4|0,0:0|2:2,0:0:0:0:
198,80,8557,1,0,0:0:0:0:
214,348,8898,1,0,0:0:0:0:
122,50,9239,6,0,P|117:74|114:117,1,67.5000025749208,4|0,0:0|2:2,0:0:0:0:
137,350,9580,1,0,0:0:0:0:
197,68,9921,1,0,0:0:0:0:
192,341,10262,6,0,P|201:302|213:268,1,67.5000025749208,4|0,0:0|2:2,0:0:0:0:
301,59,10603,1,0,0:0:0:0:
256,192,10944,5,4,0:0:0:0:
130,222,19125,6,0,B|121:250|121:250|124:290,2,60
250,319,19466,2,0,B|243:332|243:332|245:355,5,30
282,316,19807,2,0,B|291:285|291:285|288:251,2,60
198,119,20148,2,0,B|178:121|178:121|156:117,5,30
182,88,20489,2,0,B|210:82|210:82|240:90,2,60
345,147,20830,2,0,L|341:185,5,30
309,185,21171,5,4,0:0:0:0:
314,202,21341,1,4,0:0:0:0:
319,219,21512,1,4,0:0:0:0:
324,236,21682,1,4,0:0:0:0:
446,30,21853,6,0,P|394:125|435:226,1,225,12|0,0:0|0:0,0:0:0:0:
481,316,22364,1,0,0:0:0:0:
481,316,22535,2,0,P|387:269|319:288,1,168.75
287,339,22875,2,0,B|311:287|311:287|293:234,1,112.5,8|0,0:0|0:0,0:0:0:0:
199,108,23216,5,4,0:0:0:0:
168,283,23387,1,2,0:0:0:0:
61,181,23557,2,0,B|43:294|43:294|86:349,1,168.75
103,364,23898,2,0,P|58:327|0:318,1,112.5,8|0,0:0|0:0,0:0:0:0:
208,200,24239,2,0,L|187:321,1,112.5
282,131,24580,6,0,P|324:98|384:89,1,112.5,8|0,0:0|0:0,0:0:0:0:
478,115,24921,1,0,0:0:0:0:
466,257,25091,1,0,0:0:0:0:
366,180,25262,1,2,0:0:0:0:
366,180,25347,1,0,0:0:0:0:
366,180,25432,1,0,0:0:0:0:
210,62,25603,2,0,B|223:116|223:116|212:175,1,112.5,8|0,0:0|0:0,0:0:0:0:
188,307,25944,5,4,0:0:0:0:
274,234,26114,1,2,0:0:0:0:
106,97,26285,2,0,P|135:165|60:193,1,168.75
85,148,26625,2,0,B|85:209|85:209|54:254,1,112.5,8|0,0:0|0:0,0:0:0:0:
0,321,26966,1,0,0:0:0:0:
236,297,27137,1,0,0:0:0:0:
162,247,27307,6,0,P|208:212|223:156,1,112.5,8|0,0:0|0:0,0:0:0:0:
200,60,27648,1,0,0:0:0:0:
288,99,27819,1,0,0:0:0:0:
271,15,27989,1,2,0:0:0:0:
271,15,28074,1,0,0:0:0:0:
271,15,28159,1,0,0:0:0:0:
428,83,28330,2,0,P|409:129|348:162,1,112.5,8|0,0:0|0:0,0:0:0:0:
262,174,28671,5,4,0:0:0:0:
324,249,28841,1,2,0:0:0:0:
489,130,29012,2,0,P|420:80|331:87,1,168.75
313,100,29353,2,0,B|191:82,1,112.5,8|0,0:0|0:0,0:0:0:0:
117,64,29694,1,0,0:0:0:0:
166,168,29864,1,0,0:0:0:0:
79,152,30034,6,0,B|50:187|50:187|73:266,1,112.5,8|0,0:0|0:0,0:0:0:0:
103,341,30375,1,0,0:0:0:0:
18,325,30546,1,0,0:0:0:0:
168,279,30716,1,2,0:0:0:0:
168,279,30802,1,0,0:0:0:0:
168,279,30887,1,0,0:0:0:0:
89,123,31057,2,0,B|136:117|136:117|204:130|204:130|255:120,1,168.75,8|0,0:0|0:0,0:0:0:0:
287,117,31398,5,4,0:0:0:0:
199,55,31569,1,0,0:0:0:0:
275,0,31739,1,2,0:0:0:0:
52,133,31910,1,0,0:0:0:0:
52,133,31952,1,0,0:0:0:0:
52,133,31995,1,0,0:0:0:0:
52,133,32080,2,0,B|40:189|40:189|55:242,1,112.5,8|0,0:0|0:0,0:0:0:0:
89,352,32421,1,2,0:0:0:0:
104,341,32762,6,0,B|150:325|150:325|219:337,1,112.5,8|0,0:0|0:0,0:0:0:0:
302,353,33103,1,0,0:0:0:0:
277,248,33273,1,0,0:0:0:0:
260,149,33444,1,2,0:0:0:0:
260,149,33529,1,0,0:0:0:0:
260,149,33614,1,0,0:0:0:0:
94,235,33785,2,0,B|70:196|70:196|79:115,1,112.5,8|0,0:0|0:0,0:0:0:0:
94,24,34125,5,4,0:0:0:0:
167,119,34296,1,2,0:0:0:0:
219,25,34466,2,0,B|260:15|295:37|295:37|332:58|387:43,1,168.75
411,49,34807,2,0,B|425:102|425:102|415:159,1,112.5,8|0,0:0|0:0,0:0:0:0:
399,253,35148,1,0,0:0:0:0:
377,344,35319,1,0,0:0:0:0:
271,151,35489,6,0,B|245:197|245:197|277:325,1,168.75,8|0,0:0|0:0,0:0:0:0:
280,339,35830,1,0,0:0:0:0:
202,192,36000,1,0,0:0:0:0:
143,334,36171,1,2,0:0:0:0:
143,334,36256,1,0,0:0:0:0:
143,334,36341,1,0,0:0:0:0:
88,145,36512,2,0,B|62:177|62:177|85:247,1,112.5,8|0,0:0|0:0,0:0:0:0:
144,86,36853,5,4,0:0:0:0:
205,27,37023,1,2,0:0:0:0:
192,151,37194,2,0,B|153:197|153:197|187:300,1,168.75
197,331,37535,2,0,P|253:305|322:302,1,112.5,8|0,0:0|0:0,0:0:0:0:
385,316,37875,1,0,0:0:0:0:
453,366,38046,1,0,0:0:0:0:
461,149,38216,6,0,B|416:183|416:183|403:249,1,112.5,8|0,0:0|0:0,0:0:0:0:
512,96,38557,1,0,0:0:0:0:
419,60,38728,1,0,0:0:0:0:
390,158,38898,1,2,0:0:0:0:
390,158,38983,1,0,0:0:0:0:
390,158,39069,1,0,0:0:0:0:
275,239,39239,2,0,P|245:190|188:166,1,112.5,8|0,0:0|0:0,0:0:0:0:
113,155,39580,5,4,0:0:0:0:
39,197,39750,1,2,0:0:0:0:
201,60,39921,2,0,P|119:36|40:58,1,168.75
22,85,40262,2,0,B|38:196,1,112.5,8|0,0:0|0:0,0:0:0:0:
51,274,40603,1,0,0:0:0:0:
68,351,40773,1,0,0:0:0:0:
248,311,40944,6,0,B|267:269|267:269|253:186,1,112.5,8|0,0:0|0:0,0:0:0:0:
238,121,41285,1,0,0:0:0:0:
221,35,41455,1,0,0:0:0:0:
139,184,41625,1,2,0:0:0:0:
139,184,41711,1,0,0:0:0:0:
139,184,41796,1,0,0:0:0:0:
145,48,41966,2,0,P|113:93|61:111,1,112.5,8|0,0:0|0:0,0:0:0:0:
452,53,42819,5,0,0:0:0:0:
452,53,42861,1,0,0:0:0:0:
452,53,42904,1,0,0:0:0:0:
452,53,42989,1,0,0:0:0:0:
403,335,43330,1,2,0:0:0:0:
108,128,43671,6,0,P|152:107|212:102,1,90
349,99,44012,2,0,P|409:115|457:176,1,135
451,193,44353,2,0,L|420:280,1,90,2|0,0:0|0:0,0:0:0:0:
197,297,44694,2,0,B|168:247|168:247|177:183|177:183|151:113,1,180,8|0,0:0|0:0,0:0:0:0:
117,44,45375,1,0,0:0:0:0:
117,44,45546,1,0,0:0:0:0:
241,51,45716,6,0,P|281:58|324:84,1,90
372,162,46057,1,0,0:0:0:0:
365,254,46228,1,0,0:0:0:0:
218,302,46398,6,0,B|248:260|248:260|227:170,1,135,8|0,0:0|0:0,0:0:0:0:
221,153,46739,2,0,L|195:57,1,90
156,201,47080,2,0,L|169:252,2,45,2|0|0,0:0|0:0|0:0,0:0:0:0:
75,119,47421,2,0,P|46:160|44:205,1,90,8|0,0:0|0:0,0:0:0:0:
60,364,47762,6,0,L|49:268,1,90,2|0,0:0|0:0,0:0:0:0:
164,338,48103,1,0,0:0:0:0:
164,338,48273,1,0,0:0:0:0:
227,141,48444,2,0,B|296:148|296:148|316:183|316:183|396:199,1,180,8|0,0:0|0:0,0:0:0:0:
471,300,48955,1,0,0:0:0:0:
278,313,49125,2,0,P|251:273|249:214,1,90
253,138,49466,1,0,0:0:0:0:
290,56,49637,1,0,0:0:0:0:
424,189,49807,2,0,L|437:240,2,45,2|0|0,0:0|0:0|0:0,0:0:0:0:
326,308,50148,2,0,B|304:264|304:264|319:167,1,135,8|0,0:0|0:0,0:0:0:0:
399,49,50489,5,4,0:0:0:0:
172,76,50660,1,2,0:0:0:0:
311,223,50830,1,0,0:0:0:0:
311,223,50915,1,0,0:0:0:0:
311,223,51000,1,0,0:0:0:0:
172,76,51171,2,0,B|154:97|154:97|185:252,1,180,8|0,0:0|0:0,0:0:0:0:
311,92,51682,1,0,0:0:0:0:
426,187,51853,6,0,B|455:336|455:336|437:357,1,180,8|0,0:0|0:0,0:0:0:0:
350,255,52364,1,0,0:0:0:0:
248,337,52535,2,0,L|239:283,2,45,2|0|0,0:0|0:0|0:0,0:0:0:0:
84,160,52875,2,0,B|74:204|74:204|90:248|91:248,1,90,8|0,0:0|0:0,0:0:0:0:
248,337,53216,5,4,0:0:0:0:
155,196,53387,1,2,0:0:0:0:
197,181,53472,1,0,0:0:0:0:
242,180,53557,1,0,0:0:0:0:
285,192,53642,1,0,0:0:0:0:
322,217,53728,1,0,0:0:0:0:
450,239,53898,6,0,P|443:224|434:171,1,67.5,4|0,0:0|2:2,0:0:0:0:
483,133,54239,6,0,P|421:112|370:173,1,135,0|0,0:0|2:2,0:0:0:0:
349,180,54580,6,0,B|363:205|363:205|336:356,1,180,8|0,0:0|0:0,0:0:0:0:
240,261,55091,1,0,0:0:0:0:
124,318,55262,2,0,L|80:305,2,45,2|0|0,0:0|0:0|0:0,0:0:0:0:
353,266,55603,2,0,B|363:204|363:204|346:177,1,90,8|0,0:0|0:0,0:0:0:0:
239,260,55944,6,0,L|225:350,1,90,4|2,0:0|0:0,0:0:0:0:
144,175,56285,2,0,P|124:164|98:157,2,45
353,205,56625,2,0,P|400:215|445:204,1,90,8|0,0:0|0:0,0:0:0:0:
256,133,56966,2,0,L|227:49,1,90
140,255,57307,6,0,L|79:81,1,180,8|0,0:0|0:0,0:0:0:0:
196,165,57819,1,0,0:0:0:0:
116,331,57989,2,0,B|78:302|78:302|62:254,1,90,2|0,0:0|0:0,0:0:0:0:
293,236,58330,2,0,L|323:151,1,90,8|0,0:0|0:0,0:0:0:0:
431,295,58671,5,4,0:0:0:0:
421,74,58841,1,2,0:0:0:0:
431,295,59012,1,0,0:0:0:0:
421,74,59182,1,0,0:0:0:0:
226,197,59353,2,0,P|252:100|218:22,1,180,8|0,0:0|0:0,0:0:0:0:
117,113,59864,1,0,0:0:0:0:
218,274,60035,6,0,B|305:298|305:298|400:279,1,180,8|0,0:0|0:0,0:0:0:0:
329,149,60546,1,0,0:0:0:0:
467,209,60716,1,2,0:0:0:0:
443,66,60887,1,0,0:0:0:0:
189,229,61057,2,0,L|170:140,1,90,8|0,0:0|0:0,0:0:0:0:
71,344,61398,5,4,0:0:0:0:
254,298,61569,1,2,0:0:0:0:
71,344,61739,1,0,0:0:0:0:
254,298,61910,1,0,0:0:0:0:
96,126,62080,2,0,B|78:167|78:167|70:219,1,90,8|0,0:0|0:0,0:0:0:0:
306,241,62421,1,0,0:0:0:0:
204,352,62591,1,0,0:0:0:0:
96,126,62762,6,0,B|143:129|143:129|194:110,1,90,8|0,0:0|0:0,0:0:0:0:
301,117,63103,2,0,B|346:104|346:104|396:103,1,90
491,176,63444,1,2,0:0:0:0:
386,259,63614,1,0,0:0:0:0:
248,190,63785,2,0,B|234:248|234:248|256:328,1,135,8|0,0:0|0:0,0:0:0:0:
253,320,64125,5,4,0:0:0:0:
276,124,64296,1,2,0:0:0:0:
253,320,64466,1,0,0:0:0:0:
276,124,64637,1,0,0:0:0:0:
68,192,64807,2,0,B|52:150|52:150|57:97,1,90,8|0,0:0|0:0,0:0:0:0:
146,270,65148,2,0,B|162:312|162:312|157:365,1,90
200,125,65489,6,0,B|274:117|274:117|379:144,1,180,8|0,0:0|0:0,0:0:0:0:
510,192,66000,1,0,0:0:0:0:
390,328,66171,2,0,L|418:238,1,90,2|0,0:0|0:0,0:0:0:0:
301,32,66512,2,0,L|273:122,1,90,8|0,0:0|0:0,0:0:0:0:
208,281,66853,5,4,0:0:0:0:
315,222,67023,1,2,0:0:0:0:
141,190,67194,2,0,L|177:95,1,90
432,178,67535,2,0,B|372:168|372:168|340:127|340:127|274:117,1,180,8|0,0:0|0:0,0:0:0:0:
433,88,68046,1,0,0:0:0:0:
290,199,68216,6,0,B|258:227|258:227|236:309|236:309|189:349,1,180,8|0,0:0|0:0,0:0:0:0:
104,242,68728,1,0,0:0:0:0:
50,138,68898,2,0,P|94:126|148:135,1,90,2|0,0:0|0:0,0:0:0:0:
312,164,69239,2,0,P|338:167|364:164,2,45,8|0|0,0:0|0:0|0:0,0:0:0:0:
137,131,69580,5,4,0:0:0:0:
216,231,69750,1,2,0:0:0:0:
274,87,69921,2,0,B|304:115|304:115|311:164,1,90
382,362,70262,1,8,0:0:0:0:
326,280,70432,1,0,0:0:0:0:
461,306,70603,1,0,0:0:0:0:
407,226,70773,1,0,0:0:0:0:
470,34,70944,6,0,L|462:127,1,90,8|0,0:0|0:0,0:0:0:0:
285,66,71285,2,0,L|195:81,1,90
62,173,71625,2,0,B|103:189|103:189|150:187,1,90,2|0,0:0|0:0,0:0:0:0:
283,310,71966,2,0,B|301:213|301:213|287:174,1,135,8|0,0:0|0:0,0:0:0:0:
295,152,72307,6,0,P|338:142|389:153,1,90,4|2,0:0|0:0,0:0:0:0:
172,252,72648,2,0,P|151:289|156:343,1,90
413,319,72989,2,0,B|326:342|326:342|241:311,1,180,8|0,0:0|0:0,0:0:0:0:
381,55,73671,6,0,B|388:79|388:79|380:112,2,60,8|0|0,0:0|0:0|0:0,0:0:0:0:
197,119,74012,2,0,B|182:120|182:120|161:117,7,22.5
148,129,74353,2,0,B|137:156|137:156|146:205,2,60,2|0|0,0:0|0:0|0:0,0:0:0:0:
298,319,74694,2,0,B|302:302|302:302|298:285,5,30,8|0|0|0|0|0,0:0|0:0|0:0|0:0|0:0|0:0,0:0:0:0:
285,281,75035,2,0,B|279:247|279:247|290:217,2,60
344,78,75375,2,0,B|359:73|359:73|382:83,5,30
360,102,75716,5,4,0:0:0:0:
132,286,75887,1,4,0:0:0:0:
337,307,76057,1,4,0:0:0:0:
152,79,76228,1,4,0:0:0:0:
320,173,76398,6,0,P|194:216|299:141,1,371.250014162064,8|0,0:0|0:0,0:0:0:0:
301,147,77421,6,0,P|355:125|413:125,1,112.5,8|0,0:0|0:0,0:0:0:0:
145,105,77762,1,4,0:0:0:0:
370,269,77932,1,2,0:0:0:0:
252,70,78103,1,0,0:0:0:0:
183,259,78273,1,0,0:0:0:0:
342,85,78444,2,0,B|347:117|347:117|327:164|327:164|332:199,1,112.5,8|0,0:0|0:0,0:0:0:0:
325,352,78785,1,0,0:0:0:0:
404,173,78955,1,0,0:0:0:0:
142,288,79125,6,0,P|133:226|151:180,1,112.5,8|0,0:0|0:0,0:0:0:0:
265,34,79466,1,0,0:0:0:0:
60,172,79637,1,0,0:0:0:0:
269,323,79807,1,2,0:0:0:0:
269,323,79892,1,0,0:0:0:0:
269,323,79978,1,0,0:0:0:0:
149,71,80148,2,0,B|136:123|136:123|152:189,1,112.5,8|0,0:0|0:0,0:0:0:0:
348,337,80489,5,4,0:0:0:0:
213,124,80660,1,2,0:0:0:0:
137,351,80830,1,0,0:0:0:0:
400,168,81000,1,0,0:0:0:0:
149,180,81171,2,0,P|92:175|40:138,1,112.5,8|0,0:0|0:0,0:0:0:0:
144,31,81512,1,0,0:0:0:0:
247,268,81682,1,0,0:0:0:0:
394,59,81853,6,0,B|410:111|410:111|398:174,1,112.5,8|0,0:0|0:0,0:0:0:0:
216,350,82194,1,0,0:0:0:0:
191,94,82364,1,0,0:0:0:0:
419,336,82535,1,2,0:0:0:0:
419,336,82620,1,0,0:0:0:0:
419,336,82705,1,0,0:0:0:0:
122,192,82875,2,0,B|180:180|180:180|232:192,1,112.5,8|0,0:0|0:0,0:0:0:0:
488,264,83216,5,4,0:0:0:0:
181,102,83387,1,2,0:0:0:0:
323,310,83557,1,0,0:0:0:0:
90,125,83728,1,0,0:0:0:0:
341,50,83898,2,0,B|358:100|358:100|342:166,1,112.5,8|0,0:0|0:0,0:0:0:0:
262,364,84239,2,0,B|245:314|245:314|261:248,1,112.5
469,104,84580,6,0,B|415:86|359:104,1,112.5,8|0,0:0|0:0,0:0:0:0:
100,186,84921,1,0,0:0:0:0:
363,339,85091,1,0,0:0:0:0:
257,65,85262,1,2,0:0:0:0:
257,65,85347,1,0,0:0:0:0:
257,65,85432,1,0,0:0:0:0:
195,349,85603,2,0,B|168:265|168:265|188:232,1,112.5,8|0,0:0|0:0,0:0:0:0:
358,104,85944,5,4,0:0:0:0:
305,341,86114,1,2,0:0:0:0:
185,92,86285,1,0,0:0:0:0:
420,241,86455,1,0,0:0:0:0:
420,241,86498,1,0,0:0:0:0:
420,241,86540,1,0,0:0:0:0:
420,241,86625,2,0,B|365:254|365:254|306:239,1,112.5,8|0,0:0|0:0,0:0:0:0:
51,81,86966,1,2,0:0:0:0:
345,342,87307,6,0,B|341:280|341:280|306:234,1,112.5,8|0,0:0|0:0,0:0:0:0:
93,45,87648,1,0,0:0:0:0:
197,334,87819,1,0,0:0:0:0:
341,71,87989,1,2,0:0:0:0:
341,71,88074,1,0,0:0:0:0:
341,71,88160,1,0,0:0:0:0:
134,232,88330,2,0,B|76:246|76:246|25:231,1,112.5,8|0,0:0|0:0,0:0:0:0:
344,205,88671,5,4,0:0:0:0:
205,39,88841,1,2,0:0:0:0:
193,331,89012,1,0,0:0:0:0:
296,98,89182,1,0,0:0:0:0:
29,123,89353,2,0,B|12:166|12:166|25:231,1,112.5,8|0,0:0|0:0,0:0:0:0:
193,331,89694,1,0,0:0:0:0:
120,59,89864,1,0,0:0:0:0:
345,329,90035,6,0,P|359:266|343:215,1,112.5,8|0,0:0|0:0,0:0:0:0:
254,35,90375,1,0,0:0:0:0:
140,281,90546,1,0,0:0:0:0:
399,64,90716,1,2,0:0:0:0:
399,64,90802,1,0,0:0:0:0:
399,64,90887,1,0,0:0:0:0:
103,166,91057,2,0,P|154:185|226:174,1,112.5,8|0,0:0|0:0,0:0:0:0:
469,118,91398,5,4,0:0:0:0:
390,317,91569,1,2,0:0:0:0:
304,109,91739,1,0,0:0:0:0:
264,344,91910,1,0,0:0:0:0:
112,31,92080,2,0,B|89:80|89:80|104:152,1,112.5,8|0,0:0|0:0,0:0:0:0:
264,344,92421,1,0,0:0:0:0:
169,94,92591,1,0,0:0:0:0:
84,314,92762,6,0,P|138:329|207:315,1,112.5,8|0,0:0|0:0,0:0:0:0:
448,116,93103,1,0,0:0:0:0:
145,211,93273,1,0,0:0:0:0:
461,337,93444,1,2,0:0:0:0:
461,337,93529,1,0,0:0:0:0:
461,337,93614,1,0,0:0:0:0:
303,43,93785,2,0,B|281:77|281:77|297:166,1,112.5,8|0,0:0|0:0,0:0:0:0:
381,358,94125,5,4,0:0:0:0:
121,251,94296,1,2,0:0:0:0:
377,148,94466,1,0,0:0:0:0:
239,323,94637,1,0,0:0:0:0:
176,33,94807,2,0,B|205:81|205:81|193:145,1,112.5,8|0,0:0|0:0,0:0:0:0:
78,341,95148,1,0,0:0:0:0:
78,341,95319,1,0,0:0:0:0:
329,320,95489,5,8,0:0:0:0:
328,248,95603,1,0,0:0:0:0:
290,188,95716,1,0,0:0:0:0:
238,139,95830,2,0,B|217:125|217:125|207:102,5,37.5
186,84,96171,5,2,0:0:0:0:
134,130,96285,1,0,0:0:0:0:
151,196,96398,1,0,0:0:0:0:
121,258,96512,2,0,B|108:279|108:279|108:302,5,37.5,8|0|0|0|0|0,0:0|0:0|0:0|0:0|0:0|0:0,0:0:0:0:
407,61,97364,5,0,0:0:0:0:
407,61,97407,1,0,0:0:0:0:
407,61,97449,1,0,0:0:0:0:
407,61,97535,1,0,0:0:0:0:
83,152,97875,5,2,0:0:0:0:
256,192,98046,5,0,0:0:0:0:
121,348,98216,5,8,0:0:0:0:
209,367,98387,5,0,0:0:0:0:
298,355,98557,5,0,0:0:0:0:
