osu file format v14

[General]
AudioFilename: audio.mp3
AudioLeadIn: 0
PreviewTime: 19125
Countdown: 1
SampleSet: Normal
StackLeniency: 0.7
Mode: 0
LetterboxInBreaks: 0
WidescreenStoryboard: 1

[Editor]
Bookmarks: 35,1057,2080,2762,3784,4807,5489,6512,7534,8216,9239,10262,10944,21171,21341,21512,21682,31910,31966,32023,32080,32421,42819,42875,42932,42989,43330,53898,54239,54580,75716,75887,76057,76228,86455,86512,86569,86625,86966,97364,97421,97478,97535,97875
DistanceSpacing: 1.2
BeatDivisor: 4
GridSize: 16
TimelineZoom: 2.4

[Metadata]
Title:Ransom
TitleUnicode:Ransom
Artist:A Boogie Wit Da Hoodie
ArtistUnicode:A Boogie Wit Da Hoodie
Creator:Clappy
Version:Hard
Source:
Tags:Rap & Hip Hop A Boogie Down Bronx TBA TheOnlyLeon
BeatmapID:1319243
BeatmapSetID:598251

[Difficulty]
HPDrainRate:4.5
CircleSize:3.8
OverallDifficulty:7
ApproachRate:8
SliderMultiplier:1.5
SliderTickRate:1

[Events]
//Background and Video events
0,0,"bgosu.jpg",0,0
//Break Periods
2,11144,18375
//Storyboard Layer 0 (Background)
//Storyboard Layer 1 (Fail)
//Storyboard Layer 2 (Pass)
//Storyboard Layer 3 (Foreground)
//Storyboard Sound Samples

[TimingPoints]
35,340.909090909091,4,1,1,75,1,0
35,-133.333333333333,4,1,1,75,0,0
19125,-100,4,1,1,75,0,0
21171,-100,4,1,1,75,0,1
21853,-90.9090909090909,4,1,1,75,0,0
31910,-90.9090909090909,4,1,1,75,0,1
32421,-90.9090909090909,4,1,2,75,0,0
32762,-90.9090909090909,4,1,1,75,0,0
42819,-90.9090909090909,4,1,1,75,0,1
43330,-90.9090909090909,4,1,2,75,0,0
43671,-100,4,1,1,75,0,0
53898,-200,4,1,1,75,0,1
54239,-100,4,1,1,75,0,1
54580,-100,4,1,1,75,0,0
75716,-100,4,1,1,75,0,1
76398,-133.333333333333,4,1,1,75,0,1
76739,-90.9090909090909,4,1,1,75,0,0
86455,-90.9090909090909,4,1,1,75,0,1
86455,-90.9090909090909,4,1,1,75,0,1
86881,-90.9090909090909,4,1,2,75,0,1
86966,-90.9090909090909,4,1,2,75,0,1
87052,-90.9090909090909,4,1,1,75,0,0
97364,-90.9090909090909,4,1,1,75,0,1
97875,-90.9090909090909,4,1,2,75,0,1
98216,-90.9090909090909,4,1,2,75,0,0

[Colours]
Combo1 : 128,128,192
Combo2 : 64,0,128
Combo3 : 255,128,255
Combo4 : 255,255,0
Combo5 : 0,255,0
Combo6 : 255,0,0

[HitObjects]
137,117,35,6,0,B|186:94|186:94|245:85,2,112.500004291535,4|0|0,0:0|0:0|0:0,0:0:0:0:
78,251,1057,6,0,L|107:380,2,112.500004291535,4|0|0,0:0|0:0|0:0,0:0:0:0:
193,173,2080,6,0,B|235:206|235:206|293:221,1,112.500004291535,4|2,0:0|0:0,0:0:0:0:
451,186,2762,6,0,L|462:128,1,56.2500021457673
372,94,3103,2,0,L|360:157,1,56.2500021457673
387,241,3444,1,0,0:0:0:0:
293,221,3614,1,0,0:0:0:0:
220,283,3785,6,0,P|264:314|335:305,2,112.500004291535,4|0|0,0:0|0:0|0:0,0:0:0:0:
90,203,4807,6,0,B|150:205|150:205|176:185|206:177,1,112.500004291535,4|0,0:0|0:0,0:0:0:0:
365,93,5489,6,0,P|311:76|254:92,2,112.500004291535,4|0|0,0:0|0:0|0:0,0:0:0:0:
320,279,6512,6,0,L|429:313,2,112.500004291535,4|0|0,0:0|0:0|0:0,0:0:0:0:
178,213,7535,6,0,B|147:211|147:211|117:244|70:246,1,112.500004291535,4|0,0:0|0:0,0:0:0:0:
123,60,8216,6,0,P|90:92|68:165,2,112.500004291535,4|0|0,0:0|0:0|0:0,0:0:0:0:
266,204,9239,6,0,B|323:214|323:214|384:204,2,112.500004291535,4|0|0,0:0|0:0|0:0,0:0:0:0:
73,154,10262,6,0,L|93:267,1,112.500004291535,4|0,0:0|0:0,0:0:0:0:
256,192,10944,5,4,0:0:0:0:
256,192,19125,12,0,20830,0:0:0:0:
163,121,21171,5,4,0:0:0:0:
131,221,21341,1,0,0:0:0:0:
242,213,21512,1,4,0:0:0:0:
163,121,21682,1,4,0:0:0:0:
317,135,21853,6,0,P|346:197|308:294,2,165.000005035401,8|0|2,0:0|0:0|0:0,0:0:0:0:
236,72,22705,1,0,0:0:0:0:
158,152,22875,2,0,B|239:164|239:164|318:134,1,165.000005035401,8|0,0:0|0:0,0:0:0:0:
427,84,23387,5,2,0:0:0:0:
311,39,23557,2,0,L|235:72,1,82.5000025177003
116,63,23898,1,8,0:0:0:0:
70,247,24239,6,0,L|94:328,1,82.5000025177003
246,305,24580,2,0,B|222:261|236:217|236:217|170:183,1,165.000005035401,8|0,0:0|0:0,0:0:0:0:
214,102,25091,1,0,0:0:0:0:
214,102,25262,2,0,B|279:136|279:136|307:99|357:94,2,165.000005035401,2|8|0,0:0|0:0|0:0,0:0:0:0:
106,75,26114,5,2,0:0:0:0:
71,181,26285,2,0,B|79:276|79:276|104:302,1,123.75000377655
113,307,26625,2,0,P|189:332|266:294,1,165.000005035401,8|0,0:0|0:0,0:0:0:0:
262,297,27137,1,0,0:0:0:0:
177,215,27307,6,0,P|260:179|339:208,1,165.000005035401,8|0,0:0|0:0,0:0:0:0:
404,268,27819,1,0,0:0:0:0:
465,192,27989,2,0,B|461:142|461:142|494:98|494:98|489:29,2,165.000005035401,2|8|0,0:0|0:0|0:0,0:0:0:0:
411,302,28841,5,2,0:0:0:0:
328,260,29012,2,0,L|251:225,1,82.5000025177003
181,280,29353,2,0,P|163:216|226:139,1,165.000005035401,8|0,0:0|0:0,0:0:0:0:
311,119,29864,1,0,0:0:0:0:
396,194,30035,6,0,B|418:115|418:115|389:27,1,165.000005035401,8|0,0:0|0:0,0:0:0:0:
293,34,30546,1,0,0:0:0:0:
218,141,30716,2,0,B|148:110|148:110|119:24,2,165.000005035401,2|8|0,0:0|0:0|0:0,0:0:0:0:
320,183,31569,5,2,0:0:0:0:
249,272,31739,1,0,0:0:0:0:
134,212,31910,1,0,0:0:0:0:
134,212,31995,1,0,0:0:0:0:
134,212,32080,1,8,0:0:0:0:
310,90,32421,2,0,B|271:70|271:70|244:25,1,82.5000025177003,2|0,0:0|0:0,0:0:0:0:
133,53,32762,6,0,B|113:89|113:89|134:214,1,165.000005035401,8|0,0:0|0:0,0:0:0:0:
228,240,33273,1,0,0:0:0:0:
321,168,33444,2,0,P|346:243|307:328,2,165.000005035401,2|8|0,0:0|0:0|0:0,0:0:0:0:
321,168,34296,5,2,0:0:0:0:
228,240,34466,2,0,B|191:200|191:200|178:130,1,123.75000377655
181,110,34807,2,0,B|245:96|245:96|288:51|348:68,1,165.000005035401,8|0,0:0|0:0,0:0:0:0:
412,264,35489,6,0,P|446:189|424:113,1,165.000005035401,8|0,0:0|0:0,0:0:0:0:
316,183,36000,1,0,0:0:0:0:
207,117,36171,2,0,P|185:194|222:271,2,165.000005035401,2|8|0,0:0|0:0|0:0,0:0:0:0:
315,62,37023,5,2,0:0:0:0:
316,183,37194,2,0,B|329:244|329:244|312:310,1,123.75000377655
302,321,37535,2,0,B|270:324|223:349|223:349|179:325|141:322,1,165.000005035401,8|0,0:0|0:0,0:0:0:0:
196,96,38216,6,0,P|215:184|275:232,1,165.000005035401,8|0,0:0|0:0,0:0:0:0:
314,120,38728,1,0,0:0:0:0:
429,148,38898,2,0,B|411:209|351:232|351:232|354:288,2,165.000005035401,2|8|0,0:0|0:0|0:0,0:0:0:0:
361,62,39750,5,2,0:0:0:0:
245,46,39921,2,0,B|226:73|226:73|243:116|227:168,1,123.75000377655
240,181,40262,2,0,B|158:233|80:181,1,165.000005035401,8|0,0:0|0:0,0:0:0:0:
256,192,40944,12,0,42307,0:0:0:0:
132,229,42819,5,0,0:0:0:0:
132,229,42905,1,0,0:0:0:0:
132,229,42990,1,0,0:0:0:0:
278,330,43330,1,2,0:0:0:0:
234,178,43671,6,0,P|305:164|368:205,1,150,8|0,0:0|0:0,0:0:0:0:
288,255,44182,2,0,L|276:336,2,75,0|2|0,0:0|0:0|0:0,0:0:0:0:
234,178,44694,2,0,P|163:164|100:205,1,150,8|4,0:0|0:0,0:3:0:0:
91,295,45205,1,2,0:0:0:0:
180,255,45375,6,0,L|192:336,1,75
282,281,45716,2,0,P|321:281|363:266,1,75,8|0,0:0|0:0,0:0:0:0:
304,189,46057,1,0,0:0:0:0:
304,189,46228,1,0,0:0:0:0:
250,113,46398,6,0,P|286:97|386:147,1,150,8|0,0:0|0:0,0:0:0:0:
107,294,47080,2,0,L|79:369,1,75,2|0,0:0|0:0,0:0:0:0:
32,265,47421,2,0,P|69:223|165:239,1,150,8|4,0:0|0:0,0:0:0:0:
214,289,47932,5,2,0:0:0:0:
278,239,48103,2,0,L|287:153,1,75
239,93,48444,2,0,B|206:116|201:160,2,75,8|0|0,0:0|0:0|0:0,0:0:0:0:
331,70,48955,1,0,0:0:0:0:
379,145,49125,6,0,L|374:225,2,75,8|0|0,0:0|0:0|0:0,0:0:0:0:
453,83,49637,1,0,0:0:0:0:
490,166,49807,2,0,P|497:205|490:241,1,75,2|0,0:0|0:0,0:0:0:0:
434,305,50148,2,0,P|370:324|286:273,1,150,8|4,0:0|0:0,0:0:0:0:
237,244,50660,5,2,0:0:0:0:
178,195,50830,2,0,P|161:184|142:182,2,37.5
268,172,51171,2,0,P|242:127|148:106,1,150,8|0,0:0|0:0,0:0:0:0:
294,253,51853,6,0,P|320:298|414:319,1,150,8|0,0:0|0:0,0:0:0:0:
385,231,52364,1,0,0:0:0:0:
473,275,52535,2,0,L|481:200,1,75,2|0,0:0|0:0,0:0:0:0:
397,152,52875,2,0,L|405:77,1,75,8|0,0:0|0:0,0:0:0:0:
305,131,53216,2,0,L|297:206,2,75,4|2|0,0:0|0:0|0:0,0:0:0:0:
194,54,53898,6,0,P|167:27|125:14,2,75,4|0|8,0:0|0:0|0:0,0:0:0:0:
108,167,54921,6,0,P|135:194|177:207,2,75,0|0|2,0:0|0:0|0:0,0:0:0:0:
49,92,55432,1,0,0:0:0:0:
20,177,55603,2,0,L|28:259,1,75,8|0,0:0|0:0,0:0:0:0:
60,330,55944,5,4,0:0:0:0:
133,283,56114,2,0,B|159:308|159:308|194:321,2,75,2|0|0,0:0|0:0|0:0,0:0:0:0:
211,231,56625,2,0,P|274:274|280:343,1,150,8|0,0:0|0:0,0:0:0:0:
133,191,57307,6,0,P|70:148|64:79,2,150,8|0|2,0:0|0:0|0:0,0:0:0:0:
153,102,58160,1,0,0:0:0:0:
217,163,58330,2,0,B|224:232|224:232|199:312,1,150,8|4,0:0|0:0,0:0:0:0:
199,308,58841,5,2,0:0:0:0:
294,285,59012,1,0,0:0:0:0:
268,378,59182,1,0,0:0:0:0:
356,356,59353,2,0,P|386:301|359:217,1,150,8|0,0:0|0:0,0:0:0:0:
85,93,60035,6,0,B|155:113|155:113|235:92,1,150,8|0,0:0|0:0,0:0:0:0:
308,56,60546,1,0,0:0:0:0:
295,141,60716,2,0,L|289:234,1,75,2|0,0:0|0:0,0:0:0:0:
329,303,61057,2,0,P|371:265|371:167,1,150,8|4,0:0|0:0,0:0:0:0:
370,93,61569,5,2,0:0:0:0:
300,49,61739,1,0,0:0:0:0:
233,98,61910,1,0,0:0:0:0:
300,170,62080,2,0,B|229:189|229:189|156:163,1,150,8|0,0:0|0:0,0:0:0:0:
398,300,62762,6,0,P|418:234|396:148,1,150,8|0,0:0|0:0,0:0:0:0:
341,89,63273,1,0,0:0:0:0:
300,170,63444,2,0,P|270:143|252:106,1,75,2|0,0:0|0:0,0:0:0:0:
228,36,63785,2,0,P|183:71|212:182,1,150,8|4,0:0|0:0,0:0:0:0:
235,233,64296,5,2,0:0:0:0:
219,313,64466,1,0,0:0:0:0:
298,289,64637,1,0,0:0:0:0:
380,331,64807,2,0,L|392:251,1,75,8|0,0:0|0:0,0:0:0:0:
430,185,65148,2,0,P|393:176|358:183,1,75
265,219,65489,6,0,B|203:191|203:191|171:106,1,150,8|0,0:0|0:0,0:0:0:0:
110,56,66000,1,0,0:0:0:0:
34,108,66171,2,0,P|63:137|106:149,1,75,2|0,0:0|0:0,0:0:0:0:
132,225,66512,2,0,B|145:298|145:298|127:385,1,150,8|4,0:0|0:0,0:0:0:0:
129,372,67023,5,2,0:0:0:0:
223,346,67194,2,0,L|301:332,1,75
386,315,67535,2,0,P|361:268|258:250,1,150,8|0,0:0|0:0,0:0:0:0:
97,113,68216,6,0,B|74:182|74:182|98:258,1,150,8|0,0:0|0:0,0:0:0:0:
141,341,68728,1,0,0:0:0:0:
192,265,68898,2,0,P|222:294|231:336,1,75,2|0,0:0|0:0,0:0:0:0:
336,312,69239,2,0,B|319:237|319:237|258:187,1,150,8|4,0:0|0:0,0:0:0:0:
185,139,69750,5,2,0:0:0:0:
273,109,69921,2,0,P|250:72|216:54,1,75
95,60,70262,2,0,P|63:80|45:112,2,75,8|0|0,0:0|0:0|0:0,0:0:0:0:
139,152,70773,1,0,0:0:0:0:
62,201,70944,6,0,L|75:284,2,75,8|0|0,0:0|0:0|0:0,0:0:0:0:
154,239,71455,1,0,0:0:0:0:
176,330,71625,2,0,L|257:315,1,75,2|0,0:0|0:0,0:0:0:0:
335,358,71966,2,0,P|345:309|281:228,1,150,8|4,0:0|0:0,0:0:0:0:
206,170,72478,5,2,0:0:0:0:
304,141,72648,2,0,L|309:63,1,75
202,77,72989,2,0,P|145:98|118:201,1,150,8|0,0:0|0:0,0:0:0:0:
256,192,73671,12,0,75375,0:0:0:0:
265,299,75716,5,4,0:0:0:0:
225,197,75887,1,4,0:0:0:0:
265,299,76057,1,4,0:0:0:0:
225,197,76228,1,4,0:0:0:0:
324,147,76398,6,0,P|283:103|221:88,1,112.500004291535,8|0,0:0|0:0,0:0:0:0:
148,83,76910,1,0,0:0:0:0:
117,163,77080,2,0,B|97:240|97:240|123:327,2,165.000005035401,2|8|4,0:0|0:0|0:0,0:0:0:0:
190,233,77932,5,2,0:0:0:0:
264,176,78103,2,0,P|282:247|250:302,1,123.75000377655
244,311,78444,2,0,B|328:335|328:335|405:313,1,165.000005035401,8|0,0:0|0:0,0:0:0:0:
470,245,78955,1,0,0:0:0:0:
366,222,79125,6,0,B|371:178|371:178|439:149|446:74,1,165.000005035401,8|0,0:0|0:0,0:0:0:0:
338,77,79637,1,0,0:0:0:0:
338,77,79807,2,0,B|287:103|287:103|271:213,2,165.000005035401,2|8|0,0:0|0:0|0:0,0:0:0:0:
450,43,80660,5,2,0:0:0:0:
421,148,80830,2,0,B|433:204|433:204|413:276,1,123.75000377655
408,291,81171,2,0,B|376:296|330:317|330:317|283:296|248:293,1,165.000005035401,8|0,0:0|0:0,0:0:0:0:
181,206,81682,1,0,0:0:0:0:
108,281,81853,6,0,P|75:202|112:126,1,165.000005035401,8|0,0:0|0:0,0:0:0:0:
198,80,82364,1,0,0:0:0:0:
284,143,82535,2,0,B|303:187|303:187|271:255|271:255|290:303,2,165.000005035401,2|8|4,0:0|0:0|0:0,0:0:0:0:
284,143,83387,5,2,0:0:0:0:
341,61,83557,2,0,L|397:177,1,123.75000377655
400,186,83898,2,0,B|416:219|416:219|376:288|376:288|399:342,1,165.000005035401,8|0,0:0|0:0,0:0:0:0:
484,311,84410,1,0,0:0:0:0:
499,222,84580,6,0,B|490:133|490:133|441:72,1,165.000005035401,8|0,0:0|0:0,0:0:0:0:
351,52,85091,1,0,0:0:0:0:
373,156,85262,2,0,B|273:166|242:64,2,165.000005035401,2|8|4,0:0|0:0|0:0,0:0:0:0:
438,209,86114,5,2,0:0:0:0:
362,273,86285,1,0,0:0:0:0:
449,319,86455,1,0,0:0:0:0:
449,319,86540,1,0,0:0:0:0:
449,319,86625,1,8,0:0:0:0:
244,341,86966,1,2,0:0:0:0:
74,310,87307,6,0,B|64:266|64:266|108:208|108:208|98:160,1,165.000005035401,8|0,0:0|0:0,0:0:0:0:
145,72,87819,1,0,0:0:0:0:
247,91,87989,2,0,B|246:113|226:139|226:139|248:253,2,165.000005035401,2|8|4,0:0|0:0|0:0,0:0:0:0:
319,30,88841,5,2,0:0:0:0:
330,126,89012,2,0,P|384:99|415:45,1,123.75000377655
450,41,89353,2,0,B|471:116|471:116|443:210,1,165.000005035401,8|0,0:0|0:0,0:0:0:0:
420,288,89864,1,0,0:0:0:0:
329,313,90035,6,0,B|322:273|335:250|335:250|234:210,1,165.000005035401,8|0,0:0|0:0,0:0:0:0:
177,147,90546,1,0,0:0:0:0:
134,78,90716,2,0,B|80:115|102:182|102:182|79:241,2,165.000005035401,2|8|4,0:0|0:0|0:0,0:0:0:0:
243,49,91569,5,2,0:0:0:0:
214,152,91739,2,0,P|271:151|333:106,1,123.75000377655
342,98,92080,2,0,B|350:147|350:147|330:209|330:209|351:273,1,165.000005035401,8|0,0:0|0:0,0:0:0:0:
385,333,92591,1,0,0:0:0:0:
267,344,92762,6,0,P|238:305|249:185,1,165.000005035401,8|0,0:0|0:0,0:0:0:0:
288,111,93273,1,0,0:0:0:0:
196,127,93444,2,0,B|111:151|111:151|41:120,2,165.000005035401,2|8|4,0:0|0:0|0:0,0:0:0:0:
288,85,94296,5,2,0:0:0:0:
314,185,94466,2,0,B|369:149|369:149|398:97,1,123.75000377655
405,91,94807,2,0,L|378:261,1,165.000005035401,8|0,0:0|0:0,0:0:0:0:
332,331,95319,1,0,0:0:0:0:
256,192,95489,12,0,96853,0:0:0:0:
146,304,97364,5,0,0:0:0:0:
146,304,97449,1,0,0:0:0:0:
146,304,97535,1,0,0:0:0:0:
99,178,97875,1,2,0:0:0:0:
256,192,98216,5,8,0:0:0:0:
