osu file format v14

[General]
AudioFilename: yes.mp3
AudioLeadIn: 0
PreviewTime: 31545
Countdown: 0
SampleSet: Normal
StackLeniency: 0.7
Mode: 1
LetterboxInBreaks: 0
WidescreenStoryboard: 1

[Editor]
DistanceSpacing: 0.8
BeatDivisor: 4
GridSize: 32
TimelineZoom: 2.3

[Metadata]
Title:Arrogation (Cut Ver.)
TitleUnicode:Arrogation (Cut Ver.)
Artist:A?
ArtistUnicode:あ?
Creator:ZTH
Version:Oni
Source:
Tags:aquestion hardpsy hardstyle ocutechno techno electronic instrumental 人體解剖 市大テクノ部
BeatmapID:2681860
BeatmapSetID:1291023

[Difficulty]
HPDrainRate:6.5
CircleSize:5
OverallDifficulty:5.5
ApproachRate:5
SliderMultiplier:1.4
SliderTickRate:3

[Events]
//Background and Video events
0,0,"b.jpg",0,-90
//Break Periods
//Storyboard Layer 0 (Background)
//Storyboard Layer 1 (Fail)
//Storyboard Layer 2 (Pass)
//Storyboard Layer 3 (Foreground)
//Storyboard Layer 4 (Overlay)
//Storyboard Sound Samples

[TimingPoints]
17831,342.857142857143,4,1,0,100,1,0
17996,-99.2248554293856,4,1,0,100,0,0
18167,-98.4615384615385,4,1,0,100,0,0
18339,-97.7098759279995,4,1,0,100,0,0
18510,-96.969696969697,4,1,0,100,0,0
18682,-96.2406478150486,4,1,0,100,0,0
18853,-95.5223880597015,4,1,0,100,0,0
19196,-94.1176470588235,4,1,0,100,0,0
19367,-93.4307005807652,4,1,0,100,0,0
19539,-92.7536231884058,4,1,0,100,0,0
19710,-92.0862885358096,4,1,0,100,0,0
19882,-91.4285714285714,4,1,0,100,0,0
20053,-90.7801830491611,4,1,0,100,0,0
20225,-90.1408450704225,4,1,0,100,0,0
20567,-88.8888888888889,4,1,0,100,0,0
20653,-88.2790181960712,4,1,0,100,0,0
20739,-87.677459177375,4,1,0,100,0,0
20910,-86.498605642477,4,1,0,100,0,0
21082,-85.3510317232715,4,1,0,100,0,0
21167,-84.7885881343458,4,1,0,100,0,0
21253,-84.2335087636543,4,1,0,100,0,0
21425,-83.1448716243182,4,1,0,100,0,0
21596,-82.0840146306548,4,1,0,100,0,0
21682,-81.5636734973525,4,1,0,100,0,0
21767,-81.0498878269552,4,1,0,100,0,0
21939,-80.0414935102357,4,1,0,100,0,0
23310,-100,4,1,0,100,0,0
34282,-96.1538461538461,4,1,0,100,0,0
40025,-94.0400253155748,4,1,0,100,0,0
40110,-93.3559503682425,4,1,0,100,0,0
40196,-92.6817558744014,4,1,0,100,0,0
40282,-92.0172293060153,4,1,0,100,0,0
40453,-90.7162775845521,4,1,0,100,0,0
40710,-88.832509855967,4,1,0,100,0,0
40796,-88.221853258827,4,1,0,100,0,0
40882,-87.6194581787945,4,1,0,100,0,0
40967,-87.0253095707825,4,1,0,100,0,0
41139,-85.8608624723635,4,1,0,100,0,0
41396,-84.1713999050547,4,1,0,100,0,0
41482,-83.6229474747542,4,1,0,100,0,0
41567,-83.081596097159,4,1,0,100,0,0
41653,-82.5471406083229,4,1,0,100,0,0
41825,-81.4987290273208,4,1,0,100,0,0
42082,-79.9750477850911,4,1,0,100,0,0
42167,-79.4797573006131,4,1,0,100,0,0
42253,-78.99056378725,4,1,0,100,0,0
42339,-78.5073553541231,4,1,0,100,0,0
42510,-77.5583995358905,4,1,0,100,0,0
44910,-96.1538461538461,4,1,0,100,0,0
50396,-77.5193798449612,4,1,0,100,0,0
50739,-96.1538461538461,4,1,0,100,0,0
55110,-94.7937383048225,4,1,0,100,0,0
55367,-93.4714841869617,4,1,0,100,0,0
55625,-92.1856951769366,4,1,0,100,0,0
55882,-90.9348006572768,4,1,0,100,0,0
56053,-90.1195616224044,4,1,0,100,0,0
56225,-89.3188100948119,4,1,0,100,0,0
56231,-89.3188100948119,4,1,0,100,0,1
61367,-72.992700729927,4,1,0,100,0,1
61373,-72.992700729927,4,1,0,100,0,0
61710,-89.2857142857143,4,1,0,100,0,0
61716,-89.2857142857143,4,1,0,100,0,1
65910,-89.6860986547085,4,1,0,100,0,1
65996,-90.0900900900901,4,1,0,100,0,1
66082,-90.4977375565611,4,1,0,100,0,1
66167,-90.9090909090909,4,1,0,100,0,1
66339,-91.743119266055,4,1,0,100,0,1
66510,-92.5925925925926,4,1,0,100,0,1
66596,-93.0232558139535,4,1,0,100,0,1
66682,-93.4579439252336,4,1,0,100,0,1
66853,-94.3396226415094,4,1,0,100,0,1
66939,-94.7867298578199,4,1,0,100,0,1
67025,-95.2380952380952,4,1,0,100,0,1
67196,-96.1538461538461,4,1,0,100,0,1
67202,-96.1538461538461,4,1,0,100,0,0
72939,-93.6284001153502,4,1,0,100,0,0
73025,-92.815780167681,4,1,0,100,0,0
73110,-92.0172293060153,4,1,0,100,0,0
73196,-91.232218840548,4,1,0,100,0,0
73367,-89.7017864110764,4,1,0,100,0,0
73539,-88.221853258827,4,1,0,100,0,0
73625,-87.5000109375014,4,1,0,100,0,0
73710,-86.789885159624,4,1,0,100,0,0
73796,-86.0912670740505,4,1,0,100,0,0
73882,-85.4037333387992,4,1,0,100,0,0
74053,-84.0611629021276,4,1,0,100,0,0
74310,-82.1245961522984,4,1,0,100,0,0
74396,-81.4987290273208,4,1,0,100,0,0
74482,-80.8823291522561,4,1,0,100,0,0
74567,-80.2752477695522,4,1,0,100,0,0
74739,-79.087895123124,4,1,0,100,0,0
74910,-77.935215572703,4,1,0,100,0,0
74996,-77.3713546486257,4,1,0,100,0,0
75082,-76.8156531865437,4,1,0,100,0,0
75167,-76.2678190225669,4,1,0,100,0,0
75253,-75.7278009631062,4,1,0,100,0,0
75425,-74.6702747343418,4,1,0,100,0,0
77825,-96.1538461538461,4,1,0,100,0,0
83310,-74.6268656716418,4,1,0,100,0,0
83653,-96.1538461538461,4,1,0,100,0,0
88025,-94.7937383048225,4,1,0,100,0,0
88282,-93.4714841869617,4,1,0,100,0,0
88540,-92.1856951769366,4,1,0,100,0,0
88797,-90.9348006572768,4,1,0,100,0,0
88968,-90.1195616224044,4,1,0,100,0,0
89140,-89.3188100948119,4,1,0,100,0,0
89145,-89.3188100948119,4,1,0,100,0,1
94282,-70.4225352112676,4,1,0,100,0,1
94288,-70.4225352112676,4,1,0,100,0,0
94625,-89.2857142857143,4,1,0,100,0,0
94631,-89.2857142857143,4,1,0,100,0,1
100116,-89.2857142857143,4,1,0,100,0,0

[HitObjects]
250,208,17831,5,8,0:0:0:0:
250,208,18002,1,0,0:0:0:0:
250,208,18173,1,8,0:0:0:0:
250,208,18345,1,0,0:0:0:0:
250,208,18516,1,8,0:0:0:0:
250,208,18688,1,0,0:0:0:0:
250,208,18859,1,8,0:0:0:0:
250,208,19202,1,8,0:0:0:0:
250,208,19373,1,0,0:0:0:0:
250,208,19545,1,8,0:0:0:0:
250,208,19716,1,0,0:0:0:0:
250,208,19888,1,8,0:0:0:0:
250,208,20059,1,0,0:0:0:0:
250,208,20231,1,8,0:0:0:0:
250,208,20573,1,8,0:0:0:0:
251,232,20659,1,8,0:0:0:0:
250,208,20745,1,0,0:0:0:0:
250,208,20916,1,8,0:0:0:0:
251,232,21088,1,8,0:0:0:0:
251,232,21173,1,8,0:0:0:0:
251,232,21259,1,0,0:0:0:0:
251,232,21431,1,8,0:0:0:0:
251,232,21602,1,8,0:0:0:0:
251,232,21688,1,0,0:0:0:0:
251,232,21773,1,8,0:0:0:0:
251,232,21945,1,4,0:0:0:0:
274,247,23316,5,4,0:0:0:0:
259,232,23573,1,0,0:0:0:0:
259,232,23659,1,8,0:0:0:0:
259,232,23831,1,0,0:0:0:0:
258,239,24088,1,0,0:0:0:0:
274,247,24173,1,8,0:0:0:0:
259,232,24345,1,8,0:0:0:0:
259,232,24688,1,0,0:0:0:0:
259,232,24945,1,0,0:0:0:0:
259,232,25031,1,8,0:0:0:0:
259,232,25202,1,8,0:0:0:0:
283,250,25459,1,8,0:0:0:0:
259,232,25545,1,0,0:0:0:0:
259,232,25716,1,8,0:0:0:0:
259,232,26059,1,0,0:0:0:0:
272,242,26316,1,0,0:0:0:0:
273,242,26402,1,8,0:0:0:0:
273,242,26573,1,0,0:0:0:0:
250,224,26831,1,0,0:0:0:0:
263,236,26916,1,8,0:0:0:0:
268,224,27088,1,8,0:0:0:0:
268,224,27173,1,0,0:0:0:0:
268,225,27259,1,8,0:0:0:0:
256,232,27431,1,8,0:0:0:0:
256,232,27688,1,8,0:0:0:0:
256,232,27773,1,0,0:0:0:0:
257,233,27945,1,8,0:0:0:0:
259,233,28116,1,8,0:0:0:0:
259,233,28202,1,8,0:0:0:0:
259,233,28288,1,0,0:0:0:0:
256,232,28459,1,8,0:0:0:0:
274,247,28802,5,0,0:0:0:0:
259,232,29059,1,0,0:0:0:0:
259,232,29145,1,8,0:0:0:0:
259,232,29316,1,0,0:0:0:0:
258,224,29573,1,0,0:0:0:0:
274,247,29659,1,8,0:0:0:0:
259,232,29831,1,8,0:0:0:0:
259,232,30173,1,0,0:0:0:0:
259,232,30431,1,0,0:0:0:0:
259,232,30516,1,8,0:0:0:0:
259,232,30688,1,8,0:0:0:0:
283,250,30945,1,8,0:0:0:0:
259,232,31031,1,0,0:0:0:0:
259,232,31202,1,8,0:0:0:0:
259,232,31545,1,0,0:0:0:0:
272,242,31802,1,0,0:0:0:0:
273,242,31888,1,8,0:0:0:0:
273,242,32059,1,0,0:0:0:0:
258,224,32316,1,0,0:0:0:0:
263,236,32402,1,8,0:0:0:0:
268,224,32573,1,8,0:0:0:0:
268,224,32659,1,0,0:0:0:0:
268,225,32745,1,8,0:0:0:0:
256,232,32916,1,8,0:0:0:0:
256,232,33173,5,8,0:0:0:0:
256,232,33259,1,0,0:0:0:0:
257,233,33431,1,8,0:0:0:0:
259,233,33602,1,8,0:0:0:0:
259,233,33688,1,8,0:0:0:0:
259,233,33773,1,0,0:0:0:0:
256,232,33945,1,8,0:0:0:0:
274,247,34288,5,4,0:0:0:0:
259,232,34545,1,0,0:0:0:0:
259,232,34631,1,8,0:0:0:0:
259,232,34802,1,0,0:0:0:0:
280,249,35059,1,0,0:0:0:0:
274,247,35145,1,8,0:0:0:0:
259,232,35316,1,8,0:0:0:0:
259,232,35402,1,0,0:0:0:0:
259,232,35488,1,8,0:0:0:0:
259,232,35659,1,0,0:0:0:0:
259,232,35916,1,0,0:0:0:0:
259,232,36002,1,8,0:0:0:0:
259,232,36173,1,8,0:0:0:0:
283,250,36431,1,8,0:0:0:0:
259,232,36516,1,0,0:0:0:0:
259,232,36688,1,8,0:0:0:0:
276,245,36773,1,0,0:0:0:0:
259,232,36859,1,8,0:0:0:0:
259,232,37031,1,0,0:0:0:0:
272,242,37288,1,0,0:0:0:0:
273,242,37373,1,8,0:0:0:0:
273,242,37545,1,0,0:0:0:0:
275,222,37802,1,0,0:0:0:0:
263,236,37888,1,8,0:0:0:0:
268,224,38059,1,8,0:0:0:0:
268,224,38145,1,0,0:0:0:0:
268,225,38231,1,8,0:0:0:0:
256,232,38402,1,8,0:0:0:0:
256,232,38659,1,8,0:0:0:0:
256,232,38745,1,0,0:0:0:0:
257,233,38916,1,8,0:0:0:0:
259,233,39088,1,0,0:0:0:0:
259,233,39173,1,0,0:0:0:0:
259,233,39259,1,8,0:0:0:0:
256,232,39431,1,8,0:0:0:0:
262,236,39773,1,0,0:0:0:0:
257,233,40031,1,0,0:0:0:0:
259,233,40116,1,8,0:0:0:0:
259,233,40202,1,0,0:0:0:0:
259,233,40288,1,8,0:0:0:0:
256,232,40459,1,0,0:0:0:0:
256,232,40716,1,0,0:0:0:0:
254,232,40802,1,8,0:0:0:0:
257,233,40888,1,0,0:0:0:0:
257,233,40973,1,8,0:0:0:0:
259,233,41145,1,0,0:0:0:0:
259,233,41402,1,0,0:0:0:0:
259,233,41488,1,8,0:0:0:0:
256,232,41573,1,0,0:0:0:0:
254,232,41659,1,8,0:0:0:0:
257,233,41831,1,0,0:0:0:0:
254,232,42088,1,0,0:0:0:0:
259,233,42173,1,8,0:0:0:0:
259,233,42259,1,0,0:0:0:0:
256,232,42345,1,8,0:0:0:0:
224,194,42516,2,0,L|267:239,10,60.1697106341384
256,192,43888,12,0,44745,0:0:0:0:
299,197,44916,5,8,0:0:0:0:
260,214,45259,5,0,0:0:0:0:
256,234,45431,1,8,0:0:0:0:
256,234,45516,1,8,0:0:0:0:
251,217,45602,1,0,0:0:0:0:
251,217,45773,1,8,0:0:0:0:
251,217,45945,1,0,0:0:0:0:
251,217,46031,1,8,0:0:0:0:
256,205,46202,1,8,0:0:0:0:
256,205,46288,1,0,0:0:0:0:
263,189,46459,1,8,0:0:0:0:
283,200,46545,1,8,0:0:0:0:
256,205,46631,1,0,0:0:0:0:
256,205,46802,1,0,0:0:0:0:
256,205,46888,1,8,0:0:0:0:
256,205,46973,1,0,0:0:0:0:
256,205,47145,1,8,0:0:0:0:
256,205,47316,1,0,0:0:0:0:
269,198,47402,1,0,0:0:0:0:
269,198,47488,1,8,0:0:0:0:
269,198,47573,1,8,0:0:0:0:
269,198,47659,1,0,0:0:0:0:
267,205,48002,1,0,0:0:0:0:
271,219,48173,1,8,0:0:0:0:
271,219,48259,1,8,0:0:0:0:
267,205,48345,1,0,0:0:0:0:
260,208,48516,1,8,0:0:0:0:
260,208,48688,1,0,0:0:0:0:
260,208,48773,1,8,0:0:0:0:
260,208,48945,1,8,0:0:0:0:
260,208,49031,1,0,0:0:0:0:
255,186,49202,1,8,0:0:0:0:
260,208,49288,1,8,0:0:0:0:
260,208,49373,1,0,0:0:0:0:
260,208,49545,1,8,0:0:0:0:
260,208,49716,1,0,0:0:0:0:
260,208,49802,1,0,0:0:0:0:
260,208,49888,1,8,0:0:0:0:
260,208,50059,1,0,0:0:0:0:
260,208,50145,1,8,0:0:0:0:
257,212,50231,1,0,0:0:0:0:
257,212,50402,1,12,0:0:0:0:
257,212,50745,1,0,0:0:0:0:
260,218,50916,1,8,0:0:0:0:
260,220,51002,1,8,0:0:0:0:
257,212,51088,1,0,0:0:0:0:
257,212,51259,1,8,0:0:0:0:
257,212,51431,1,0,0:0:0:0:
268,204,51516,1,8,0:0:0:0:
240,198,51602,1,8,0:0:0:0:
254,206,51688,1,8,0:0:0:0:
257,212,51773,1,0,0:0:0:0:
252,186,51945,1,8,0:0:0:0:
263,212,52031,1,8,0:0:0:0:
257,212,52116,1,0,0:0:0:0:
257,212,52288,1,0,0:0:0:0:
259,201,52373,1,8,0:0:0:0:
257,212,52459,1,0,0:0:0:0:
257,212,52631,1,8,0:0:0:0:
257,212,52802,1,0,0:0:0:0:
262,219,52888,1,0,0:0:0:0:
262,219,52973,1,8,0:0:0:0:
262,219,53059,1,8,0:0:0:0:
262,219,53145,1,0,0:0:0:0:
263,225,53488,1,0,0:0:0:0:
276,240,53659,1,8,0:0:0:0:
278,240,53745,1,8,0:0:0:0:
263,225,53831,1,0,0:0:0:0:
263,224,54002,1,8,0:0:0:0:
263,224,54173,1,0,0:0:0:0:
263,224,54259,1,8,0:0:0:0:
251,186,54345,1,8,0:0:0:0:
251,186,54431,5,8,0:0:0:0:
263,225,54516,1,0,0:0:0:0:
251,186,54688,1,8,0:0:0:0:
276,229,54773,1,8,0:0:0:0:
254,209,54859,1,0,0:0:0:0:
254,209,55116,1,8,0:0:0:0:
247,206,55373,1,0,0:0:0:0:
247,206,55631,1,8,0:0:0:0:
247,206,55888,1,0,0:0:0:0:
247,206,56059,1,0,0:0:0:0:
240,198,56231,5,8,0:0:0:0:
256,186,56316,1,8,0:0:0:0:
256,186,56402,1,0,0:0:0:0:
267,205,56573,1,8,0:0:0:0:
267,205,56745,1,0,0:0:0:0:
268,236,56916,1,8,0:0:0:0:
264,217,57002,1,8,0:0:0:0:
290,214,57088,1,0,0:0:0:0:
272,221,57173,1,0,0:0:0:0:
257,234,57259,1,8,0:0:0:0:
257,234,57431,1,8,0:0:0:0:
244,129,57602,1,0,0:0:0:0:
217,201,57688,1,8,0:0:0:0:
235,209,57773,1,0,0:0:0:0:
252,211,57945,1,8,0:0:0:0:
252,211,58116,1,0,0:0:0:0:
248,220,58288,1,8,0:0:0:0:
248,220,58373,1,8,0:0:0:0:
248,220,58459,1,0,0:0:0:0:
265,201,58545,1,0,0:0:0:0:
257,210,58631,1,8,0:0:0:0:
256,186,58973,1,8,0:0:0:0:
256,186,59059,1,8,0:0:0:0:
256,186,59145,1,0,0:0:0:0:
267,205,59316,1,8,0:0:0:0:
267,205,59488,1,0,0:0:0:0:
237,247,59659,1,8,0:0:0:0:
233,228,59745,1,8,0:0:0:0:
225,187,59831,1,8,0:0:0:0:
268,217,59916,1,0,0:0:0:0:
257,234,60002,1,8,0:0:0:0:
257,234,60173,1,8,0:0:0:0:
249,229,60345,1,0,0:0:0:0:
274,222,60431,1,8,0:0:0:0:
241,203,60516,1,0,0:0:0:0:
273,239,60602,1,0,0:0:0:0:
252,211,60688,1,8,0:0:0:0:
252,211,60859,1,0,0:0:0:0:
248,220,61031,1,8,0:0:0:0:
257,210,61116,1,8,0:0:0:0:
248,220,61202,1,8,0:0:0:0:
257,210,61373,1,12,0:0:0:0:
256,186,61716,5,8,0:0:0:0:
256,186,61802,1,8,0:0:0:0:
256,186,61888,1,0,0:0:0:0:
267,205,62059,1,8,0:0:0:0:
267,205,62231,1,0,0:0:0:0:
261,253,62402,1,8,0:0:0:0:
257,234,62488,1,8,0:0:0:0:
249,193,62573,1,0,0:0:0:0:
268,214,62659,1,0,0:0:0:0:
257,234,62745,1,8,0:0:0:0:
257,234,62916,1,8,0:0:0:0:
264,219,63088,1,0,0:0:0:0:
250,228,63173,1,8,0:0:0:0:
269,219,63259,1,0,0:0:0:0:
252,211,63431,1,8,0:0:0:0:
252,211,63602,1,0,0:0:0:0:
248,220,63773,1,8,0:0:0:0:
248,220,63859,1,8,0:0:0:0:
248,220,63945,1,8,0:0:0:0:
257,210,64031,1,0,0:0:0:0:
257,210,64116,1,8,0:0:0:0:
256,186,64459,1,8,0:0:0:0:
256,186,64545,1,8,0:0:0:0:
267,205,64631,1,0,0:0:0:0:
267,205,64802,1,8,0:0:0:0:
267,205,64973,1,0,0:0:0:0:
240,242,65145,1,8,0:0:0:0:
236,223,65231,1,8,0:0:0:0:
257,234,65316,1,8,0:0:0:0:
273,200,65402,1,0,0:0:0:0:
257,234,65488,1,8,0:0:0:0:
257,234,65659,1,8,0:0:0:0:
248,197,65831,1,0,0:0:0:0:
267,205,65916,1,8,0:0:0:0:
241,203,66002,1,8,0:0:0:0:
248,195,66088,1,8,0:0:0:0:
252,211,66173,1,0,0:0:0:0:
246,206,66345,1,8,0:0:0:0:
248,220,66516,1,8,0:0:0:0:
252,206,66602,1,8,0:0:0:0:
252,206,66688,1,8,0:0:0:0:
281,230,66773,1,8,0:0:0:0:
252,206,66859,1,0,0:0:0:0:
252,206,66945,1,0,0:0:0:0:
244,209,67031,5,8,0:0:0:0:
274,247,67202,5,4,0:0:0:0:
259,232,67459,1,0,0:0:0:0:
259,232,67545,1,8,0:0:0:0:
259,232,67716,1,0,0:0:0:0:
264,227,67973,1,0,0:0:0:0:
274,247,68059,1,8,0:0:0:0:
259,232,68231,1,8,0:0:0:0:
259,232,68316,1,0,0:0:0:0:
259,232,68402,1,8,0:0:0:0:
259,232,68573,1,0,0:0:0:0:
259,232,68831,1,0,0:0:0:0:
259,232,68916,1,8,0:0:0:0:
259,232,69088,1,8,0:0:0:0:
283,250,69345,1,8,0:0:0:0:
259,232,69431,1,0,0:0:0:0:
259,232,69602,1,8,0:0:0:0:
276,245,69688,1,0,0:0:0:0:
259,232,69773,1,8,0:0:0:0:
259,232,69945,1,0,0:0:0:0:
272,242,70202,1,0,0:0:0:0:
273,242,70288,1,8,0:0:0:0:
273,242,70459,1,0,0:0:0:0:
275,222,70716,1,0,0:0:0:0:
263,236,70802,1,8,0:0:0:0:
268,224,70973,1,8,0:0:0:0:
268,224,71059,1,0,0:0:0:0:
268,225,71145,1,8,0:0:0:0:
256,232,71316,1,8,0:0:0:0:
256,232,71573,1,8,0:0:0:0:
256,232,71659,1,0,0:0:0:0:
257,233,71831,1,8,0:0:0:0:
259,233,72002,1,0,0:0:0:0:
259,233,72088,1,8,0:0:0:0:
259,233,72173,1,0,0:0:0:0:
256,232,72345,1,8,0:0:0:0:
262,236,72688,1,0,0:0:0:0:
257,233,72945,1,0,0:0:0:0:
259,233,73031,1,8,0:0:0:0:
259,233,73116,1,0,0:0:0:0:
259,233,73202,1,8,0:0:0:0:
256,232,73373,1,0,0:0:0:0:
256,232,73545,1,8,0:0:0:0:
258,244,73631,1,0,0:0:0:0:
254,232,73716,1,8,0:0:0:0:
257,233,73802,1,0,0:0:0:0:
257,233,73888,1,8,0:0:0:0:
259,233,74059,1,0,0:0:0:0:
259,233,74316,1,0,0:0:0:0:
259,233,74402,1,8,0:0:0:0:
256,232,74488,1,0,0:0:0:0:
254,232,74573,1,8,0:0:0:0:
257,233,74745,1,0,0:0:0:0:
254,232,74916,1,8,0:0:0:0:
258,244,75002,1,0,0:0:0:0:
259,233,75088,1,8,0:0:0:0:
259,233,75173,1,0,0:0:0:0:
256,232,75259,1,8,0:0:0:0:
216,171,75431,2,0,L|269:218,10,62.4945551643334
256,192,76802,12,0,77659,0:0:0:0:
299,197,77831,5,8,0:0:0:0:
299,197,77916,1,8,0:0:0:0:
299,197,78002,1,0,0:0:0:0:
260,214,78173,5,0,0:0:0:0:
235,212,78345,1,8,0:0:0:0:
235,212,78431,1,8,0:0:0:0:
251,217,78516,1,0,0:0:0:0:
251,217,78688,1,8,0:0:0:0:
251,217,78859,1,0,0:0:0:0:
251,217,78945,1,8,0:0:0:0:
256,205,79116,1,8,0:0:0:0:
256,205,79202,1,0,0:0:0:0:
263,189,79373,1,8,0:0:0:0:
283,200,79459,1,8,0:0:0:0:
256,205,79545,1,0,0:0:0:0:
256,205,79716,1,0,0:0:0:0:
256,205,79802,1,8,0:0:0:0:
256,205,79888,1,0,0:0:0:0:
256,205,80059,1,8,0:0:0:0:
256,205,80231,1,0,0:0:0:0:
269,198,80316,1,0,0:0:0:0:
269,198,80402,1,8,0:0:0:0:
269,198,80488,1,8,0:0:0:0:
269,198,80573,1,0,0:0:0:0:
267,205,80916,1,0,0:0:0:0:
273,218,81088,1,8,0:0:0:0:
273,218,81173,1,8,0:0:0:0:
267,205,81259,1,0,0:0:0:0:
260,208,81431,1,8,0:0:0:0:
260,208,81602,1,0,0:0:0:0:
260,208,81688,1,8,0:0:0:0:
260,208,81859,1,8,0:0:0:0:
260,208,81945,1,0,0:0:0:0:
255,186,82116,1,8,0:0:0:0:
260,208,82202,1,8,0:0:0:0:
260,208,82288,1,0,0:0:0:0:
260,208,82459,1,8,0:0:0:0:
271,196,82545,1,8,0:0:0:0:
260,208,82631,1,0,0:0:0:0:
268,211,82716,1,0,0:0:0:0:
260,208,82802,1,8,0:0:0:0:
260,208,82973,1,0,0:0:0:0:
260,208,83059,1,8,0:0:0:0:
257,212,83145,1,0,0:0:0:0:
257,212,83316,1,12,0:0:0:0:
257,212,83659,1,0,0:0:0:0:
283,210,83831,1,8,0:0:0:0:
283,210,83916,1,8,0:0:0:0:
257,212,84002,1,0,0:0:0:0:
257,212,84173,1,8,0:0:0:0:
257,212,84345,1,0,0:0:0:0:
268,204,84431,1,8,0:0:0:0:
240,198,84516,1,8,0:0:0:0:
254,206,84602,1,8,0:0:0:0:
257,212,84688,1,0,0:0:0:0:
252,186,84859,1,8,0:0:0:0:
263,212,84945,1,8,0:0:0:0:
257,212,85031,1,0,0:0:0:0:
257,212,85202,1,0,0:0:0:0:
259,201,85288,1,8,0:0:0:0:
257,212,85373,1,0,0:0:0:0:
257,212,85545,1,8,0:0:0:0:
257,212,85716,1,0,0:0:0:0:
262,219,85802,1,8,0:0:0:0:
262,219,85888,1,8,0:0:0:0:
262,219,85973,1,8,0:0:0:0:
262,219,86059,1,0,0:0:0:0:
263,225,86402,1,0,0:0:0:0:
262,220,86573,1,8,0:0:0:0:
263,221,86659,1,8,0:0:0:0:
263,225,86745,1,0,0:0:0:0:
263,224,86916,1,8,0:0:0:0:
263,224,87088,1,0,0:0:0:0:
263,224,87173,1,8,0:0:0:0:
251,186,87259,1,8,0:0:0:0:
251,186,87345,5,8,0:0:0:0:
263,225,87431,1,0,0:0:0:0:
251,186,87602,1,8,0:0:0:0:
276,229,87688,1,8,0:0:0:0:
254,209,87773,1,0,0:0:0:0:
254,209,88031,1,8,0:0:0:0:
247,206,88288,1,0,0:0:0:0:
247,206,88545,1,8,0:0:0:0:
247,206,88802,1,0,0:0:0:0:
247,206,88973,1,0,0:0:0:0:
240,198,89145,5,8,0:0:0:0:
256,186,89231,1,8,0:0:0:0:
256,186,89316,1,8,0:0:0:0:
272,220,89402,1,0,0:0:0:0:
267,205,89488,1,8,0:0:0:0:
267,205,89659,1,0,0:0:0:0:
268,236,89831,1,8,0:0:0:0:
264,217,89916,1,8,0:0:0:0:
290,214,90002,1,0,0:0:0:0:
268,236,90088,1,0,0:0:0:0:
257,234,90173,1,8,0:0:0:0:
257,234,90345,1,8,0:0:0:0:
244,129,90516,1,0,0:0:0:0:
217,201,90602,1,8,0:0:0:0:
235,209,90688,1,0,0:0:0:0:
252,211,90859,1,8,0:0:0:0:
252,211,91031,1,0,0:0:0:0:
248,220,91202,1,8,0:0:0:0:
248,220,91288,1,8,0:0:0:0:
248,220,91373,1,0,0:0:0:0:
256,203,91459,1,0,0:0:0:0:
257,210,91545,1,8,0:0:0:0:
256,186,91888,1,8,0:0:0:0:
256,186,91973,1,8,0:0:0:0:
256,186,92059,1,0,0:0:0:0:
272,220,92145,1,0,0:0:0:0:
267,205,92231,1,8,0:0:0:0:
267,205,92402,1,0,0:0:0:0:
237,247,92573,1,8,0:0:0:0:
233,228,92659,1,8,0:0:0:0:
225,187,92745,1,8,0:0:0:0:
231,184,92831,1,0,0:0:0:0:
257,234,92916,1,8,0:0:0:0:
257,234,93088,1,8,0:0:0:0:
249,229,93259,1,0,0:0:0:0:
274,222,93345,1,8,0:0:0:0:
241,203,93431,1,0,0:0:0:0:
257,210,93516,1,0,0:0:0:0:
252,211,93602,1,8,0:0:0:0:
252,211,93773,1,0,0:0:0:0:
248,220,93945,1,8,0:0:0:0:
252,211,94031,1,8,0:0:0:0:
248,220,94116,1,8,0:0:0:0:
257,210,94288,1,12,0:0:0:0:
256,186,94631,5,8,0:0:0:0:
256,186,94716,1,8,0:0:0:0:
256,186,94802,1,8,0:0:0:0:
272,220,94888,1,0,0:0:0:0:
267,205,94973,1,8,0:0:0:0:
267,205,95145,1,0,0:0:0:0:
261,253,95316,1,8,0:0:0:0:
257,234,95402,1,8,0:0:0:0:
249,193,95488,1,0,0:0:0:0:
257,234,95573,1,0,0:0:0:0:
257,234,95659,1,8,0:0:0:0:
257,234,95831,1,8,0:0:0:0:
264,219,96002,1,0,0:0:0:0:
250,228,96088,1,8,0:0:0:0:
268,236,96173,1,0,0:0:0:0:
252,211,96345,1,8,0:0:0:0:
252,211,96516,1,0,0:0:0:0:
248,220,96688,1,8,0:0:0:0:
248,220,96773,1,8,0:0:0:0:
248,220,96859,1,8,0:0:0:0:
257,210,96945,1,0,0:0:0:0:
257,210,97031,1,8,0:0:0:0:
256,186,97373,1,8,0:0:0:0:
256,186,97459,1,8,0:0:0:0:
267,205,97545,1,0,0:0:0:0:
272,220,97631,1,0,0:0:0:0:
267,205,97716,1,8,0:0:0:0:
267,205,97888,1,0,0:0:0:0:
240,242,98059,1,8,0:0:0:0:
236,223,98145,1,8,0:0:0:0:
257,234,98231,1,8,0:0:0:0:
231,184,98316,1,0,0:0:0:0:
257,234,98402,1,8,0:0:0:0:
257,234,98573,1,8,0:0:0:0:
248,197,98745,1,0,0:0:0:0:
267,205,98831,1,8,0:0:0:0:
241,203,98916,1,8,0:0:0:0:
248,195,99002,1,8,0:0:0:0:
252,211,99088,1,0,0:0:0:0:
246,206,99259,1,8,0:0:0:0:
248,220,99431,1,8,0:0:0:0:
252,206,99516,1,8,0:0:0:0:
252,206,99602,1,8,0:0:0:0:
252,221,99688,1,8,0:0:0:0:
252,206,99773,1,0,0:0:0:0:
252,206,99859,1,0,0:0:0:0:
244,209,99945,5,8,0:0:0:0:
274,247,100116,5,4,0:0:0:0:
