osu file format v14

[General]
AudioFilename: yes.mp3
AudioLeadIn: 0
PreviewTime: 31545
Countdown: 0
SampleSet: Normal
StackLeniency: 0.7
Mode: 1
LetterboxInBreaks: 0
WidescreenStoryboard: 1

[Editor]
DistanceSpacing: 0.8
BeatDivisor: 4
GridSize: 32
TimelineZoom: 2.3

[Metadata]
Title:Arrogation (Cut Ver.)
TitleUnicode:Arrogation (Cut Ver.)
Artist:A?
ArtistUnicode:あ?
Creator:ZTH
Version:Muzukashii
Source:
Tags:aquestion hardpsy hardstyle ocutechno techno electronic instrumental 人體解剖 市大テクノ部
BeatmapID:2682910
BeatmapSetID:1291023

[Difficulty]
HPDrainRate:7
CircleSize:5
OverallDifficulty:5
ApproachRate:5
SliderMultiplier:1.4
SliderTickRate:3

[Events]
//Background and Video events
0,0,"b.jpg",0,-90
//Break Periods
//Storyboard Layer 0 (Background)
//Storyboard Layer 1 (Fail)
//Storyboard Layer 2 (Pass)
//Storyboard Layer 3 (Foreground)
//Storyboard Layer 4 (Overlay)
//Storyboard Sound Samples

[TimingPoints]
17831,342.857142857143,4,1,0,100,1,0
18167,-99.009900990099,4,1,0,100,0,0
18339,-98.5221674876847,4,1,0,100,0,0
18510,-98.0392156862745,4,1,0,100,0,0
18682,-97.5609756097561,4,1,0,100,0,0
18853,-97.0873786407767,4,1,0,100,0,0
19196,-96.1538461538461,4,1,0,100,0,0
19539,-95.2380952380952,4,1,0,100,0,0
19710,-94.7867298578199,4,1,0,100,0,0
19882,-94.3396226415094,4,1,0,100,0,0
20053,-93.8967136150235,4,1,0,100,0,0
20225,-93.4579439252336,4,1,0,100,0,0
20567,-92.5925925925926,4,1,0,100,0,0
20653,-92.168107254183,4,1,0,100,0,0
20739,-91.7474962108284,4,1,0,100,0,0
20910,-90.9176867631121,4,1,0,100,0,0
21082,-90.102671994738,4,1,0,100,0,0
21425,-88.5158633704539,4,1,0,100,0,0
21596,-87.743235215923,4,1,0,100,0,0
21682,-87.3619571873993,4,1,0,100,0,0
21767,-86.9839784210146,4,1,0,100,0,0
21939,-86.237748849804,4,1,0,100,0,0
23310,-100,4,1,0,100,0,0
34282,-97.0873786407767,4,1,0,100,0,0
39767,-97.0873786407767,4,1,0,100,0,0
40025,-95.6118007909008,4,1,0,100,0,0
40282,-94.1804044483289,4,1,0,100,0,0
40453,-93.2496573075094,4,1,0,100,0,0
40710,-91.8876104259358,4,1,0,100,0,0
40796,-91.4424497798066,4,1,0,100,0,0
40967,-90.5647800815445,4,1,0,100,0,0
41139,-89.7038785265959,4,1,0,100,0,0
41396,-88.4427443783581,4,1,0,100,0,0
41653,-87.2165788250357,4,1,0,100,0,0
41825,-86.4178006842562,4,1,0,100,0,0
42082,-85.2467680819051,4,1,0,100,0,0
42167,-84.8634208105475,4,1,0,100,0,0
42339,-84.1070480865226,4,1,0,100,0,0
42510,-83.3333333333333,4,1,0,100,0,0
44910,-97.0873786407767,4,1,0,100,0,0
50396,-84.7457627118644,4,1,0,100,0,0
50739,-97.0873786407767,4,1,0,100,0,0
55367,-95.0224395490995,4,1,0,100,0,0
55625,-94.0225183931552,4,1,0,100,0,0
55882,-93.0434224348161,4,1,0,100,0,0
56053,-92.4019707492321,4,1,0,100,0,0
56225,-91.769302984613,4,1,0,100,0,0
56231,-91.769302984613,4,1,0,100,0,1
61367,-80.6451612903226,4,1,0,100,0,1
61373,-80.6451612903226,4,1,0,100,0,0
61710,-91.743119266055,4,1,0,100,0,0
61716,-91.743119266055,4,1,0,100,0,1
65825,-91.743119266055,4,1,0,100,0,1
65910,-92.0598388952819,4,1,0,100,0,1
65996,-92.378752886836,4,1,0,100,0,1
66167,-93.0232558139535,4,1,0,100,0,1
66339,-93.6768149882904,4,1,0,100,0,1
66510,-94.3396226415094,4,1,0,100,0,1
66596,-94.6745562130178,4,1,0,100,0,1
66682,-95.0118764845606,4,1,0,100,0,1
66853,-95.6937799043062,4,1,0,100,0,1
67196,-97.0873786407767,4,1,0,100,0,1
67202,-97.0873786407767,4,1,0,100,0,0
72682,-97.0873786407767,4,1,0,100,0,0
72939,-95.2711225605829,4,1,0,100,0,0
73025,-94.6806516301168,4,1,0,100,0,0
73196,-93.5214860938226,4,1,0,100,0,0
73367,-92.3903603593615,4,1,0,100,0,0
73625,-90.7441016333938,4,1,0,100,0,0
73710,-90.2083361523438,4,1,0,100,0,0
73882,-89.1554835971741,4,1,0,100,0,0
74053,-88.1269239209078,4,1,0,100,0,0
74310,-86.6277881153605,4,1,0,100,0,0
74396,-86.139395938872,4,1,0,100,0,0
74567,-85.1788756388416,4,1,0,100,0,0
74739,-84.2395401868938,4,1,0,100,0,0
74996,-82.8687847375587,4,1,0,100,0,0
75082,-82.4216808583064,4,1,0,100,0,0
75253,-81.5418586977439,4,1,0,100,0,0
75425,-80.680621724871,4,1,0,100,0,0
77825,-97.0873786407767,4,1,0,100,0,0
83310,-81.3008130081301,4,1,0,100,0,0
83653,-97.0873786407767,4,1,0,100,0,0
88282,-95.0224395490995,4,1,0,100,0,0
88540,-94.0225183931552,4,1,0,100,0,0
88797,-93.0434224348161,4,1,0,100,0,0
88968,-92.4019707492321,4,1,0,100,0,0
89140,-91.769302984613,4,1,0,100,0,0
89145,-91.769302984613,4,1,0,100,0,1
94282,-77.5193798449612,4,1,0,100,0,1
94288,-77.5193798449612,4,1,0,100,0,0
94625,-91.743119266055,4,1,0,100,0,0
94631,-91.743119266055,4,1,0,100,0,1
100116,-91.743119266055,4,1,0,100,0,0

[HitObjects]
250,208,17831,5,8,0:0:0:0:
250,208,18173,1,8,0:0:0:0:
250,208,18345,1,0,0:0:0:0:
250,208,18516,1,8,0:0:0:0:
250,208,18688,1,0,0:0:0:0:
250,208,18859,1,8,0:0:0:0:
250,208,19202,1,8,0:0:0:0:
250,208,19545,1,8,0:0:0:0:
250,208,19716,1,0,0:0:0:0:
250,208,19888,1,8,0:0:0:0:
250,208,20059,1,0,0:0:0:0:
250,208,20231,1,8,0:0:0:0:
250,208,20573,1,8,0:0:0:0:
251,232,20659,1,8,0:0:0:0:
250,208,20745,1,8,0:0:0:0:
250,208,20916,1,8,0:0:0:0:
251,232,21088,1,0,0:0:0:0:
251,232,21431,1,8,0:0:0:0:
251,232,21602,1,8,0:0:0:0:
251,232,21688,1,8,0:0:0:0:
251,232,21773,1,8,0:0:0:0:
251,232,21945,1,4,0:0:0:0:
274,247,23316,5,4,0:0:0:0:
259,232,23573,1,8,0:0:0:0:
259,232,23831,1,0,0:0:0:0:
267,245,24088,1,0,0:0:0:0:
274,247,24173,1,0,0:0:0:0:
259,232,24345,1,8,0:0:0:0:
259,232,24688,1,0,0:0:0:0:
259,232,24945,1,8,0:0:0:0:
259,232,25031,1,8,0:0:0:0:
235,212,25202,1,8,0:0:0:0:
240,239,25459,1,0,0:0:0:0:
259,232,25716,1,8,0:0:0:0:
259,232,26059,1,0,0:0:0:0:
273,242,26316,1,8,0:0:0:0:
273,242,26573,1,0,0:0:0:0:
243,216,26831,1,0,0:0:0:0:
268,224,26916,1,0,0:0:0:0:
263,236,27088,1,8,0:0:0:0:
253,251,27259,1,0,0:0:0:0:
256,232,27431,1,8,0:0:0:0:
257,233,27945,1,8,0:0:0:0:
259,233,28116,1,0,0:0:0:0:
259,233,28202,1,0,0:0:0:0:
259,233,28288,1,0,0:0:0:0:
256,232,28459,1,8,0:0:0:0:
274,247,28802,5,0,0:0:0:0:
259,232,29059,1,8,0:0:0:0:
259,232,29316,1,0,0:0:0:0:
259,232,29573,1,0,0:0:0:0:
274,247,29659,1,0,0:0:0:0:
259,232,29831,1,8,0:0:0:0:
259,232,30173,1,0,0:0:0:0:
259,232,30431,1,8,0:0:0:0:
253,232,30516,1,8,0:0:0:0:
259,232,30688,1,8,0:0:0:0:
269,251,30945,1,0,0:0:0:0:
276,245,31202,1,8,0:0:0:0:
259,232,31545,1,0,0:0:0:0:
273,242,31802,1,8,0:0:0:0:
273,242,32059,1,0,0:0:0:0:
268,224,32316,1,0,0:0:0:0:
263,236,32402,1,0,0:0:0:0:
268,224,32573,1,8,0:0:0:0:
275,233,32745,1,0,0:0:0:0:
256,232,32916,1,8,0:0:0:0:
257,233,33431,1,8,0:0:0:0:
259,233,33602,1,0,0:0:0:0:
259,233,33688,1,0,0:0:0:0:
259,233,33773,1,0,0:0:0:0:
256,232,33945,1,8,0:0:0:0:
274,247,34288,5,4,0:0:0:0:
160,224,34545,1,8,0:0:0:0:
259,232,34802,1,0,0:0:0:0:
274,247,35059,1,8,0:0:0:0:
262,228,35145,1,8,0:0:0:0:
259,232,35316,1,0,0:0:0:0:
259,232,35488,1,8,0:0:0:0:
259,232,35659,1,0,0:0:0:0:
259,232,35916,1,0,0:0:0:0:
259,232,36002,1,0,0:0:0:0:
259,232,36173,1,8,0:0:0:0:
259,232,36431,1,0,0:0:0:0:
259,232,36688,1,8,0:0:0:0:
259,232,36859,1,8,0:0:0:0:
259,232,37031,1,0,0:0:0:0:
273,242,37288,1,8,0:0:0:0:
273,242,37545,1,0,0:0:0:0:
263,236,37802,1,8,0:0:0:0:
252,212,37888,1,8,0:0:0:0:
268,224,38059,1,0,0:0:0:0:
268,225,38231,1,8,0:0:0:0:
256,232,38402,1,8,0:0:0:0:
257,233,38916,1,8,0:0:0:0:
259,233,39088,1,0,0:0:0:0:
259,233,39173,1,0,0:0:0:0:
259,233,39259,1,0,0:0:0:0:
256,232,39431,1,8,0:0:0:0:
262,236,39773,1,0,0:0:0:0:
259,233,40031,1,8,0:0:0:0:
259,233,40288,1,8,0:0:0:0:
256,232,40459,1,0,0:0:0:0:
224,224,40716,1,8,0:0:0:0:
257,227,40802,1,8,0:0:0:0:
257,233,40973,1,8,0:0:0:0:
259,233,41145,1,0,0:0:0:0:
256,232,41402,1,8,0:0:0:0:
254,232,41659,1,8,0:0:0:0:
257,233,41831,1,0,0:0:0:0:
254,232,42088,1,8,0:0:0:0:
259,233,42173,1,8,0:0:0:0:
256,232,42345,1,8,0:0:0:0:
245,186,42516,2,0,L|326:188,10,55.9999982910157
256,192,43888,12,0,44745,0:0:0:0:
299,197,44916,5,8,0:0:0:0:
260,214,45259,5,0,0:0:0:0:
213,212,45602,1,0,0:0:0:0:
265,211,45773,1,8,0:0:0:0:
251,217,45945,1,0,0:0:0:0:
265,209,46031,1,0,0:0:0:0:
262,207,46202,1,8,0:0:0:0:
260,212,46459,1,8,0:0:0:0:
256,205,46631,1,0,0:0:0:0:
262,207,46973,1,0,0:0:0:0:
256,205,47145,1,8,0:0:0:0:
256,205,47316,1,8,0:0:0:0:
269,198,47402,1,8,0:0:0:0:
269,198,47488,1,8,0:0:0:0:
269,198,47659,1,0,0:0:0:0:
267,205,48002,1,0,0:0:0:0:
254,219,48345,1,0,0:0:0:0:
262,223,48516,1,8,0:0:0:0:
260,208,48688,1,0,0:0:0:0:
267,205,48773,1,0,0:0:0:0:
260,208,48945,1,8,0:0:0:0:
261,218,49202,1,8,0:0:0:0:
260,208,49373,1,0,0:0:0:0:
260,208,49716,1,0,0:0:0:0:
260,208,49888,1,8,0:0:0:0:
260,208,50059,1,0,0:0:0:0:
260,208,50145,1,0,0:0:0:0:
257,212,50231,1,0,0:0:0:0:
257,212,50402,1,12,0:0:0:0:
257,212,50745,1,0,0:0:0:0:
255,219,51088,1,0,0:0:0:0:
257,212,51259,1,8,0:0:0:0:
257,212,51431,1,0,0:0:0:0:
257,212,51602,1,8,0:0:0:0:
240,222,51688,1,8,0:0:0:0:
253,222,51773,1,8,0:0:0:0:
243,222,51945,1,8,0:0:0:0:
257,212,52116,1,0,0:0:0:0:
263,210,52459,1,0,0:0:0:0:
257,212,52631,1,8,0:0:0:0:
257,212,52802,1,8,0:0:0:0:
262,219,52888,1,8,0:0:0:0:
262,219,52973,1,8,0:0:0:0:
262,219,53145,1,0,0:0:0:0:
263,225,53488,1,0,0:0:0:0:
242,242,53831,1,0,0:0:0:0:
263,224,54002,1,8,0:0:0:0:
263,224,54173,1,0,0:0:0:0:
251,186,54345,5,8,0:0:0:0:
284,232,54430,1,8,0:0:0:0:
268,219,54516,1,8,0:0:0:0:
251,186,54688,1,8,0:0:0:0:
254,209,54859,1,0,0:0:0:0:
247,206,55373,1,0,0:0:0:0:
247,206,55631,1,8,0:0:0:0:
242,217,55888,1,0,0:0:0:0:
242,217,56059,1,0,0:0:0:0:
240,198,56231,5,8,0:0:0:0:
256,186,56316,1,8,0:0:0:0:
256,186,56402,1,8,0:0:0:0:
267,205,56573,1,8,0:0:0:0:
267,205,56745,1,0,0:0:0:0:
268,236,56916,1,8,0:0:0:0:
257,234,57431,1,8,0:0:0:0:
244,129,57602,1,0,0:0:0:0:
217,201,57688,1,0,0:0:0:0:
235,209,57773,1,0,0:0:0:0:
252,211,57945,1,8,0:0:0:0:
252,211,58116,1,0,0:0:0:0:
248,220,58288,1,8,0:0:0:0:
248,220,58373,1,8,0:0:0:0:
265,201,58459,1,8,0:0:0:0:
257,210,58631,1,0,0:0:0:0:
256,186,58973,1,8,0:0:0:0:
256,186,59059,1,8,0:0:0:0:
256,186,59145,1,8,0:0:0:0:
267,205,59316,1,8,0:0:0:0:
267,205,59488,1,0,0:0:0:0:
237,247,59659,1,8,0:0:0:0:
279,201,60002,1,0,0:0:0:0:
257,234,60173,1,8,0:0:0:0:
249,229,60345,1,0,0:0:0:0:
274,222,60431,1,0,0:0:0:0:
241,203,60516,1,0,0:0:0:0:
252,211,60688,1,8,0:0:0:0:
252,211,60859,1,0,0:0:0:0:
248,220,61031,1,8,0:0:0:0:
265,228,61116,1,8,0:0:0:0:
248,220,61202,1,8,0:0:0:0:
257,210,61373,1,12,0:0:0:0:
256,186,61716,5,8,0:0:0:0:
256,186,61802,1,8,0:0:0:0:
256,186,61888,1,8,0:0:0:0:
267,205,62059,1,8,0:0:0:0:
267,205,62231,1,0,0:0:0:0:
261,253,62402,1,8,0:0:0:0:
257,234,62916,1,8,0:0:0:0:
264,219,63088,1,0,0:0:0:0:
250,228,63173,1,0,0:0:0:0:
268,236,63259,1,0,0:0:0:0:
252,211,63431,1,8,0:0:0:0:
252,211,63602,1,0,0:0:0:0:
248,220,63773,1,8,0:0:0:0:
248,220,63859,1,8,0:0:0:0:
248,220,63945,1,8,0:0:0:0:
257,210,64116,1,0,0:0:0:0:
256,186,64459,1,8,0:0:0:0:
256,186,64545,1,8,0:0:0:0:
267,205,64631,1,8,0:0:0:0:
267,205,64802,1,8,0:0:0:0:
267,205,64973,1,0,0:0:0:0:
240,242,65145,1,8,0:0:0:0:
261,235,65488,1,0,0:0:0:0:
257,234,65659,1,8,0:0:0:0:
248,197,65831,1,0,0:0:0:0:
267,205,65916,1,0,0:0:0:0:
241,203,66002,1,0,0:0:0:0:
252,211,66173,1,0,0:0:0:0:
246,206,66345,1,8,0:0:0:0:
248,220,66516,1,8,0:0:0:0:
252,206,66602,1,8,0:0:0:0:
252,206,66688,1,8,0:0:0:0:
252,206,66859,1,0,0:0:0:0:
274,247,67202,5,4,0:0:0:0:
259,232,67459,1,8,0:0:0:0:
259,232,67716,1,0,0:0:0:0:
264,227,67973,1,8,0:0:0:0:
269,233,68059,1,8,0:0:0:0:
259,232,68231,1,0,0:0:0:0:
259,232,68402,1,8,0:0:0:0:
259,232,68573,1,0,0:0:0:0:
259,232,68831,1,0,0:0:0:0:
259,232,68916,1,0,0:0:0:0:
259,232,69088,1,8,0:0:0:0:
259,232,69345,1,0,0:0:0:0:
259,232,69602,1,8,0:0:0:0:
259,232,69773,1,8,0:0:0:0:
259,232,69945,1,0,0:0:0:0:
272,242,70202,1,8,0:0:0:0:
273,242,70459,1,0,0:0:0:0:
263,236,70716,1,8,0:0:0:0:
269,231,70802,1,8,0:0:0:0:
268,224,70973,1,0,0:0:0:0:
268,225,71145,1,8,0:0:0:0:
256,232,71316,1,8,0:0:0:0:
257,233,71831,1,8,0:0:0:0:
259,233,72002,1,0,0:0:0:0:
259,233,72088,1,0,0:0:0:0:
259,233,72173,1,0,0:0:0:0:
256,232,72345,1,8,0:0:0:0:
262,236,72688,1,0,0:0:0:0:
259,233,72945,1,8,0:0:0:0:
259,233,73031,1,8,0:0:0:0:
259,233,73202,1,8,0:0:0:0:
256,232,73373,1,0,0:0:0:0:
257,233,73631,1,8,0:0:0:0:
254,232,73716,1,8,0:0:0:0:
257,233,73888,1,8,0:0:0:0:
259,233,74059,1,0,0:0:0:0:
259,233,74316,1,8,0:0:0:0:
259,233,74402,1,8,0:0:0:0:
254,232,74573,1,8,0:0:0:0:
257,233,74745,1,0,0:0:0:0:
259,233,75002,1,8,0:0:0:0:
259,233,75088,1,8,0:0:0:0:
256,232,75259,1,8,0:0:0:0:
225,160,75431,2,0,L|300:159,10,57.8412357986201
256,192,76802,12,0,77659,0:0:0:0:
299,197,77831,5,8,0:0:0:0:
299,197,77916,1,8,0:0:0:0:
299,197,78002,1,8,0:0:0:0:
260,214,78173,5,0,0:0:0:0:
251,217,78516,1,0,0:0:0:0:
244,222,78688,1,8,0:0:0:0:
251,217,78859,1,0,0:0:0:0:
264,218,78945,1,0,0:0:0:0:
262,207,79116,1,8,0:0:0:0:
198,209,79373,1,8,0:0:0:0:
256,205,79545,1,0,0:0:0:0:
237,204,79888,1,0,0:0:0:0:
256,205,80059,1,8,0:0:0:0:
256,205,80231,1,8,0:0:0:0:
269,198,80316,1,8,0:0:0:0:
269,198,80402,1,8,0:0:0:0:
269,198,80573,1,0,0:0:0:0:
267,205,80916,1,0,0:0:0:0:
267,205,81259,1,0,0:0:0:0:
271,225,81431,1,8,0:0:0:0:
260,208,81602,1,0,0:0:0:0:
266,212,81688,1,0,0:0:0:0:
260,208,81859,1,8,0:0:0:0:
257,217,82116,1,8,0:0:0:0:
260,208,82288,1,0,0:0:0:0:
260,208,82631,1,0,0:0:0:0:
260,208,82802,1,8,0:0:0:0:
260,208,82973,1,0,0:0:0:0:
260,208,83059,1,0,0:0:0:0:
257,212,83145,1,0,0:0:0:0:
257,212,83316,1,12,0:0:0:0:
257,212,83659,1,0,0:0:0:0:
257,212,84002,1,0,0:0:0:0:
257,212,84173,1,8,0:0:0:0:
257,212,84345,1,0,0:0:0:0:
257,212,84516,1,8,0:0:0:0:
254,206,84602,1,8,0:0:0:0:
231,230,84688,1,8,0:0:0:0:
252,186,84859,1,8,0:0:0:0:
257,212,85031,1,0,0:0:0:0:
237,204,85373,1,0,0:0:0:0:
257,212,85545,1,8,0:0:0:0:
257,212,85716,1,8,0:0:0:0:
262,219,85802,1,8,0:0:0:0:
262,219,85888,1,8,0:0:0:0:
262,219,86059,1,0,0:0:0:0:
263,225,86402,1,0,0:0:0:0:
263,225,86745,1,0,0:0:0:0:
263,224,86916,1,8,0:0:0:0:
263,224,87088,1,0,0:0:0:0:
258,214,87259,1,8,0:0:0:0:
251,186,87345,5,8,0:0:0:0:
290,208,87431,1,8,0:0:0:0:
251,186,87602,1,8,0:0:0:0:
254,209,87773,1,0,0:0:0:0:
265,220,88288,1,0,0:0:0:0:
265,220,88545,1,8,0:0:0:0:
265,220,88802,1,0,0:0:0:0:
265,220,88973,1,0,0:0:0:0:
240,198,89145,5,8,0:0:0:0:
256,186,89231,1,8,0:0:0:0:
256,186,89316,1,8,0:0:0:0:
267,205,89488,1,8,0:0:0:0:
267,205,89659,1,0,0:0:0:0:
268,236,89831,1,8,0:0:0:0:
257,234,90345,1,8,0:0:0:0:
244,129,90516,1,0,0:0:0:0:
217,201,90602,1,0,0:0:0:0:
235,209,90688,1,0,0:0:0:0:
252,211,90859,1,8,0:0:0:0:
252,211,91031,1,0,0:0:0:0:
248,220,91202,1,8,0:0:0:0:
248,220,91288,1,8,0:0:0:0:
248,220,91373,1,8,0:0:0:0:
257,210,91545,1,0,0:0:0:0:
256,186,91888,1,8,0:0:0:0:
256,186,91973,1,8,0:0:0:0:
256,186,92059,1,8,0:0:0:0:
267,205,92231,1,8,0:0:0:0:
267,205,92402,1,0,0:0:0:0:
237,247,92573,1,8,0:0:0:0:
260,216,92659,1,8,0:0:0:0:
260,216,92745,1,8,0:0:0:0:
249,218,92916,1,0,0:0:0:0:
257,234,93088,1,8,0:0:0:0:
249,229,93259,1,0,0:0:0:0:
274,222,93345,1,0,0:0:0:0:
241,203,93431,1,0,0:0:0:0:
252,211,93602,1,8,0:0:0:0:
252,211,93773,1,0,0:0:0:0:
248,220,93945,1,8,0:0:0:0:
284,207,94031,1,8,0:0:0:0:
248,220,94116,1,8,0:0:0:0:
257,210,94288,1,12,0:0:0:0:
256,186,94631,5,8,0:0:0:0:
256,186,94716,1,8,0:0:0:0:
256,186,94802,1,8,0:0:0:0:
267,205,94973,1,8,0:0:0:0:
267,205,95145,1,0,0:0:0:0:
261,253,95316,1,8,0:0:0:0:
257,234,95831,1,8,0:0:0:0:
264,219,96002,1,0,0:0:0:0:
250,228,96088,1,0,0:0:0:0:
268,236,96173,1,0,0:0:0:0:
252,211,96345,1,8,0:0:0:0:
252,211,96516,1,0,0:0:0:0:
248,220,96688,1,8,0:0:0:0:
248,220,96773,1,8,0:0:0:0:
248,220,96859,1,8,0:0:0:0:
257,210,97031,1,0,0:0:0:0:
256,186,97373,1,8,0:0:0:0:
256,186,97459,1,8,0:0:0:0:
267,205,97545,1,8,0:0:0:0:
267,205,97716,1,8,0:0:0:0:
267,205,97888,1,0,0:0:0:0:
240,242,98059,1,8,0:0:0:0:
262,206,98145,1,8,0:0:0:0:
260,211,98231,1,8,0:0:0:0:
262,206,98402,1,0,0:0:0:0:
257,234,98573,1,8,0:0:0:0:
248,197,98745,1,0,0:0:0:0:
267,205,98831,1,0,0:0:0:0:
241,203,98916,1,0,0:0:0:0:
252,211,99088,1,0,0:0:0:0:
246,206,99259,1,8,0:0:0:0:
248,220,99431,1,8,0:0:0:0:
252,206,99516,1,8,0:0:0:0:
252,206,99602,1,8,0:0:0:0:
244,209,99773,5,0,0:0:0:0:
274,247,100116,5,4,0:0:0:0:
