osu file format v14

[General]
AudioFilename: yes.mp3
AudioLeadIn: 0
PreviewTime: 31545
Countdown: 0
SampleSet: Normal
StackLeniency: 0.7
Mode: 1
LetterboxInBreaks: 0
WidescreenStoryboard: 1

[Editor]
DistanceSpacing: 0.8
BeatDivisor: 4
GridSize: 32
TimelineZoom: 2.3

[Metadata]
Title:Arrogation (Cut Ver.)
TitleUnicode:Arrogation (Cut Ver.)
Artist:A?
ArtistUnicode:あ?
Creator:ZTH
Version:Kantan
Source:
Tags:aquestion hardpsy hardstyle ocutechno techno electronic instrumental 人體解剖 市大テクノ部
BeatmapID:2689210
BeatmapSetID:1291023

[Difficulty]
HPDrainRate:8
CircleSize:5
OverallDifficulty:3
ApproachRate:5
SliderMultiplier:1.4
SliderTickRate:3

[Events]
//Background and Video events
0,0,"b.jpg",0,-90
//Break Periods
//Storyboard Layer 0 (Background)
//Storyboard Layer 1 (Fail)
//Storyboard Layer 2 (Pass)
//Storyboard Layer 3 (Foreground)
//Storyboard Layer 4 (Overlay)
//Storyboard Sound Samples

[TimingPoints]
17831,342.857142857143,4,1,0,100,1,0
56231,-100,4,1,0,100,0,1
61373,-100,4,1,0,100,0,0
61716,-100,4,1,0,100,0,1
67202,-100,4,1,0,100,0,0
89145,-100,4,1,0,100,0,1
94288,-100,4,1,0,100,0,0
94631,-100,4,1,0,100,0,1
100116,-100,4,1,0,100,0,0

[HitObjects]
250,208,17831,5,8,0:0:0:0:
224,224,18173,1,8,0:0:0:0:
250,208,18516,1,8,0:0:0:0:
250,208,19202,1,8,0:0:0:0:
256,224,19545,1,8,0:0:0:0:
250,208,19888,1,8,0:0:0:0:
250,208,20573,1,8,0:0:0:0:
250,208,20916,1,8,0:0:0:0:
251,232,21259,1,8,0:0:0:0:
251,232,21602,1,8,0:0:0:0:
251,232,21945,1,4,0:0:0:0:
274,247,23316,5,4,0:0:0:0:
259,232,23831,1,0,0:0:0:0:
256,256,24345,1,8,0:0:0:0:
259,232,24688,1,0,0:0:0:0:
259,232,25202,1,8,0:0:0:0:
259,232,26059,1,0,0:0:0:0:
273,242,26573,1,0,0:0:0:0:
256,256,27088,1,8,0:0:0:0:
256,232,27431,1,8,0:0:0:0:
256,232,28459,1,8,0:0:0:0:
274,247,28802,5,0,0:0:0:0:
259,232,29316,1,0,0:0:0:0:
256,256,29831,1,8,0:0:0:0:
259,232,30173,1,0,0:0:0:0:
256,256,30688,5,8,0:0:0:0:
259,232,31545,1,0,0:0:0:0:
273,242,32059,1,0,0:0:0:0:
256,256,32573,1,8,0:0:0:0:
256,232,32916,1,8,0:0:0:0:
256,232,33945,1,8,0:0:0:0:
274,247,34288,5,4,0:0:0:0:
259,232,34802,1,0,0:0:0:0:
259,232,35316,1,8,0:0:0:0:
259,232,35659,1,0,0:0:0:0:
259,232,36173,1,8,0:0:0:0:
259,232,36688,1,8,0:0:0:0:
259,232,37031,1,0,0:0:0:0:
273,242,37545,1,0,0:0:0:0:
268,224,38059,1,0,0:0:0:0:
256,232,38402,1,8,0:0:0:0:
288,256,39431,1,8,0:0:0:0:
262,236,39773,1,0,0:0:0:0:
256,232,40459,1,0,0:0:0:0:
262,236,40802,1,8,0:0:0:0:
259,233,41145,1,0,0:0:0:0:
257,233,41831,1,0,0:0:0:0:
256,256,42173,1,8,0:0:0:0:
256,192,42516,12,0,43888,0:0:0:0:
299,197,44916,5,8,0:0:0:0:
260,214,45258,5,0,0:0:0:0:
256,224,45602,1,0,0:0:0:0:
256,192,45944,1,0,0:0:0:0:
224,224,46288,1,8,0:0:0:0:
256,205,46630,1,0,0:0:0:0:
256,205,47316,1,8,0:0:0:0:
256,224,48001,1,0,0:0:0:0:
248,225,48345,1,0,0:0:0:0:
256,192,48687,1,0,0:0:0:0:
256,224,49031,1,8,0:0:0:0:
256,192,49373,1,0,0:0:0:0:
257,212,50401,1,12,0:0:0:0:
257,212,50744,1,0,0:0:0:0:
256,220,51088,1,0,0:0:0:0:
256,224,51430,1,8,0:0:0:0:
256,224,51773,1,8,0:0:0:0:
257,212,52116,1,0,0:0:0:0:
257,212,52801,1,8,0:0:0:0:
263,225,53487,1,0,0:0:0:0:
237,227,53831,5,0,0:0:0:0:
256,192,54173,1,8,0:0:0:0:
263,225,54516,1,8,0:0:0:0:
254,209,54858,1,0,0:0:0:0:
240,198,56231,5,8,0:0:0:0:
267,205,56573,1,0,0:0:0:0:
268,236,56916,1,8,0:0:0:0:
244,129,57602,1,0,0:0:0:0:
252,211,57945,1,8,0:0:0:0:
248,220,58288,1,8,0:0:0:0:
256,186,58973,1,8,0:0:0:0:
267,205,59316,1,8,0:0:0:0:
237,247,59659,1,8,0:0:0:0:
252,211,60688,1,8,0:0:0:0:
265,228,61031,1,0,0:0:0:0:
257,210,61373,1,12,0:0:0:0:
256,186,61716,5,8,0:0:0:0:
267,205,62059,1,0,0:0:0:0:
261,253,62402,1,8,0:0:0:0:
264,219,63088,1,0,0:0:0:0:
252,211,63431,1,8,0:0:0:0:
248,220,63773,1,8,0:0:0:0:
256,186,64459,1,8,0:0:0:0:
267,205,64802,1,8,0:0:0:0:
240,242,65145,1,8,0:0:0:0:
252,211,66173,1,0,0:0:0:0:
248,220,66516,1,8,0:0:0:0:
274,247,67202,5,4,0:0:0:0:
259,232,67716,1,0,0:0:0:0:
259,232,68231,1,8,0:0:0:0:
259,232,68573,1,0,0:0:0:0:
259,232,69088,1,8,0:0:0:0:
259,232,69602,1,8,0:0:0:0:
259,232,69945,1,0,0:0:0:0:
273,242,70459,1,0,0:0:0:0:
268,224,70973,1,0,0:0:0:0:
256,232,71316,1,8,0:0:0:0:
256,232,72345,1,8,0:0:0:0:
262,236,72688,1,0,0:0:0:0:
256,232,73373,1,0,0:0:0:0:
256,256,73716,1,8,0:0:0:0:
259,233,74059,1,0,0:0:0:0:
257,233,74745,1,0,0:0:0:0:
259,233,75088,1,8,0:0:0:0:
256,192,75431,12,0,76802,0:0:0:0:
299,197,77831,5,8,0:0:0:0:
260,214,78173,5,0,0:0:0:0:
224,224,78516,1,0,0:0:0:0:
256,192,78859,1,0,0:0:0:0:
224,224,79202,1,8,0:0:0:0:
256,205,79545,1,0,0:0:0:0:
256,205,80231,1,8,0:0:0:0:
256,224,80916,1,0,0:0:0:0:
224,224,81259,1,0,0:0:0:0:
256,192,81602,1,0,0:0:0:0:
224,224,81945,1,8,0:0:0:0:
256,192,82288,1,0,0:0:0:0:
257,212,83316,1,12,0:0:0:0:
257,212,83659,1,0,0:0:0:0:
256,224,84002,1,0,0:0:0:0:
256,224,84345,1,8,0:0:0:0:
224,224,84688,1,8,0:0:0:0:
257,212,85031,1,0,0:0:0:0:
257,212,85716,1,8,0:0:0:0:
263,225,86402,1,0,0:0:0:0:
256,224,86745,1,0,0:0:0:0:
256,192,87088,1,8,0:0:0:0:
160,192,87431,1,8,0:0:0:0:
254,209,87773,1,0,0:0:0:0:
240,198,89145,5,8,0:0:0:0:
267,205,89488,1,0,0:0:0:0:
268,236,89831,1,8,0:0:0:0:
256,224,90516,1,0,0:0:0:0:
252,211,90859,1,8,0:0:0:0:
248,220,91202,1,8,0:0:0:0:
257,210,91545,1,0,0:0:0:0:
256,186,91888,1,8,0:0:0:0:
267,205,92231,1,8,0:0:0:0:
237,247,92573,1,8,0:0:0:0:
252,211,93602,1,8,0:0:0:0:
248,220,93945,1,0,0:0:0:0:
257,210,94288,1,12,0:0:0:0:
256,186,94631,5,8,0:0:0:0:
267,205,94973,1,0,0:0:0:0:
261,253,95316,1,8,0:0:0:0:
256,256,96002,1,0,0:0:0:0:
252,211,96345,1,8,0:0:0:0:
248,220,96688,1,8,0:0:0:0:
257,210,97031,1,0,0:0:0:0:
256,186,97373,1,8,0:0:0:0:
267,205,97716,1,8,0:0:0:0:
240,242,98059,1,8,0:0:0:0:
252,211,99088,1,0,0:0:0:0:
248,220,99431,1,8,0:0:0:0:
274,247,100116,5,4,0:0:0:0:
