osu file format v14

[General]
AudioFilename: yes.mp3
AudioLeadIn: 0
PreviewTime: 31545
Countdown: 0
SampleSet: Normal
StackLeniency: 0.7
Mode: 1
LetterboxInBreaks: 0
WidescreenStoryboard: 0

[Editor]
DistanceSpacing: 0.8
BeatDivisor: 4
GridSize: 32
TimelineZoom: 2.3

[Metadata]
Title:Arrogation (Cut Ver.)
TitleUnicode:Arrogation (Cut Ver.)
Artist:A?
ArtistUnicode:あ?
Creator:ZTH
Version:Acquisition
Source:
Tags:aquestion hardpsy hardstyle ocutechno techno electronic instrumental 人體解剖 市大テクノ部
BeatmapID:2679859
BeatmapSetID:1291023

[Difficulty]
HPDrainRate:6
CircleSize:5
OverallDifficulty:7
ApproachRate:5
SliderMultiplier:1.4
SliderTickRate:3

[Events]
//Background and Video events
0,0,"b.jpg",0,-90
//Break Periods
//Storyboard Layer 0 (Background)
//Storyboard Layer 1 (Fail)
//Storyboard Layer 2 (Pass)
//Storyboard Layer 3 (Foreground)
//Storyboard Layer 4 (Overlay)
//Storyboard Sound Samples

[TimingPoints]
17831,342.857142857143,4,1,0,100,1,0
17996,-98.159509202454,4,1,0,100,0,0
18167,-96.3855421686747,4,1,0,100,0,0
18339,-94.6745562130178,4,1,0,100,0,0
18510,-93.0232558139535,4,1,0,100,0,0
18682,-91.4285714285714,4,1,0,100,0,0
18853,-89.8876404494382,4,1,0,100,0,0
19025,-88.3977900552486,4,1,0,100,0,0
19196,-86.9565217391304,4,1,0,100,0,0
19367,-85.5614973262032,4,1,0,100,0,0
19539,-84.2105263157895,4,1,0,100,0,0
19710,-82.9015544041451,4,1,0,100,0,0
19882,-81.6326530612245,4,1,0,100,0,0
20053,-80.4020100502513,4,1,0,100,0,0
20225,-79.2079207920792,4,1,0,100,0,0
20396,-78.0487804878049,4,1,0,100,0,0
20567,-76.9230769230769,4,1,0,100,0,0
20653,-75.8349618891399,4,1,0,100,0,0
20739,-74.7772013286413,4,1,0,100,0,0
20825,-73.748542544428,4,1,0,100,0,0
20910,-72.7478537564446,4,1,0,100,0,0
20996,-71.7739064527613,4,1,0,100,0,0
21082,-70.8256930116997,4,1,0,100,0,0
21167,-69.9022068126691,4,1,0,100,0,0
21253,-69.0024930600743,4,1,0,100,0,0
21339,-68.125645490491,4,1,0,100,0,0
21425,-67.2708485813923,4,1,0,100,0,0
21510,-66.4371926034145,4,1,0,100,0,0
21596,-65.6239459153687,4,1,0,100,0,0
21682,-64.830368100347,4,1,0,100,0,0
21767,-64.0557541283934,4,1,0,100,0,0
21853,-63.299432267392,4,1,0,100,0,0
21939,-62.5607621402287,4,1,0,100,0,0
23310,-100,4,1,0,100,0,0
34282,-93.4579439252336,4,1,0,100,0,0
39939,-91.3296223063469,4,1,0,100,0,0
40025,-90.3013627378651,4,1,0,100,0,0
40110,-89.2960790091707,4,1,0,100,0,0
40196,-88.3128535825875,4,1,0,100,0,0
40282,-87.3511209332594,4,1,0,100,0,0
40367,-86.4100346245009,4,1,0,100,0,0
40453,-85.4890830440953,4,1,0,100,0,0
40625,-83.7047732646954,4,1,0,100,0,0
40710,-82.8402268828134,4,1,0,100,0,0
40796,-81.993424127385,4,1,0,100,0,0
40882,-81.1636925584257,4,1,0,100,0,0
40967,-80.350650237637,4,1,0,100,0,0
41053,-79.5536720781726,4,1,0,100,0,0
41139,-78.7723486999805,4,1,0,100,0,0
41310,-77.2549165028862,4,1,0,100,0,0
41396,-76.5179438404203,4,1,0,100,0,0
41482,-75.7948415546735,4,1,0,100,0,0
41567,-75.0853344826395,4,1,0,100,0,0
41653,-74.3889321171239,4,1,0,100,0,0
41739,-73.7053833674958,4,1,0,100,0,0
41825,-73.034228952083,4,1,0,100,0,0
41996,-71.7279845297083,4,1,0,100,0,0
42082,-71.0922542856188,4,1,0,100,0,0
42167,-70.4676444287223,4,1,0,100,0,0
42253,-69.853963304316,4,1,0,100,0,0
42339,-69.2508306637138,4,1,0,100,0,0
42425,-68.6580239946062,4,1,0,100,0,0
42510,-68.0753267105117,4,1,0,100,0,0
42625,-66.5264732121177,4,1,0,100,0,0
42739,-65.0905637558817,4,1,0,100,0,0
42853,-63.7152895031609,4,1,0,100,0,0
42967,-62.3969670082277,4,1,0,100,0,0
43082,-61.1320556326159,4,1,0,100,0,0
43196,-59.9174098422734,4,1,0,100,0,0
43310,-58.7501263127716,4,1,0,100,0,0
43425,-57.6274214322143,4,1,0,100,0,0
43539,-56.5468213335324,4,1,0,100,0,0
43653,-55.5060318404801,4,1,0,100,0,0
43767,-54.5028333297906,4,1,0,100,0,0
43882,-53.535282695737,4,1,0,100,0,0
44910,-93.4579439252336,4,1,0,100,0,0
50396,-59.8802395209581,4,1,0,100,0,0
50739,-93.4579439252336,4,1,0,100,0,0
55110,-91.231386516366,4,1,0,100,0,0
55367,-89.1084521149,4,1,0,100,0,0
55625,-87.0820713689824,4,1,0,100,0,0
55882,-85.1458036742117,4,1,0,100,0,0
56053,-83.9021197870564,4,1,0,100,0,0
56225,-82.6446280991736,4,1,0,100,0,0
56231,-82.6446280991736,4,1,0,100,0,1
61367,-55.2486187845304,4,1,0,100,0,1
61373,-55.2486187845304,4,1,0,100,0,0
61710,-82.6446280991736,4,1,0,100,0,0
61716,-82.6446280991736,4,1,0,100,0,1
65910,-83.2466181061394,4,1,0,100,0,1
65996,-83.8574423480084,4,1,0,100,0,1
66082,-84.4772967265047,4,1,0,100,0,1
66167,-85.1063829787234,4,1,0,100,0,1
66253,-85.7449088960343,4,1,0,100,0,1
66339,-86.3930885529158,4,1,0,100,0,1
66425,-87.0511425462459,4,1,0,100,0,1
66510,-87.719298245614,4,1,0,100,0,1
66567,-88.1704369815027,4,1,0,100,0,1
66625,-88.6263186488386,4,1,0,100,0,1
66682,-89.086859688196,4,1,0,100,0,1
66739,-89.5522120739665,4,1,0,100,0,1
66796,-90.0225326399198,4,1,0,100,0,1
66853,-90.4977375565611,4,1,0,100,0,1
66939,-91.2200684150513,4,1,0,100,0,1
67025,-91.9540229885058,4,1,0,100,0,1
67110,-92.6998841251448,4,1,0,100,0,1
67196,-93.4579439252336,4,1,0,100,0,1
67202,-93.4579439252336,4,1,0,100,0,0
72767,-92.1163171159486,4,1,0,100,0,0
72853,-90.8125819015973,4,1,0,100,0,0
72939,-89.5453157502151,4,1,0,100,0,0
73025,-88.3128535825875,4,1,0,100,0,0
73110,-87.1139328281887,4,1,0,100,0,0
73196,-85.9471287642694,4,1,0,100,0,0
73282,-84.8110960053126,4,1,0,100,0,0
73367,-83.7047732646954,4,1,0,100,0,0
73453,-82.6268735643581,4,1,0,100,0,0
73539,-81.576448552997,4,1,0,100,0,0
73625,-80.5523312247418,4,1,0,100,0,0
73710,-79.5536720781726,4,1,0,100,0,0
73796,-78.5794717416433,4,1,0,100,0,0
73882,-77.6287822683441,4,1,0,100,0,0
73967,-76.7008803727049,4,1,0,100,0,0
74053,-75.7948415546735,4,1,0,100,0,0
74139,-74.9100143452678,4,1,0,100,0,0
74225,-74.0456076515769,4,1,0,100,0,0
74310,-73.2008690407173,4,1,0,100,0,0
74396,-72.375239562043,4,1,0,100,0,0
74482,-71.5679756210848,4,1,0,100,0,0
74567,-70.7785713628485,4,1,0,100,0,0
74653,-70.0063425746373,4,1,0,100,0,0
74739,-69.2508306637138,4,1,0,100,0,0
74825,-68.5114516891498,4,1,0,100,0,0
74910,-67.7876484125827,4,1,0,100,0,0
74996,-67.079023785551,4,1,0,100,0,0
75082,-66.3850171671654,4,1,0,100,0,0
75167,-65.7052671970396,4,1,0,100,0,0
75253,-65.0392967430922,4,1,0,100,0,0
75339,-64.3866495569876,4,1,0,100,0,0
75425,-63.6942675159236,4,1,0,100,0,0
75539,-62.0475569705156,4,1,0,100,0,0
75653,-60.4838831620732,4,1,0,100,0,0
75767,-58.9970501474926,4,1,0,100,0,0
75882,-57.5815628442298,4,1,0,100,0,0
75996,-56.2324379067363,4,1,0,100,0,0
76110,-54.9450549450549,4,1,0,100,0,0
76225,-53.7152992452463,4,1,0,100,0,0
76339,-52.5394137547134,4,1,0,100,0,0
76453,-51.413881748072,4,1,0,100,0,0
76567,-50.3355620242346,4,1,0,100,0,0
76682,-49.301569318253,4,1,0,100,0,0
76796,-48.3091787439614,4,1,0,100,0,0
77825,-93.4579439252336,4,1,0,100,0,0
83310,-56.4971751412429,4,1,0,100,0,0
83653,-93.4579439252336,4,1,0,100,0,0
88025,-91.231386516366,4,1,0,100,0,0
88282,-89.1084521149,4,1,0,100,0,0
88540,-87.0820713689824,4,1,0,100,0,0
88797,-85.1458036742117,4,1,0,100,0,0
88968,-83.9021197870564,4,1,0,100,0,0
89140,-82.6446280991736,4,1,0,100,0,0
89145,-82.6446280991736,4,1,0,100,0,1
94282,-52.3560209424084,4,1,0,100,0,1
94288,-52.3560209424084,4,1,0,100,0,0
94625,-82.6446280991736,4,1,0,100,0,0
94631,-82.6446280991736,4,1,0,100,0,1
100116,-82.6446280991736,4,1,0,100,0,0

[HitObjects]
250,208,17831,5,8,0:0:0:0:
250,208,18002,1,0,0:0:0:0:
250,208,18173,1,8,0:0:0:0:
250,208,18345,1,0,0:0:0:0:
250,208,18516,1,8,0:0:0:0:
250,208,18688,1,0,0:0:0:0:
250,208,18859,1,8,0:0:0:0:
250,208,19031,1,0,0:0:0:0:
250,208,19202,1,8,0:0:0:0:
250,208,19373,1,0,0:0:0:0:
250,208,19545,1,8,0:0:0:0:
250,208,19716,1,0,0:0:0:0:
250,208,19888,1,8,0:0:0:0:
250,208,20059,1,0,0:0:0:0:
250,208,20231,1,8,0:0:0:0:
250,208,20402,1,0,0:0:0:0:
250,208,20573,1,8,0:0:0:0:
251,232,20659,1,8,0:0:0:0:
250,208,20745,1,0,0:0:0:0:
251,232,20831,1,0,0:0:0:0:
250,208,20916,1,8,0:0:0:0:
251,232,21002,1,0,0:0:0:0:
251,232,21088,1,8,0:0:0:0:
251,232,21173,1,8,0:0:0:0:
251,232,21259,1,0,0:0:0:0:
251,232,21345,1,0,0:0:0:0:
251,232,21431,1,8,0:0:0:0:
251,232,21516,1,0,0:0:0:0:
251,232,21602,1,8,0:0:0:0:
251,232,21688,1,8,0:0:0:0:
251,232,21773,1,0,0:0:0:0:
251,232,21859,1,8,0:0:0:0:
251,232,21945,1,4,0:0:0:0:
274,247,23316,5,4,0:0:0:0:
248,243,23573,1,0,0:0:0:0:
259,232,23659,1,8,0:0:0:0:
259,232,23831,1,0,0:0:0:0:
259,232,23916,1,8,0:0:0:0:
259,232,24002,1,0,0:0:0:0:
259,232,24088,1,0,0:0:0:0:
274,247,24173,1,8,0:0:0:0:
259,232,24345,1,8,0:0:0:0:
259,232,24431,1,0,0:0:0:0:
259,232,24516,1,8,0:0:0:0:
259,232,24688,1,0,0:0:0:0:
274,234,24859,1,0,0:0:0:0:
259,232,24945,1,0,0:0:0:0:
259,232,25031,1,8,0:0:0:0:
259,232,25202,1,8,0:0:0:0:
259,232,25288,1,8,0:0:0:0:
259,232,25373,1,0,0:0:0:0:
283,250,25459,1,8,0:0:0:0:
259,232,25545,1,0,0:0:0:0:
259,232,25716,1,8,0:0:0:0:
276,245,25802,1,0,0:0:0:0:
259,232,25888,1,8,0:0:0:0:
259,232,26059,1,0,0:0:0:0:
272,242,26316,1,0,0:0:0:0:
273,242,26402,1,8,0:0:0:0:
273,242,26573,1,0,0:0:0:0:
273,242,26659,1,8,0:0:0:0:
255,221,26745,1,0,0:0:0:0:
275,222,26831,1,0,0:0:0:0:
263,236,26916,1,8,0:0:0:0:
268,224,27088,1,8,0:0:0:0:
268,224,27173,1,0,0:0:0:0:
268,225,27259,1,8,0:0:0:0:
256,232,27431,1,8,0:0:0:0:
256,232,27688,1,8,0:0:0:0:
256,232,27773,1,0,0:0:0:0:
257,233,27945,1,8,0:0:0:0:
279,253,28031,1,0,0:0:0:0:
259,233,28116,1,8,0:0:0:0:
259,233,28202,1,8,0:0:0:0:
259,233,28288,1,0,0:0:0:0:
256,232,28459,1,8,0:0:0:0:
274,247,28802,5,0,0:0:0:0:
259,232,29059,1,0,0:0:0:0:
259,232,29145,1,8,0:0:0:0:
259,232,29316,1,0,0:0:0:0:
259,232,29402,1,8,0:0:0:0:
259,232,29488,1,0,0:0:0:0:
259,232,29573,1,0,0:0:0:0:
274,247,29659,1,8,0:0:0:0:
259,232,29831,1,8,0:0:0:0:
259,232,29916,1,0,0:0:0:0:
259,232,30002,1,8,0:0:0:0:
259,232,30173,1,0,0:0:0:0:
256,251,30345,1,0,0:0:0:0:
259,232,30431,1,0,0:0:0:0:
259,232,30516,1,8,0:0:0:0:
259,232,30688,1,8,0:0:0:0:
259,232,30773,1,0,0:0:0:0:
259,232,30859,1,8,0:0:0:0:
283,250,30945,1,8,0:0:0:0:
259,232,31031,1,0,0:0:0:0:
259,232,31202,1,8,0:0:0:0:
276,245,31288,1,0,0:0:0:0:
259,232,31373,1,8,0:0:0:0:
259,232,31545,1,0,0:0:0:0:
272,242,31802,1,0,0:0:0:0:
273,242,31888,1,8,0:0:0:0:
273,242,32059,1,0,0:0:0:0:
273,242,32145,1,8,0:0:0:0:
255,221,32231,1,0,0:0:0:0:
275,222,32316,1,0,0:0:0:0:
263,236,32402,1,8,0:0:0:0:
268,224,32573,1,8,0:0:0:0:
268,224,32659,1,0,0:0:0:0:
268,225,32745,1,8,0:0:0:0:
256,232,32916,1,8,0:0:0:0:
256,232,33173,5,8,0:0:0:0:
256,232,33259,1,0,0:0:0:0:
257,233,33431,1,8,0:0:0:0:
279,253,33516,1,0,0:0:0:0:
259,233,33602,1,8,0:0:0:0:
259,233,33688,1,8,0:0:0:0:
259,233,33773,1,0,0:0:0:0:
256,232,33945,1,8,0:0:0:0:
274,247,34288,5,4,0:0:0:0:
259,232,34459,1,8,0:0:0:0:
259,232,34545,1,0,0:0:0:0:
259,232,34631,1,8,0:0:0:0:
259,232,34802,1,0,0:0:0:0:
259,232,34888,1,8,0:0:0:0:
259,232,34973,1,0,0:0:0:0:
259,232,35059,1,0,0:0:0:0:
274,247,35145,1,8,0:0:0:0:
274,223,35231,1,0,0:0:0:0:
259,232,35316,1,8,0:0:0:0:
259,232,35402,1,0,0:0:0:0:
259,232,35488,1,8,0:0:0:0:
259,232,35659,1,0,0:0:0:0:
259,232,35831,1,0,0:0:0:0:
259,232,35916,1,0,0:0:0:0:
259,232,36002,1,8,0:0:0:0:
259,232,36173,1,8,0:0:0:0:
259,232,36259,1,0,0:0:0:0:
259,232,36345,1,8,0:0:0:0:
283,250,36431,1,8,0:0:0:0:
259,232,36516,1,0,0:0:0:0:
275,220,36602,1,0,0:0:0:0:
259,232,36688,1,8,0:0:0:0:
276,245,36773,1,0,0:0:0:0:
259,232,36859,1,8,0:0:0:0:
259,232,37031,1,0,0:0:0:0:
272,242,37202,1,8,0:0:0:0:
272,242,37288,1,0,0:0:0:0:
273,242,37373,1,8,0:0:0:0:
273,242,37545,1,0,0:0:0:0:
273,242,37631,1,8,0:0:0:0:
255,221,37716,1,0,0:0:0:0:
275,222,37802,1,8,0:0:0:0:
263,236,37888,1,8,0:0:0:0:
275,220,37973,1,0,0:0:0:0:
268,224,38059,1,8,0:0:0:0:
268,224,38145,1,0,0:0:0:0:
268,225,38231,1,8,0:0:0:0:
256,232,38402,1,8,0:0:0:0:
253,230,38488,1,0,0:0:0:0:
256,232,38573,1,0,0:0:0:0:
256,232,38659,1,8,0:0:0:0:
256,232,38745,1,0,0:0:0:0:
257,233,38831,1,0,0:0:0:0:
257,233,38916,1,8,0:0:0:0:
259,233,39088,1,0,0:0:0:0:
259,233,39173,1,0,0:0:0:0:
259,233,39259,1,8,0:0:0:0:
256,232,39345,1,0,0:0:0:0:
256,232,39431,1,8,0:0:0:0:
259,242,39516,1,8,0:0:0:0:
253,239,39602,1,8,0:0:0:0:
254,217,39688,1,8,0:0:0:0:
262,236,39773,1,0,0:0:0:0:
257,233,39945,1,0,0:0:0:0:
254,232,40031,1,0,0:0:0:0:
259,233,40116,1,8,0:0:0:0:
259,233,40202,1,0,0:0:0:0:
259,233,40288,1,8,0:0:0:0:
256,232,40373,1,8,0:0:0:0:
256,232,40459,1,0,0:0:0:0:
256,232,40631,1,8,0:0:0:0:
254,232,40716,1,0,0:0:0:0:
254,232,40802,1,8,0:0:0:0:
257,233,40888,1,0,0:0:0:0:
257,233,40973,1,8,0:0:0:0:
254,232,41059,1,8,0:0:0:0:
259,233,41145,1,0,0:0:0:0:
259,233,41316,1,0,0:0:0:0:
256,232,41402,1,0,0:0:0:0:
259,233,41488,1,8,0:0:0:0:
256,232,41573,1,0,0:0:0:0:
254,232,41659,1,8,0:0:0:0:
254,232,41745,1,8,0:0:0:0:
257,233,41831,1,0,0:0:0:0:
254,232,42002,1,8,0:0:0:0:
259,233,42088,1,0,0:0:0:0:
259,233,42173,1,8,0:0:0:0:
259,233,42259,1,0,0:0:0:0:
256,232,42345,1,8,0:0:0:0:
259,233,42431,1,8,0:0:0:0:
259,233,42516,1,0,0:0:0:0:
275,238,42631,1,8,0:0:0:0:
275,238,42745,1,8,0:0:0:0:
275,238,42859,1,0,0:0:0:0:
275,238,42973,1,8,0:0:0:0:
275,238,43088,1,8,0:0:0:0:
275,238,43202,1,0,0:0:0:0:
275,238,43316,1,8,0:0:0:0:
275,238,43431,1,8,0:0:0:0:
275,238,43545,1,0,0:0:0:0:
275,238,43659,1,8,0:0:0:0:
275,238,43773,1,8,0:0:0:0:
256,192,43888,12,0,44745,0:0:0:0:
299,197,44916,5,8,0:0:0:0:
260,214,45259,5,0,0:0:0:0:
251,217,45345,1,8,0:0:0:0:
251,217,45431,1,8,0:0:0:0:
251,217,45516,1,8,0:0:0:0:
251,217,45602,1,0,0:0:0:0:
251,217,45688,1,0,0:0:0:0:
251,217,45773,1,8,0:0:0:0:
251,217,45859,1,8,0:0:0:0:
251,217,45945,1,0,0:0:0:0:
251,217,46031,1,8,0:0:0:0:
256,205,46202,1,8,0:0:0:0:
256,205,46288,1,0,0:0:0:0:
263,189,46373,1,8,0:0:0:0:
263,189,46416,1,8,0:0:0:0:
263,189,46459,1,0,0:0:0:0:
256,205,46545,1,8,0:0:0:0:
256,205,46631,1,0,0:0:0:0:
256,205,46716,1,0,0:0:0:0:
256,205,46802,1,8,0:0:0:0:
256,205,46888,1,8,0:0:0:0:
256,205,46973,1,0,0:0:0:0:
256,205,47059,1,8,0:0:0:0:
256,205,47145,1,8,0:0:0:0:
256,205,47231,1,8,0:0:0:0:
256,205,47316,1,0,0:0:0:0:
269,198,47373,1,0,0:0:0:0:
269,198,47431,1,0,0:0:0:0:
269,198,47488,1,8,0:0:0:0:
269,198,47573,1,8,0:0:0:0:
269,198,47659,1,0,0:0:0:0:
263,196,47745,1,8,0:0:0:0:
277,197,47788,1,8,0:0:0:0:
263,196,47831,1,0,0:0:0:0:
267,205,47916,1,8,0:0:0:0:
267,205,48002,1,0,0:0:0:0:
267,205,48088,1,8,0:0:0:0:
267,205,48173,1,8,0:0:0:0:
267,205,48259,1,8,0:0:0:0:
267,205,48345,1,0,0:0:0:0:
267,205,48431,1,0,0:0:0:0:
260,208,48516,1,8,0:0:0:0:
260,208,48602,1,8,0:0:0:0:
260,208,48688,1,0,0:0:0:0:
260,208,48773,1,8,0:0:0:0:
260,208,48945,1,8,0:0:0:0:
260,208,49031,1,0,0:0:0:0:
255,186,49116,1,8,0:0:0:0:
255,186,49159,1,8,0:0:0:0:
255,186,49202,1,0,0:0:0:0:
260,208,49288,1,8,0:0:0:0:
260,208,49373,1,0,0:0:0:0:
260,208,49459,1,8,0:0:0:0:
260,208,49545,1,8,0:0:0:0:
260,208,49631,1,8,0:0:0:0:
260,208,49716,1,0,0:0:0:0:
260,208,49802,1,8,0:0:0:0:
260,208,49888,1,8,0:0:0:0:
260,208,49973,1,8,0:0:0:0:
260,208,50059,1,0,0:0:0:0:
260,208,50145,1,8,0:0:0:0:
257,212,50231,1,0,0:0:0:0:
257,212,50402,1,12,0:0:0:0:
257,212,50745,1,0,0:0:0:0:
257,212,50831,1,8,0:0:0:0:
257,212,50916,1,8,0:0:0:0:
257,212,51002,1,8,0:0:0:0:
257,212,51088,1,0,0:0:0:0:
257,212,51173,1,0,0:0:0:0:
257,212,51259,1,8,0:0:0:0:
257,212,51345,1,8,0:0:0:0:
257,212,51431,1,0,0:0:0:0:
252,186,51516,1,8,0:0:0:0:
252,186,51559,1,8,0:0:0:0:
252,186,51602,1,0,0:0:0:0:
257,212,51688,1,8,0:0:0:0:
257,212,51773,1,0,0:0:0:0:
252,186,51859,1,8,0:0:0:0:
252,186,51902,1,8,0:0:0:0:
252,186,51945,1,0,0:0:0:0:
257,212,52031,1,8,0:0:0:0:
257,212,52116,1,0,0:0:0:0:
257,212,52202,1,0,0:0:0:0:
257,212,52288,1,8,0:0:0:0:
257,212,52373,1,8,0:0:0:0:
257,212,52459,1,0,0:0:0:0:
257,212,52545,1,8,0:0:0:0:
257,212,52631,1,8,0:0:0:0:
257,212,52716,1,8,0:0:0:0:
257,212,52802,1,0,0:0:0:0:
262,219,52859,1,0,0:0:0:0:
262,219,52916,1,0,0:0:0:0:
262,219,52973,1,8,0:0:0:0:
262,219,53059,1,8,0:0:0:0:
262,219,53145,1,0,0:0:0:0:
258,225,53202,1,0,0:0:0:0:
258,222,53259,1,0,0:0:0:0:
259,225,53316,1,8,0:0:0:0:
259,225,53402,1,8,0:0:0:0:
263,225,53488,1,0,0:0:0:0:
263,225,53573,1,8,0:0:0:0:
263,225,53659,1,8,0:0:0:0:
263,225,53745,1,8,0:0:0:0:
263,225,53831,1,0,0:0:0:0:
263,224,53916,1,8,0:0:0:0:
263,224,54002,1,8,0:0:0:0:
263,224,54088,1,8,0:0:0:0:
263,224,54173,1,0,0:0:0:0:
251,186,54259,5,8,0:0:0:0:
251,186,54302,1,8,0:0:0:0:
251,186,54345,1,0,0:0:0:0:
263,224,54431,1,8,0:0:0:0:
263,225,54516,1,0,0:0:0:0:
251,186,54602,1,8,0:0:0:0:
251,186,54645,1,8,0:0:0:0:
251,186,54688,1,0,0:0:0:0:
263,225,54773,1,8,0:0:0:0:
254,209,54859,1,0,0:0:0:0:
254,209,55116,1,8,0:0:0:0:
247,206,55373,1,0,0:0:0:0:
247,206,55631,1,8,0:0:0:0:
247,206,55888,1,0,0:0:0:0:
247,206,56059,1,0,0:0:0:0:
240,198,56231,5,8,0:0:0:0:
256,186,56288,1,8,0:0:0:0:
256,186,56345,1,8,0:0:0:0:
256,186,56402,1,0,0:0:0:0:
267,205,56488,1,0,0:0:0:0:
267,205,56573,1,8,0:0:0:0:
267,205,56659,1,0,0:0:0:0:
267,205,56745,1,8,0:0:0:0:
267,205,56831,1,0,0:0:0:0:
268,236,56916,1,8,0:0:0:0:
264,217,56973,1,8,0:0:0:0:
260,196,57031,1,0,0:0:0:0:
256,176,57088,1,0,0:0:0:0:
257,234,57145,1,0,0:0:0:0:
268,236,57202,1,0,0:0:0:0:
257,234,57259,1,8,0:0:0:0:
257,234,57345,1,0,0:0:0:0:
257,234,57431,1,8,0:0:0:0:
257,234,57516,1,0,0:0:0:0:
244,129,57602,1,0,0:0:0:0:
217,201,57688,1,0,0:0:0:0:
235,209,57773,1,8,0:0:0:0:
264,219,57859,1,8,0:0:0:0:
252,211,57945,1,8,0:0:0:0:
252,211,58031,1,0,0:0:0:0:
252,211,58116,1,8,0:0:0:0:
257,210,58202,1,0,0:0:0:0:
248,220,58288,1,8,0:0:0:0:
248,220,58345,1,8,0:0:0:0:
248,220,58402,1,8,0:0:0:0:
248,220,58459,1,0,0:0:0:0:
267,213,58545,1,0,0:0:0:0:
257,210,58631,1,8,0:0:0:0:
252,187,58716,1,0,0:0:0:0:
240,200,58759,1,0,0:0:0:0:
252,187,58802,1,8,0:0:0:0:
254,199,58888,1,0,0:0:0:0:
256,186,58973,1,8,0:0:0:0:
256,186,59031,1,8,0:0:0:0:
256,186,59088,1,8,0:0:0:0:
256,186,59145,1,0,0:0:0:0:
237,200,59231,1,0,0:0:0:0:
267,205,59316,1,8,0:0:0:0:
267,205,59402,1,0,0:0:0:0:
267,205,59488,1,8,0:0:0:0:
267,205,59573,1,0,0:0:0:0:
237,247,59659,1,8,0:0:0:0:
233,228,59716,1,8,0:0:0:0:
229,207,59773,1,8,0:0:0:0:
225,187,59831,1,0,0:0:0:0:
257,234,59888,1,0,0:0:0:0:
231,184,59945,1,0,0:0:0:0:
257,234,60002,1,8,0:0:0:0:
257,234,60088,1,0,0:0:0:0:
257,234,60173,1,8,0:0:0:0:
257,234,60259,1,8,0:0:0:0:
249,229,60345,1,0,0:0:0:0:
274,222,60431,1,8,0:0:0:0:
209,189,60473,1,8,0:0:0:0:
241,203,60516,1,8,0:0:0:0:
264,219,60602,1,0,0:0:0:0:
252,211,60688,1,8,0:0:0:0:
252,211,60773,1,0,0:0:0:0:
228,191,60816,1,0,0:0:0:0:
252,211,60859,1,8,0:0:0:0:
257,210,60945,1,0,0:0:0:0:
248,220,61031,1,8,0:0:0:0:
248,220,61116,1,8,0:0:0:0:
248,220,61202,1,8,0:0:0:0:
249,184,61288,1,0,0:0:0:0:
257,210,61373,1,12,0:0:0:0:
256,186,61716,5,8,0:0:0:0:
256,186,61773,1,8,0:0:0:0:
256,186,61831,1,8,0:0:0:0:
256,186,61888,1,0,0:0:0:0:
267,205,61973,1,0,0:0:0:0:
267,205,62059,1,8,0:0:0:0:
267,205,62145,1,0,0:0:0:0:
267,205,62231,1,8,0:0:0:0:
267,205,62316,1,0,0:0:0:0:
261,253,62402,1,8,0:0:0:0:
257,234,62459,1,8,0:0:0:0:
253,213,62516,1,8,0:0:0:0:
249,193,62573,1,0,0:0:0:0:
257,234,62631,1,0,0:0:0:0:
268,236,62688,1,0,0:0:0:0:
257,234,62745,1,8,0:0:0:0:
257,234,62831,1,0,0:0:0:0:
257,234,62916,1,8,0:0:0:0:
257,234,63002,1,8,0:0:0:0:
264,219,63088,1,0,0:0:0:0:
250,228,63173,1,0,0:0:0:0:
268,236,63259,1,8,0:0:0:0:
264,219,63345,1,8,0:0:0:0:
252,211,63431,1,8,0:0:0:0:
252,211,63516,1,0,0:0:0:0:
252,211,63602,1,8,0:0:0:0:
257,210,63688,1,0,0:0:0:0:
248,220,63773,1,8,0:0:0:0:
248,220,63831,1,8,0:0:0:0:
248,220,63888,1,8,0:0:0:0:
248,220,63945,1,0,0:0:0:0:
257,210,64031,1,0,0:0:0:0:
257,210,64116,1,8,0:0:0:0:
252,187,64202,1,0,0:0:0:0:
187,179,64245,1,0,0:0:0:0:
252,187,64288,1,8,0:0:0:0:
254,199,64373,1,0,0:0:0:0:
256,186,64459,1,8,0:0:0:0:
256,186,64516,1,8,0:0:0:0:
256,186,64573,1,8,0:0:0:0:
267,205,64631,1,0,0:0:0:0:
232,202,64716,1,0,0:0:0:0:
267,205,64802,1,8,0:0:0:0:
267,205,64888,1,0,0:0:0:0:
267,205,64973,1,8,0:0:0:0:
267,205,65059,1,0,0:0:0:0:
240,242,65145,1,8,0:0:0:0:
236,223,65202,1,8,0:0:0:0:
232,202,65259,1,8,0:0:0:0:
228,182,65316,1,8,0:0:0:0:
257,234,65373,1,0,0:0:0:0:
231,184,65431,1,0,0:0:0:0:
257,234,65488,1,8,0:0:0:0:
257,234,65573,1,0,0:0:0:0:
257,234,65659,1,8,0:0:0:0:
257,234,65745,1,8,0:0:0:0:
248,197,65831,1,0,0:0:0:0:
267,205,65916,1,8,0:0:0:0:
241,203,66002,1,8,0:0:0:0:
264,219,66088,1,8,0:0:0:0:
252,211,66173,1,0,0:0:0:0:
252,211,66259,1,8,0:0:0:0:
228,191,66345,1,8,0:0:0:0:
257,210,66431,1,0,0:0:0:0:
248,220,66516,1,8,0:0:0:0:
252,206,66573,1,8,0:0:0:0:
252,206,66631,1,8,0:0:0:0:
252,206,66688,1,8,0:0:0:0:
252,206,66745,1,8,0:0:0:0:
252,206,66802,1,8,0:0:0:0:
252,206,66859,1,0,0:0:0:0:
237,219,66945,1,0,0:0:0:0:
237,219,67031,1,8,0:0:0:0:
237,219,67116,1,8,0:0:0:0:
238,219,67202,1,4,0:0:0:0:
242,235,67373,1,8,0:0:0:0:
259,232,67459,1,0,0:0:0:0:
259,232,67545,1,8,0:0:0:0:
259,232,67716,1,0,0:0:0:0:
259,232,67802,1,8,0:0:0:0:
259,232,67888,1,0,0:0:0:0:
259,232,67973,1,8,0:0:0:0:
274,247,68059,1,8,0:0:0:0:
252,248,68145,1,0,0:0:0:0:
259,232,68231,1,8,0:0:0:0:
259,232,68316,1,0,0:0:0:0:
259,232,68402,1,8,0:0:0:0:
259,232,68573,1,0,0:0:0:0:
259,232,68745,1,0,0:0:0:0:
259,232,68831,1,0,0:0:0:0:
259,232,68916,1,8,0:0:0:0:
259,232,69088,1,8,0:0:0:0:
259,232,69173,1,0,0:0:0:0:
259,232,69259,1,8,0:0:0:0:
283,250,69345,1,8,0:0:0:0:
259,232,69431,1,0,0:0:0:0:
259,232,69516,1,0,0:0:0:0:
259,232,69602,1,8,0:0:0:0:
276,245,69688,1,0,0:0:0:0:
259,232,69773,1,8,0:0:0:0:
259,232,69945,1,0,0:0:0:0:
274,234,70116,1,8,0:0:0:0:
272,242,70202,1,0,0:0:0:0:
273,242,70288,1,8,0:0:0:0:
273,242,70459,1,0,0:0:0:0:
273,242,70545,1,8,0:0:0:0:
255,221,70631,1,0,0:0:0:0:
275,222,70716,1,8,0:0:0:0:
263,236,70802,1,8,0:0:0:0:
263,236,70888,1,0,0:0:0:0:
268,224,70973,1,8,0:0:0:0:
268,224,71059,1,0,0:0:0:0:
268,225,71145,1,8,0:0:0:0:
256,232,71316,1,8,0:0:0:0:
253,230,71402,1,0,0:0:0:0:
256,232,71488,1,0,0:0:0:0:
256,232,71573,1,8,0:0:0:0:
256,232,71659,1,8,0:0:0:0:
257,233,71745,1,0,0:0:0:0:
257,233,71831,1,8,0:0:0:0:
259,233,72002,1,0,0:0:0:0:
259,233,72088,1,8,0:0:0:0:
259,233,72173,1,0,0:0:0:0:
256,232,72259,1,0,0:0:0:0:
256,232,72345,1,8,0:0:0:0:
259,242,72431,1,0,0:0:0:0:
253,239,72516,1,8,0:0:0:0:
262,236,72688,1,0,0:0:0:0:
257,221,72773,1,8,0:0:0:0:
257,233,72859,1,0,0:0:0:0:
254,232,72945,1,0,0:0:0:0:
259,233,73031,1,8,0:0:0:0:
259,233,73116,1,0,0:0:0:0:
259,233,73202,1,8,0:0:0:0:
256,232,73288,1,8,0:0:0:0:
256,232,73373,1,0,0:0:0:0:
257,206,73459,1,0,0:0:0:0:
256,232,73545,1,8,0:0:0:0:
254,232,73631,1,0,0:0:0:0:
254,232,73716,1,8,0:0:0:0:
257,233,73802,1,0,0:0:0:0:
257,233,73888,1,8,0:0:0:0:
254,232,73973,1,8,0:0:0:0:
259,233,74059,1,0,0:0:0:0:
259,233,74145,1,8,0:0:0:0:
259,233,74231,1,0,0:0:0:0:
256,232,74316,1,0,0:0:0:0:
259,233,74402,1,8,0:0:0:0:
256,232,74488,1,0,0:0:0:0:
254,232,74573,1,8,0:0:0:0:
254,232,74659,1,8,0:0:0:0:
257,233,74745,1,0,0:0:0:0:
257,233,74831,1,0,0:0:0:0:
254,232,74916,1,8,0:0:0:0:
259,233,75002,1,0,0:0:0:0:
259,233,75088,1,8,0:0:0:0:
259,233,75173,1,0,0:0:0:0:
256,232,75259,1,8,0:0:0:0:
259,233,75345,1,0,0:0:0:0:
259,233,75431,1,8,0:0:0:0:
275,238,75545,1,8,0:0:0:0:
275,238,75659,1,8,0:0:0:0:
275,238,75773,1,8,0:0:0:0:
275,238,75888,1,8,0:0:0:0:
275,238,76002,1,8,0:0:0:0:
275,238,76116,1,8,0:0:0:0:
275,238,76231,1,8,0:0:0:0:
275,238,76345,1,8,0:0:0:0:
275,238,76459,1,8,0:0:0:0:
275,238,76573,1,8,0:0:0:0:
275,238,76688,1,8,0:0:0:0:
256,192,76802,12,0,77659,0:0:0:0:
299,197,77831,5,8,0:0:0:0:
299,197,77873,1,8,0:0:0:0:
299,197,77916,1,8,0:0:0:0:
212,214,77959,1,8,0:0:0:0:
299,197,78002,1,0,0:0:0:0:
260,214,78173,5,0,0:0:0:0:
251,217,78259,1,8,0:0:0:0:
251,217,78345,1,8,0:0:0:0:
251,217,78431,1,8,0:0:0:0:
251,217,78516,1,0,0:0:0:0:
251,217,78602,1,0,0:0:0:0:
251,217,78688,1,8,0:0:0:0:
251,217,78773,1,8,0:0:0:0:
251,217,78859,1,0,0:0:0:0:
251,217,78945,1,8,0:0:0:0:
256,205,79116,1,8,0:0:0:0:
256,205,79202,1,0,0:0:0:0:
263,189,79288,1,8,0:0:0:0:
263,189,79331,1,8,0:0:0:0:
259,196,79373,1,0,0:0:0:0:
256,205,79459,1,8,0:0:0:0:
256,205,79545,1,0,0:0:0:0:
256,205,79631,1,0,0:0:0:0:
256,205,79716,1,8,0:0:0:0:
256,205,79802,1,8,0:0:0:0:
256,205,79888,1,0,0:0:0:0:
256,205,79973,1,8,0:0:0:0:
256,205,80059,1,8,0:0:0:0:
256,205,80145,1,8,0:0:0:0:
256,205,80231,1,0,0:0:0:0:
269,198,80288,1,0,0:0:0:0:
269,198,80345,1,0,0:0:0:0:
269,198,80402,1,8,0:0:0:0:
269,198,80459,1,8,0:0:0:0:
269,198,80516,1,8,0:0:0:0:
269,198,80573,1,0,0:0:0:0:
267,205,80659,1,8,0:0:0:0:
266,211,80702,1,8,0:0:0:0:
275,218,80745,1,0,0:0:0:0:
286,208,80831,1,8,0:0:0:0:
267,205,80916,1,0,0:0:0:0:
267,205,81002,1,8,0:0:0:0:
267,205,81088,1,8,0:0:0:0:
267,205,81173,1,8,0:0:0:0:
267,205,81259,1,0,0:0:0:0:
267,205,81345,1,0,0:0:0:0:
260,208,81431,1,8,0:0:0:0:
260,208,81516,1,8,0:0:0:0:
260,208,81602,1,0,0:0:0:0:
260,208,81688,1,8,0:0:0:0:
260,208,81859,1,8,0:0:0:0:
260,208,81945,1,0,0:0:0:0:
255,186,82031,1,8,0:0:0:0:
255,186,82073,1,8,0:0:0:0:
255,186,82116,1,0,0:0:0:0:
260,208,82202,1,8,0:0:0:0:
260,208,82288,1,0,0:0:0:0:
260,208,82373,1,8,0:0:0:0:
260,208,82459,1,8,0:0:0:0:
260,208,82545,1,8,0:0:0:0:
260,208,82631,1,0,0:0:0:0:
260,208,82716,1,8,0:0:0:0:
260,208,82802,1,8,0:0:0:0:
260,208,82888,1,8,0:0:0:0:
260,208,82973,1,0,0:0:0:0:
260,208,83059,1,8,0:0:0:0:
257,212,83145,1,0,0:0:0:0:
257,212,83316,1,12,0:0:0:0:
257,212,83659,1,0,0:0:0:0:
257,212,83745,1,8,0:0:0:0:
257,212,83831,1,8,0:0:0:0:
257,212,83916,1,8,0:0:0:0:
257,212,84002,1,0,0:0:0:0:
257,212,84088,1,0,0:0:0:0:
257,212,84173,1,8,0:0:0:0:
257,212,84259,1,8,0:0:0:0:
257,212,84345,1,0,0:0:0:0:
252,186,84431,1,8,0:0:0:0:
252,186,84473,1,8,0:0:0:0:
252,186,84516,1,0,0:0:0:0:
257,212,84602,1,8,0:0:0:0:
257,212,84688,1,0,0:0:0:0:
252,186,84773,1,8,0:0:0:0:
252,186,84816,1,8,0:0:0:0:
252,186,84859,1,0,0:0:0:0:
257,212,84945,1,8,0:0:0:0:
257,212,85031,1,0,0:0:0:0:
257,212,85116,1,0,0:0:0:0:
257,212,85202,1,8,0:0:0:0:
257,212,85288,1,8,0:0:0:0:
257,212,85373,1,0,0:0:0:0:
257,212,85459,1,8,0:0:0:0:
257,212,85545,1,8,0:0:0:0:
257,212,85631,1,8,0:0:0:0:
257,212,85716,1,0,0:0:0:0:
262,219,85773,1,0,0:0:0:0:
262,219,85831,1,0,0:0:0:0:
262,219,85888,1,8,0:0:0:0:
262,219,85945,1,8,0:0:0:0:
262,219,86002,1,8,0:0:0:0:
262,219,86059,1,0,0:0:0:0:
258,225,86116,1,0,0:0:0:0:
248,208,86173,1,0,0:0:0:0:
259,225,86231,1,8,0:0:0:0:
257,212,86316,1,8,0:0:0:0:
263,225,86402,1,0,0:0:0:0:
263,225,86488,1,8,0:0:0:0:
263,225,86573,1,8,0:0:0:0:
263,225,86659,1,8,0:0:0:0:
263,225,86745,1,0,0:0:0:0:
263,224,86831,1,8,0:0:0:0:
263,224,86916,1,8,0:0:0:0:
263,224,87002,1,8,0:0:0:0:
263,224,87088,1,0,0:0:0:0:
251,186,87173,5,8,0:0:0:0:
251,186,87216,1,8,0:0:0:0:
251,186,87259,1,0,0:0:0:0:
263,224,87345,1,8,0:0:0:0:
263,225,87431,1,0,0:0:0:0:
251,186,87516,1,8,0:0:0:0:
251,186,87559,1,8,0:0:0:0:
251,186,87602,1,0,0:0:0:0:
263,225,87688,1,8,0:0:0:0:
254,209,87773,1,0,0:0:0:0:
254,209,88031,1,8,0:0:0:0:
247,206,88288,1,0,0:0:0:0:
247,206,88545,1,8,0:0:0:0:
247,206,88802,1,0,0:0:0:0:
247,206,88973,1,0,0:0:0:0:
240,198,89145,5,8,0:0:0:0:
256,186,89202,1,8,0:0:0:0:
256,186,89259,1,0,0:0:0:0:
256,186,89316,1,0,0:0:0:0:
267,205,89373,1,0,0:0:0:0:
265,203,89431,1,0,0:0:0:0:
267,205,89488,1,8,0:0:0:0:
267,205,89573,1,0,0:0:0:0:
267,205,89659,1,8,0:0:0:0:
267,205,89745,1,0,0:0:0:0:
228,229,89831,1,8,0:0:0:0:
224,210,89888,1,8,0:0:0:0:
220,189,89945,1,8,0:0:0:0:
216,169,90002,1,0,0:0:0:0:
257,234,90059,1,0,0:0:0:0:
268,236,90116,1,0,0:0:0:0:
257,234,90173,1,8,0:0:0:0:
257,234,90259,1,0,0:0:0:0:
257,234,90345,1,8,0:0:0:0:
257,234,90431,1,0,0:0:0:0:
244,228,90516,1,0,0:0:0:0:
244,228,90602,1,0,0:0:0:0:
262,236,90688,1,8,0:0:0:0:
264,219,90773,1,8,0:0:0:0:
252,211,90859,1,8,0:0:0:0:
252,211,90945,1,0,0:0:0:0:
252,211,91031,1,8,0:0:0:0:
257,210,91116,1,0,0:0:0:0:
248,220,91202,1,8,0:0:0:0:
248,220,91259,1,8,0:0:0:0:
248,220,91316,1,8,0:0:0:0:
248,220,91373,1,8,0:0:0:0:
257,210,91431,1,0,0:0:0:0:
264,187,91488,1,0,0:0:0:0:
257,210,91545,1,8,0:0:0:0:
252,187,91631,1,0,0:0:0:0:
240,200,91673,1,0,0:0:0:0:
252,187,91716,1,8,0:0:0:0:
254,199,91802,1,0,0:0:0:0:
256,186,91888,1,8,0:0:0:0:
256,186,91945,1,8,0:0:0:0:
256,186,92002,1,0,0:0:0:0:
256,186,92059,1,0,0:0:0:0:
267,205,92116,1,0,0:0:0:0:
237,200,92173,1,0,0:0:0:0:
267,205,92231,1,8,0:0:0:0:
267,205,92316,1,0,0:0:0:0:
267,205,92402,1,8,0:0:0:0:
267,205,92488,1,0,0:0:0:0:
245,240,92573,1,8,0:0:0:0:
241,221,92631,1,8,0:0:0:0:
237,200,92688,1,8,0:0:0:0:
233,180,92745,1,0,0:0:0:0:
257,234,92802,1,0,0:0:0:0:
231,184,92859,1,0,0:0:0:0:
257,234,92916,1,8,0:0:0:0:
257,234,93002,1,0,0:0:0:0:
257,234,93088,1,8,0:0:0:0:
257,234,93173,1,8,0:0:0:0:
239,187,93259,1,0,0:0:0:0:
228,191,93345,1,8,0:0:0:0:
209,189,93388,1,8,0:0:0:0:
241,203,93431,1,8,0:0:0:0:
264,219,93516,1,0,0:0:0:0:
252,211,93602,1,8,0:0:0:0:
252,211,93688,1,0,0:0:0:0:
228,191,93731,1,0,0:0:0:0:
252,211,93773,1,8,0:0:0:0:
257,210,93859,1,0,0:0:0:0:
248,220,93945,1,8,0:0:0:0:
248,220,94031,1,8,0:0:0:0:
248,220,94116,1,8,0:0:0:0:
257,210,94202,1,0,0:0:0:0:
257,210,94288,1,12,0:0:0:0:
256,186,94631,5,8,0:0:0:0:
256,186,94688,1,8,0:0:0:0:
256,186,94745,1,0,0:0:0:0:
256,186,94802,1,0,0:0:0:0:
267,205,94859,1,0,0:0:0:0:
265,203,94916,1,0,0:0:0:0:
267,205,94973,1,8,0:0:0:0:
267,205,95059,1,0,0:0:0:0:
267,205,95145,1,8,0:0:0:0:
267,205,95231,1,0,0:0:0:0:
268,246,95316,1,8,0:0:0:0:
264,227,95373,1,8,0:0:0:0:
260,206,95431,1,8,0:0:0:0:
256,186,95488,1,0,0:0:0:0:
257,234,95545,1,0,0:0:0:0:
268,236,95602,1,0,0:0:0:0:
257,234,95659,1,8,0:0:0:0:
257,234,95745,1,0,0:0:0:0:
257,234,95831,1,8,0:0:0:0:
257,234,95916,1,8,0:0:0:0:
251,190,96002,1,0,0:0:0:0:
246,211,96088,1,0,0:0:0:0:
264,219,96173,1,8,0:0:0:0:
264,219,96259,1,8,0:0:0:0:
252,211,96345,1,8,0:0:0:0:
252,211,96431,1,0,0:0:0:0:
252,211,96516,1,8,0:0:0:0:
257,210,96602,1,0,0:0:0:0:
248,220,96688,1,8,0:0:0:0:
248,220,96745,1,8,0:0:0:0:
248,220,96802,1,8,0:0:0:0:
248,220,96859,1,8,0:0:0:0:
257,210,96916,1,0,0:0:0:0:
264,187,96973,1,0,0:0:0:0:
257,210,97031,1,8,0:0:0:0:
252,187,97116,1,0,0:0:0:0:
240,200,97159,1,0,0:0:0:0:
268,201,97202,1,8,0:0:0:0:
254,199,97288,1,0,0:0:0:0:
256,186,97373,1,8,0:0:0:0:
256,186,97431,1,8,0:0:0:0:
256,186,97488,1,0,0:0:0:0:
256,186,97545,1,0,0:0:0:0:
267,205,97602,1,0,0:0:0:0:
237,200,97659,1,0,0:0:0:0:
267,205,97716,1,8,0:0:0:0:
267,205,97802,1,0,0:0:0:0:
267,205,97888,1,8,0:0:0:0:
267,205,97973,1,0,0:0:0:0:
249,227,98059,1,8,0:0:0:0:
245,208,98116,1,8,0:0:0:0:
241,187,98173,1,8,0:0:0:0:
237,167,98231,1,0,0:0:0:0:
257,234,98288,1,0,0:0:0:0:
231,184,98345,1,0,0:0:0:0:
257,234,98402,1,8,0:0:0:0:
257,234,98488,1,0,0:0:0:0:
257,234,98573,1,8,0:0:0:0:
257,234,98659,1,8,0:0:0:0:
237,208,98745,1,0,0:0:0:0:
249,227,98831,1,8,0:0:0:0:
241,203,98916,1,8,0:0:0:0:
264,219,99002,1,8,0:0:0:0:
252,211,99088,1,0,0:0:0:0:
252,211,99173,1,8,0:0:0:0:
228,191,99259,1,8,0:0:0:0:
257,210,99345,1,0,0:0:0:0:
248,220,99431,1,8,0:0:0:0:
252,206,99488,1,8,0:0:0:0:
252,206,99545,1,8,0:0:0:0:
252,206,99602,1,8,0:0:0:0:
252,206,99659,1,8,0:0:0:0:
252,206,99716,1,8,0:0:0:0:
252,206,99773,1,0,0:0:0:0:
237,219,99859,1,0,0:0:0:0:
237,219,99945,1,8,0:0:0:0:
237,219,100031,1,8,0:0:0:0:
238,219,100116,1,4,0:0:0:0:
