osu file format v14

[General]
AudioFilename: audio.mp3
AudioLeadIn: 0
PreviewTime: 54859
Countdown: 0
SampleSet: Soft
StackLeniency: 0.7
Mode: 0
LetterboxInBreaks: 0
WidescreenStoryboard: 1

[Editor]
Bookmarks: 17830,34287,43887,54858,67201
DistanceSpacing: 0.7
BeatDivisor: 4
GridSize: 32
TimelineZoom: 1.6

[Metadata]
Title:Arrogation (Cut Ver.)
TitleUnicode:Arrogation (Cut Ver.)
Artist:A?
ArtistUnicode:あ?
Creator:OneShotFox
Version:Normal
Source:
Tags:aquestion hardpsy hardstyle ocutechno techno electronic instrumental 人體解剖 市大テクノ部 hardcore a ducky- ducky
BeatmapID:2784600
BeatmapSetID:1311422

[Difficulty]
HPDrainRate:3
CircleSize:3
OverallDifficulty:4
ApproachRate:6
SliderMultiplier:1.1
SliderTickRate:1

[Events]
//Background and Video events
0,0,"EfECmevUcAsOaIk.jpg",0,0
//Break Periods
//Storyboard Layer 0 (Background)
//Storyboard Layer 1 (Fail)
//Storyboard Layer 2 (Pass)
//Storyboard Layer 3 (Foreground)
//Storyboard Layer 4 (Overlay)
//Storyboard Sound Samples

[TimingPoints]
1373,342.857142857143,4,2,1,50,1,0
23315,-100,4,2,1,50,0,0
33944,-100,4,2,1,80,0,0
34287,-100,4,2,1,65,0,0
34801,-100,4,2,1,65,0,0
38230,-100,4,2,1,65,0,0
40458,-100,4,2,1,65,0,0
41830,-100,4,2,1,65,0,0
42515,-100,4,2,2,60,0,0
43200,-100,4,2,2,65,0,0
43543,-100,4,2,2,70,0,0
44915,-100,4,2,1,80,0,0
45258,-100,4,2,1,65,0,0
47315,-100,4,2,2,65,0,0
47658,-100,4,2,2,65,0,0
48001,-100,4,2,1,65,0,0
50058,-100,4,2,2,65,0,0
50744,-100,4,2,1,65,0,0
52801,-100,4,2,2,65,0,0
53144,-100,4,2,2,65,0,0
53487,-100,4,2,1,65,0,0
56230,-90.9090909090909,4,2,2,70,0,1
58687,-90.9090909090909,4,2,1,70,0,1
58973,-90.9090909090909,4,2,2,70,0,1
60401,-90.9090909090909,4,2,1,70,0,1
60687,-90.9090909090909,4,2,2,70,0,1
60744,-90.9090909090909,4,2,1,70,0,1
61030,-90.9090909090909,4,2,2,70,0,1
61373,-100,4,2,2,80,0,0
61715,-90.9090909090909,4,2,2,70,0,1
64115,-90.9090909090909,4,2,2,70,0,1
64458,-90.9090909090909,4,2,2,70,0,1
67201,-100,4,2,1,55,0,0
69087,-100,4,2,1,55,0,0
69601,-100,4,2,1,55,0,0
71830,-100,4,2,1,55,0,0
72344,-100,4,2,2,80,0,0
72687,-100,4,2,1,65,0,0
75430,-100,4,2,2,60,0,0
76115,-100,4,2,2,65,0,0
76458,-100,4,2,2,70,0,0
77830,-100,4,2,2,80,0,0
78173,-100,4,2,2,80,0,0
79287,-100,4,2,1,70,0,0
79544,-100,4,2,2,70,0,0
80573,-100,4,2,2,70,0,0
80915,-100,4,2,2,70,0,0
81944,-100,4,2,1,70,0,0
82287,-100,4,2,2,70,0,0
83315,-100,4,2,2,70,0,0
83658,-100,4,2,2,70,0,0
84344,-100,4,2,1,70,0,0
84687,-100,4,2,2,70,0,0
84773,-100,4,2,1,70,0,0
85030,-100,4,2,2,70,0,0
86058,-100,4,2,2,70,0,0
86401,-100,4,2,2,70,0,0
87173,-100,4,2,1,70,0,0
87430,-100,4,2,2,70,0,0
87515,-100,4,2,1,70,0,0
87773,-100,4,2,2,60,0,0
89144,-90.9090909090909,4,2,2,80,0,1
91415,-90.9090909090909,4,2,1,80,0,1
91544,-90.9090909090909,4,2,2,80,0,1
91587,-90.9090909090909,4,2,1,80,0,1
91887,-90.9090909090909,4,2,2,80,0,1
93315,-90.9090909090909,4,2,1,80,0,1
93601,-90.9090909090909,4,2,2,80,0,1
93658,-90.9090909090909,4,2,1,80,0,1
93944,-90.9090909090909,4,2,2,80,0,1
94287,-100,4,2,2,80,0,0
94630,-90.9090909090909,4,2,2,80,0,1
97073,-90.9090909090909,4,2,1,80,0,1
97373,-90.9090909090909,4,2,2,80,0,1
99087,-90.9090909090909,4,2,2,80,0,1
99144,-90.9090909090909,4,2,1,80,0,1
99430,-90.9090909090909,4,2,2,80,0,1
100115,-100,4,2,1,60,0,0
101487,-100,4,2,1,50,0,0
101744,-100,4,2,1,40,0,0
102001,-100,4,2,1,30,0,0
102258,-100,4,2,1,20,0,0
102515,-100,4,2,1,15,0,0

[Colours]
Combo1 : 155,155,155
Combo2 : 55,129,189
Combo3 : 208,213,51

[HitObjects]
256,192,17830,12,0,21944,3:2:0:0:
23,45,23315,6,0,L|34:131,1,82.5,2|2,3:2|3:2,0:2:0:0:
101,173,23830,2,0,L|112:259,1,82.5,2|2,3:2|3:2,0:0:0:0:
172,310,24344,1,10,0:2:0:0:
273,351,24687,6,0,B|288:313|288:313|270:273,1,82.5,2|2,3:2|3:2,0:2:0:0:
227,205,25201,2,0,B|211:167|211:167|229:127,1,82.5,2|2,3:2|3:2,0:0:0:0:
293,78,25715,1,10,0:2:0:0:
394,119,26058,6,0,B|431:119|449:144|449:144|460:188,1,82.5,2|2,3:2|3:2,0:2:0:0:
408,234,26573,1,2,3:2:0:0:
327,211,26830,2,0,P|313:246|331:310,1,82.5,2|10,3:2|0:2,0:0:0:0:
330,347,27258,1,10,0:2:0:0:
330,347,27430,6,0,P|279:320|237:326,1,82.5,2|2,3:2|3:2,0:0:0:0:
177,352,27944,2,0,P|136:348|102:325,1,82.5,2|2,3:2|3:2,0:0:0:0:
82,245,28458,1,10,0:2:0:0:
23,151,28801,6,0,L|8:47,1,82.5,2|2,3:2|0:2,0:2:0:0:
73,14,29315,1,2,3:2:0:0:
138,64,29573,2,0,P|202:45|215:25,1,82.5,2|10,3:2|0:2,0:0:0:0:
314,2,30173,6,0,L|302:83,1,82.5,2|2,3:2|3:2,0:2:0:0:
369,131,30688,1,2,3:2:0:0:
442,167,30945,2,0,L|430:248,1,82.5,2|10,3:2|3:2,0:0:0:0:
377,347,31544,6,0,P|323:345|295:319,1,82.5,2|2,3:2|3:2,0:2:0:0:
262,256,32058,2,0,L|170:265,1,82.5,2|2,3:2|3:2,0:0:0:0:
123,203,32573,2,0,L|116:144,1,55,10|2,3:2|3:2,0:0:0:0:
142,100,32915,2,0,P|179:83|232:100,1,82.5,2|2,3:2|3:2,0:0:0:0:
247,168,33430,6,0,L|262:258,1,82.5,2|2,0:0|0:0,0:0:0:0:
280,329,33944,1,8,3:2:0:0:
390,319,34287,6,0,L|481:309,1,82.5,2|0,3:2|0:0,0:0:0:0:
502,233,34801,1,2,0:2:0:0:
455,164,35058,2,0,P|435:121|429:82,1,82.5,2|2,0:2|3:2,0:0:0:0:
339,22,35658,6,0,P|287:24|251:38,1,82.5,2|2,3:2|0:2,0:0:0:0:
201,93,36173,2,0,P|209:146|206:182,2,82.5,2|0|2,0:2|0:0|3:2,0:0:0:0:
134,13,37030,6,0,P|89:12|49:34,1,82.5,2|2,3:2|0:2,0:0:0:0:
25,104,37544,1,2,0:2:0:0:
68,174,37801,2,0,P|92:231|83:253,1,82.5,2|2,0:2|0:0,0:0:0:0:
75,301,38230,1,2,0:0:0:0:
124,324,38401,6,0,B|165:335|165:335|224:307,1,82.5,2|2,3:2|0:2,0:2:0:0:
249,250,38915,2,0,B|288:232|288:232|326:243,1,82.5,2|2,0:2|0:2,0:0:0:0:
388,300,39430,2,0,P|382:334|386:361,1,55,2|2,3:2|3:2,3:2:0:0:
439,370,39773,6,0,P|485:360|519:320,1,82.5,0|2,0:2|0:2,0:0:0:0:
509,255,40287,1,2,0:2:0:0:
509,255,40458,2,0,L|496:156,1,82.5,2|2,3:2|0:2,0:0:0:0:
468,95,40973,1,2,0:2:0:0:
468,95,41144,6,0,B|424:78|424:78|376:99,1,82.5,2|2,3:2|0:2,0:0:0:0:
340,154,41658,1,2,0:2:0:0:
340,154,41830,2,0,B|328:174|328:174|251:169,1,82.5,2|2,3:2|0:2,0:0:0:0:
186,162,42344,1,2,0:2:0:0:
256,192,42515,12,0,43887,0:2:0:0:
55,165,44915,5,6,3:2:0:0:
39,56,45258,2,0,P|93:62|165:83,1,110,2|2,3:2|3:2,0:0:0:0:
238,137,45944,1,2,3:2:0:0:
348,135,46287,2,0,L|420:126,1,55,2|2,3:2|0:2,0:0:0:0:
457,123,46630,2,0,P|469:176|474:232,1,110,2|2,3:2|3:2,0:0:0:0:
447,337,47315,6,0,L|389:330,1,55,10|0,3:0|0:0,0:0:0:0:
357,287,47658,2,0,L|287:297,1,55,6|0,3:0|0:0,0:0:0:0:
249,309,48001,6,0,L|263:199,1,110,2|2,3:2|3:2,0:0:0:0:
275,90,48687,1,2,3:2:0:0:
191,18,49030,2,0,P|164:24|124:31,1,55,0|2,0:0|0:2,0:0:0:0:
89,56,49373,6,0,P|54:94|54:157,1,110,2|2,3:2|3:2,0:0:0:0:
126,230,50058,1,6,3:0:0:0:
211,161,50401,1,10,3:0:0:0:
320,165,50744,6,0,B|366:203|366:203|394:268,1,110,2|2,3:2|3:2,0:0:0:0:
304,324,51430,2,0,L|232:333,1,55,2|2,3:2|0:2,0:0:0:0:
208,368,51773,2,0,L|136:377,1,55,2|2,3:2|0:2,0:0:0:0:
99,361,52115,5,2,3:2:0:0:
45,264,52458,1,2,3:2:0:0:
100,148,52801,6,0,L|166:138,1,55,10|0,3:0|0:0,0:0:0:0:
192,100,53144,2,0,L|266:113,1,55,6|0,3:0|0:0,0:0:0:0:
299,122,53487,5,2,3:2:0:0:
343,21,53830,1,2,3:2:0:0:
452,14,54173,2,0,B|450:42|450:42|468:83,1,55,2|2,3:2|0:2,0:0:0:0:
493,111,54516,2,0,B|499:136|499:136|480:178,1,55,2|2,3:2|0:2,0:0:0:0:
447,200,54858,6,0,P|390:224|353:223,1,82.5,2|2,0:2|0:2,0:0:0:0:
339,148,55373,2,0,B|309:119|309:119|252:117,1,82.5,2|2,0:2|0:2,0:0:0:0:
186,110,55887,2,0,L|116:106,1,55,2|2,0:0|0:0,0:0:0:0:
94,152,56230,6,0,B|71:179|71:179|95:268,1,121.000003692627,2|10,3:2|3:2,0:2:0:0:
126,312,56744,1,2,0:2:0:0:
180,286,56915,2,0,P|207:274|243:273,1,60.5000018463135,2|0,3:2|0:2,0:2:0:0:
287,306,57258,1,10,3:2:0:0:
400,348,57601,6,0,P|426:344|461:328,1,60.5000018463135,2|2,3:2|0:2,0:2:0:0:
478,273,57944,2,0,L|481:209,1,60.5000018463135,8|2,3:2|0:2,0:2:0:0:
477,151,58287,2,0,B|414:128|414:128|351:154,1,121.000003692627,2|10,3:2|3:2,0:2:0:0:
260,219,58973,6,0,P|214:237|146:210,1,121.000003692627,2|10,3:2|3:2,0:2:0:0:
114,163,59487,1,0,0:2:0:0:
117,102,59658,2,0,B|79:89|79:89|44:94,2,60.5000018463135,2|2|10,3:2|0:2|3:2,0:2:0:0:
212,26,60344,6,0,L|273:15,1,60.5000018463135,2|2,3:2|3:2,0:2:0:0:
331,4,60687,2,0,L|390:14,1,60.5000018463135,10|2,3:2|3:2,0:2:0:0:
448,32,61030,2,0,B|477:56|477:56|463:147,1,121.000003692627,6|10,3:0|3:0,0:2:0:0:
487,257,61715,6,0,B|438:262|438:262|418:242|418:242|367:248,1,121.000003692627,2|10,3:2|3:2,0:2:0:0:
319,263,62230,1,2,0:2:0:0:
319,263,62401,2,0,P|327:213|304:141,1,121.000003692627,2|10,3:2|3:2,0:0:0:0:
208,75,63087,6,0,P|162:77|140:93,1,60.5000018463135,2|2,3:2|0:2,0:2:0:0:
102,121,63430,2,0,P|70:155|65:178,1,60.5000018463135,10|2,3:2|0:2,0:2:0:0:
112,207,63773,2,0,B|129:255|75:274|97:329,1,121.000003692627,2|10,3:2|3:2,0:0:0:0:
213,301,64458,6,0,P|242:342|315:339,1,121.000003692627,2|10,3:2|3:2,0:2:0:0:
354,303,64973,1,2,0:2:0:0:
331,247,65144,2,0,P|319:176|364:133,1,121.000003692627,2|8,3:2|3:2,0:2:0:0:
463,107,65830,6,0,P|468:146|480:183,1,60.5000018463135,2|2,3:2|0:2,0:0:0:0:
512,212,66173,2,0,P|507:251|497:284,1,60.5000018463135,10|2,3:2|0:2,0:0:0:0:
458,313,66515,2,0,B|434:324|423:358|423:358|393:338|362:339,1,121.000003692627,2|8,3:2|3:2,0:0:0:0:
269,282,67201,6,0,P|268:338|253:371,1,82.5,2|0,3:2|0:0,0:0:0:0:
177,380,67715,1,2,3:2:0:0:
110,330,67973,2,0,P|109:283|93:248,1,82.5,2|10,3:2|3:2,0:0:0:0:
59,146,68573,6,0,P|99:125|157:126,1,82.5,2|0,3:2|0:0,0:0:0:0:
206,164,69087,2,0,P|246:159|282:139,1,82.5,2|0,3:2|0:0,0:0:0:0:
311,60,69601,1,10,3:2:0:0:
415,92,69944,6,0,L|406:182,1,82.5,2|2,3:2|0:2,0:0:0:0:
330,205,70458,1,2,3:2:0:0:
250,231,70715,2,0,L|241:321,1,82.5,2|10,3:2|3:2,0:0:0:0:
193,338,71144,1,2,3:2:0:0:
193,338,71315,6,0,P|146:337|103:349,1,82.5,2|0,3:2|0:0,0:2:0:0:
33,318,71830,2,0,P|51:265|50:230,1,82.5,2|2,3:2|0:0,0:2:0:0:
52,156,72344,1,10,3:0:0:0:
174,167,72687,6,0,B|160:143|160:143|171:72,1,82.5,2|2,3:2|0:2,0:0:0:0:
233,37,73201,1,2,0:2:0:0:
233,37,73373,2,0,B|275:23|275:23|322:46,1,82.5,2|2,3:2|0:2,0:0:0:0:
363,109,73887,1,2,0:2:0:0:
363,109,74058,2,0,B|371:163|371:163|357:187,1,82.5,2|2,3:2|0:2,0:0:0:0:
296,244,74573,5,2,0:2:0:0:
296,244,74744,2,0,B|285:301|285:301|303:327,1,82.5,2|2,3:2|0:2,0:0:0:0:
364,371,75258,1,2,0:2:0:0:
256,192,75430,12,0,76801,0:0:0:0:
391,53,77830,6,0,L|398:107,1,55,6|0,3:0|0:0,0:2:0:0:
409,161,78173,6,0,P|379:213|365:261,1,110,2|2,3:2|3:2,0:2:0:0:
339,367,78858,1,2,3:2:0:0:
229,362,79201,2,0,P|155:344|115:321,2,110,2|2|2,3:2|3:2|3:2,0:0:0:0:
294,273,80230,6,0,L|287:210,1,55,10|0,3:0|0:0,0:2:0:0:
256,173,80573,2,0,L|263:110,1,55,6|0,3:0|0:0,0:2:0:0:
293,73,80915,6,0,L|411:60,1,110,2|2,3:2|3:2,0:2:0:0:
401,171,81601,2,0,L|519:158,1,110,2|2,3:2|3:2,0:2:0:0:
502,269,82287,1,2,3:2:0:0:
424,347,82630,1,2,3:2:0:0:
314,328,82973,2,0,L|240:305,1,55,6|0,3:0|0:0,0:2:0:0:
216,343,83315,2,0,L|163:359,1,55,10|0,3:0|0:0,0:2:0:0:
117,328,83658,5,2,3:2:0:0:
83,223,84001,1,2,3:2:0:0:
189,195,84344,2,0,P|250:212|287:245,2,110,2|2|2,3:2|3:2|3:2,0:0:0:0:
116,111,85373,1,2,3:2:0:0:
189,29,85715,6,0,P|234:19|251:22,1,55,10|0,3:0|0:0,0:2:0:0:
275,64,86058,2,0,P|300:73|328:73,1,55,6|0,3:0|0:0,0:2:0:0:
379,52,86401,5,2,3:2:0:0:
487,31,86744,2,0,B|508:85|508:85|483:149,1,110,2|2,3:2|3:2,0:0:0:0:
439,232,87430,1,2,3:2:0:0:
328,229,87773,6,0,P|288:247|268:299,1,82.5,2|2,0:2|0:2,0:0:0:0:
210,337,88287,2,0,P|170:319|124:314,1,82.5,2|2,0:2|0:2,0:0:0:0:
84,381,88801,2,0,L|21:370,1,55,2|2,3:0|3:0,0:0:0:0:
8,320,89144,6,0,L|-1:194,1,121.000003692627,2|10,3:2|3:2,0:2:0:0:
26,144,89658,1,2,0:2:0:0:
26,144,89830,2,0,P|54:131|86:130,1,60.5000018463135,2|2,3:2|0:2,0:2:0:0:
141,146,90173,1,10,3:2:0:0:
259,169,90515,6,0,L|252:241,1,60.5000018463135,2|2,3:2|0:2,0:2:0:0:
207,268,90858,2,0,L|210:345,1,60.5000018463135,10|2,3:2|0:2,0:2:0:0:
232,384,91201,2,0,B|264:383|282:358|282:358|307:381|353:376,1,121.000003692627,2|10,3:2|3:2,0:2:0:0:
454,337,91887,6,0,P|443:272|443:205,1,121.000003692627,2|10,3:2|3:2,0:2:0:0:
469,162,92401,1,2,0:2:0:0:
469,162,92573,2,0,P|422:156|396:134,1,60.5000018463135,2|2,3:2|0:2,0:2:0:0:
368,107,92915,1,10,3:2:0:0:
310,0,93258,6,0,P|277:-2|241:15,1,60.5000018463135,2|2,3:2|0:2,0:2:0:0:
197,35,93601,2,0,P|169:53|151:81,1,60.5000018463135,10|2,3:2|0:2,0:2:0:0:
127,130,93944,2,0,B|71:152|71:152|14:109,1,121.000003692627,6|10,3:0|3:0,0:2:0:0:
0,230,94630,6,0,P|48:263|122:237,1,121.000003692627,2|10,3:2|3:2,0:2:0:0:
170,248,95144,1,2,0:2:0:0:
170,248,95315,2,0,L|161:320,1,60.5000018463135,2|2,3:2|0:2,0:2:0:0:
154,368,95658,1,10,3:2:0:0:
270,335,96001,6,0,P|304:351|346:349,1,60.5000018463135,2|2,3:2|0:2,0:2:0:0:
370,305,96344,2,0,P|397:301|429:311,1,60.5000018463135,10|2,3:2|0:2,0:2:0:0:
488,314,96687,2,0,B|469:279|478:254|478:254|500:230|494:194,1,121.000003692627,2|10,3:2|3:2,0:2:0:0:
450,87,97373,6,0,B|419:77|390:96|408:99|375:127|334:109,1,121.000003692627,2|10,3:2|3:2,0:2:0:0:
281,118,97887,1,2,0:2:0:0:
281,118,98058,2,0,P|290:155|288:184,1,60.5000018463135,0|2,3:2|0:2,0:2:0:0:
265,233,98401,1,10,3:2:0:0:
166,173,98744,5,2,3:2:0:0:
166,173,98916,2,0,P|139:185|46:131,1,121.000003692627,2|2,3:2|3:2,0:2:0:0:
39,97,99430,2,0,B|58:67|58:67|161:53,1,121.000003692627,2|10,3:2|3:2,0:2:0:0:
252,48,100115,5,2,3:2:0:0:
