osu file format v14

[General]
AudioFilename: audio.mp3
AudioLeadIn: 0
PreviewTime: 54859
Countdown: 0
SampleSet: Soft
StackLeniency: 0.7
Mode: 0
LetterboxInBreaks: 0
WidescreenStoryboard: 1

[Editor]
Bookmarks: 17830,23315,34287,45258,78173,83658
DistanceSpacing: 0.7
BeatDivisor: 8
GridSize: 16
TimelineZoom: 3.499999

[Metadata]
Title:Arrogation (Cut Ver.)
TitleUnicode:Arrogation (Cut Ver.)
Artist:A?
ArtistUnicode:あ?
Creator:OneShotFox
Version:King Tide
Source:
Tags:aquestion hardpsy hardstyle ocutechno techno electronic instrumental 人體解剖 市大テクノ部 hardcore a ducky- ducky
BeatmapID:2718124
BeatmapSetID:1311422

[Difficulty]
HPDrainRate:5
CircleSize:4
OverallDifficulty:9
ApproachRate:9.3
SliderMultiplier:1.9
SliderTickRate:1

[Events]
//Background and Video events
0,0,"EfECmevUcAsOaIk.jpg",0,0
//Break Periods
//Storyboard Layer 0 (Background)
//Storyboard Layer 1 (Fail)
//Storyboard Layer 2 (Pass)
//Storyboard Layer 3 (Foreground)
//Storyboard Layer 4 (Overlay)
//Storyboard Sound Samples

[TimingPoints]
1373,342.857142857143,4,2,1,50,1,0
23315,-100,4,2,1,50,0,0
33944,-66.6666666666667,4,2,1,80,0,0
34287,-90.9090909090909,4,2,1,65,0,0
42515,-133.333333333333,4,2,2,60,0,0
42858,-95.2380952380951,4,2,2,60,0,0
43200,-68.9655172413793,4,2,2,65,0,0
43543,-54.054054054054,4,2,2,70,0,0
44915,-100,4,2,1,80,0,0
45258,-100,4,2,1,65,0,0
47315,-50,4,2,2,65,0,0
47658,-40,4,2,2,65,0,0
48001,-100,4,2,1,65,0,0
50058,-66.6666666666667,4,2,2,65,0,0
50401,-50,4,2,2,65,0,0
50744,-100,4,2,1,65,0,0
52801,-50,4,2,2,65,0,0
53144,-40,4,2,2,65,0,0
53487,-100,4,2,1,65,0,0
56230,-90.0900900900901,4,2,2,70,0,1
58630,-90.0900900900901,4,2,2,70,0,1
58687,-90.0900900900901,4,2,1,70,0,1
58973,-90.0900900900901,4,2,2,70,0,1
60401,-90.0900900900901,4,2,1,70,0,1
60687,-90.0900900900901,4,2,2,70,0,1
60744,-90.0900900900901,4,2,1,70,0,1
61030,-50,4,2,2,70,0,1
61373,-40,4,2,2,80,0,0
61715,-90.0900900900901,4,2,2,70,0,1
64115,-90.0900900900901,4,2,2,70,0,1
64158,-90.0900900900901,4,2,1,70,0,1
64458,-90.0900900900901,4,2,2,70,0,1
66858,-133.333333333333,4,2,2,70,0,1
67201,-93.4579439252336,4,2,1,55,0,0
72344,-212.765957446809,4,2,2,80,0,0
72687,-212.765957446809,4,2,1,65,0,0
75430,-133.333333333333,4,2,2,60,0,0
75773,-95.2380952380951,4,2,2,60,0,0
76115,-68.9655172413793,4,2,2,65,0,0
76458,-54.054054054054,4,2,2,70,0,0
77830,-58.8235294117647,4,2,2,80,0,0
79287,-58.8235294117647,4,2,1,70,0,0
79544,-58.8235294117647,4,2,2,70,0,0
80230,-33.3333333333333,4,2,2,70,0,0
80573,-33.3333333333333,4,2,2,70,0,0
80915,-58.8235294117647,4,2,2,70,0,0
82030,-58.8235294117647,4,2,1,70,0,0
82287,-58.8235294117647,4,2,2,70,0,0
82973,-50,4,2,2,70,0,0
83658,-58.8235294117647,4,2,2,70,0,0
84430,-58.8235294117647,4,2,1,70,0,0
84687,-58.8235294117647,4,2,2,70,0,0
84773,-58.8235294117647,4,2,1,70,0,0
85030,-58.8235294117647,4,2,2,70,0,0
85715,-33.3333333333333,4,2,2,70,0,0
86058,-33.3333333333333,4,2,2,70,0,0
86401,-58.8235294117647,4,2,2,70,0,0
87173,-58.8235294117647,4,2,1,70,0,0
87430,-58.8235294117647,4,2,2,70,0,0
87515,-58.8235294117647,4,2,1,70,0,0
87773,-58.8235294117647,4,2,2,60,0,0
89144,-90.0900900900901,4,2,2,80,0,1
89487,-133.333333333333,4,2,2,80,0,1
89830,-90.0900900900901,4,2,2,80,0,1
90173,-133.333333333333,4,2,2,80,0,1
90515,-66.2251655629139,4,2,2,80,0,1
91201,-90.0900900900901,4,2,2,80,0,1
91415,-90.0900900900901,4,2,1,80,0,1
91544,-66.6666666666667,4,2,2,80,0,1
91587,-66.6666666666667,4,2,1,80,0,1
91887,-90.0900900900901,4,2,2,80,0,1
92230,-133.333333333333,4,2,2,80,0,1
92573,-90.0900900900901,4,2,2,80,0,1
92915,-133.333333333333,4,2,2,80,0,1
93258,-90.0900900900901,4,2,2,80,0,1
93315,-90.0900900900901,4,2,1,80,0,1
93601,-90.0900900900901,4,2,2,80,0,1
93658,-90.0900900900901,4,2,1,80,0,1
93944,-50,4,2,2,80,0,1
94287,-40,4,2,2,80,0,0
94630,-90.0900900900901,4,2,2,80,0,1
94973,-133.333333333333,4,2,2,80,0,1
95315,-90.0900900900901,4,2,2,80,0,1
95658,-133.333333333333,4,2,2,80,0,1
96001,-66.6666666666667,4,2,2,80,0,1
96687,-90.0900900900901,4,2,2,80,0,1
97030,-66.6666666666667,4,2,2,80,0,1
97073,-66.6666666666667,4,2,1,80,0,1
97373,-90.0900900900901,4,2,2,80,0,1
97715,-133.333333333333,4,2,2,80,0,1
98058,-90.0900900900901,4,2,2,80,0,1
98401,-133.333333333333,4,2,2,80,0,1
98744,-90.0900900900901,4,2,2,80,0,1
98801,-90.0900900900901,4,2,1,80,0,1
99087,-90.0900900900901,4,2,2,80,0,1
99144,-90.0900900900901,4,2,1,80,0,1
99430,-90.0900900900901,4,2,2,80,0,1
100115,-90.0900900900901,4,2,1,60,0,0
101487,-133.333333333333,4,2,1,50,0,0
101744,-133.333333333333,4,2,1,40,0,0
102001,-133.333333333333,4,2,1,30,0,0
102258,-133.333333333333,4,2,1,20,0,0
102515,-133.333333333333,4,2,1,15,0,0

[Colours]
Combo1 : 155,155,155
Combo2 : 55,129,189
Combo3 : 208,213,51

[HitObjects]
256,192,17830,12,0,21944,3:2:0:0:
303,306,23315,6,0,P|226:289|171:325,1,142.5,2|2,3:2|3:2,0:2:0:0:
46,291,23830,1,2,3:2:0:0:
44,272,23915,1,0,0:2:0:0:
123,218,24087,1,2,3:2:0:0:
124,198,24173,1,0,0:2:0:0:
43,148,24344,2,0,L|37:92,1,47.5,10|0,0:2|0:2,0:2:0:0:
218,19,24515,1,0,0:2:0:0:
218,19,24601,1,0,0:2:0:0:
218,19,24687,6,0,B|196:48|196:48|225:168,1,142.5,2|2,3:2|3:2,0:2:0:0:
401,39,25201,1,2,3:2:0:0:
380,32,25287,1,0,0:2:0:0:
327,120,25459,1,2,3:2:0:0:
348,113,25545,1,0,0:2:0:0:
420,212,25715,2,0,L|364:195,1,47.5,10|0,0:2|0:2,0:2:0:0:
254,360,25887,1,0,0:2:0:0:
254,360,25973,1,0,0:2:0:0:
254,360,26058,6,0,B|295:361|295:361|348:327|348:327|402:330,1,142.5,2|2,3:2|3:2,0:2:0:0:
263,280,26573,1,2,3:2:0:0:
249,276,26658,1,0,0:2:0:0:
154,350,26830,1,2,3:2:0:0:
168,346,26915,1,0,0:2:0:0:
85,276,27087,5,10,0:2:0:0:
17,365,27258,1,10,0:2:0:0:
5,198,27430,2,0,B|39:153|39:153|89:144,1,95,2|0,3:2|0:2,0:2:0:0:
111,157,27687,2,0,L|101:92,1,47.5,2|8,3:2|0:2,0:2:0:0:
224,142,27944,2,0,L|224:85,1,47.5,2|0,3:2|0:2,0:2:0:0:
334,156,28201,2,0,L|344:91,1,47.5,2|0,3:2|0:2,0:2:0:0:
450,55,28458,1,10,0:2:0:0:
468,306,28630,5,0,0:2:0:0:
462,323,28715,1,0,0:2:0:0:
455,346,28801,2,0,L|407:344,1,47.5,2|0,3:2|0:2,0:2:0:0:
247,291,29058,1,2,0:2:0:0:
265,285,29143,1,8,0:2:0:0:
181,367,29315,1,2,3:2:0:0:
163,361,29400,1,0,0:2:0:0:
52,292,29573,2,0,L|48:231,1,47.5,2|0,3:2|0:2,0:2:0:0:
146,199,29830,2,0,L|150:138,1,47.5,10|0,0:2|0:2,0:2:0:0:
64,37,30001,5,0,0:2:0:0:
64,37,30087,1,0,0:2:0:0:
64,37,30173,2,0,L|125:21,1,47.5,2|0,3:2|0:2,0:2:0:0:
259,71,30430,1,2,3:2:0:0:
240,68,30515,1,8,0:2:0:0:
337,124,30687,1,2,3:2:0:0:
356,121,30772,1,0,0:2:0:0:
426,57,30944,2,0,L|422:4,1,47.5,2|0,3:2|0:2,0:2:0:0:
509,161,31201,2,0,L|513:108,1,47.5,10|0,3:2|0:2,0:2:0:0:
437,293,31373,5,0,0:2:0:0:
437,293,31458,1,0,0:2:0:0:
437,293,31544,2,0,L|376:276,1,47.5,2|0,3:2|0:2,0:2:0:0:
269,336,31801,1,2,3:2:0:0:
240,340,31887,1,8,0:2:0:0:
203,244,32058,1,2,3:2:0:0:
231,238,32144,1,0,0:2:0:0:
300,166,32315,2,0,L|310:103,1,47.5,2|0,3:2|0:2,0:2:0:0:
199,72,32573,2,0,L|190:13,1,47.5,10|0,3:2|0:2,0:2:0:0:
86,3,32744,1,2,3:2:0:0:
22,152,32915,6,0,L|78:139,1,47.5,2|0,3:2|0:2,0:2:0:0:
80,284,33173,1,2,3:2:0:0:
91,258,33258,2,0,L|136:222,1,47.5,8|0,0:2|0:2,0:2:0:0:
204,367,33430,1,2,3:2:0:0:
201,338,33515,2,0,L|227:286,1,47.5,0|0,3:2|0:2,0:2:0:0:
332,339,33687,1,2,3:2:0:0:
369,332,33773,1,0,3:2:0:0:
401,313,33858,1,0,3:2:0:0:
422,280,33944,6,0,B|424:256|400:246|400:246|391:269|412:289,1,71.2500027179719,8|0,3:2|0:2,0:2:0:0:
248,40,34287,5,2,3:2:0:0:
244,65,34373,1,2,0:2:0:0:
240,90,34458,1,2,0:2:0:0:
236,115,34544,1,2,0:2:0:0:
232,140,34630,2,0,L|295:122,1,52.2500015945435,2|0,3:2|0:2,0:2:0:0:
414,35,34801,5,2,0:2:0:0:
412,61,34887,1,2,0:2:0:0:
408,87,34973,2,0,L|399:162,2,52.2500015945435,2|2|2,3:2|0:2|0:2,0:2:0:0:
296,206,35315,1,2,3:2:0:0:
298,230,35401,1,2,0:2:0:0:
301,257,35487,1,2,0:2:0:0:
280,54,35658,5,2,3:2:0:0:
102,77,35830,1,2,0:2:0:0:
120,225,36001,5,2,3:2:0:0:
123,250,36087,1,2,0:2:0:0:
125,276,36173,1,2,0:2:0:0:
128,301,36258,1,2,0:2:0:0:
131,326,36344,2,0,L|137:382,1,52.2500015945435,2|0,3:2|0:2,0:2:0:0:
5,302,36515,1,2,0:2:0:0:
5,302,36601,1,2,0:2:0:0:
5,302,36687,2,0,P|41:291|64:293,1,52.2500015945435,2|2,3:2|0:2,0:2:0:0:
131,326,36858,2,0,P|167:337|190:335,1,52.2500015945435,2|0,0:2|0:2,0:2:0:0:
272,300,37030,5,2,3:2:0:0:
295,288,37115,1,2,0:2:0:0:
320,284,37201,1,2,0:2:0:0:
346,286,37287,1,2,0:2:0:0:
371,293,37373,6,0,P|407:304|435:323,2,52.2500015945435,2|2|2,3:2|0:2|0:2,0:2:0:0:
269,199,37715,2,0,P|233:210|205:229,2,52.2500015945435,2|2|2,3:2|0:2|0:2,0:2:0:0:
381,142,38058,1,2,3:2:0:0:
406,148,38144,1,2,0:2:0:0:
426,165,38230,2,0,P|447:181|462:208,1,52.2500015945435,2|0,0:2|0:2,0:2:0:0:
287,98,38401,6,0,L|277:14,1,52.2500015945435,2|0,3:2|0:2,0:2:0:0:
176,3,38573,1,2,0:2:0:0:
176,3,38658,1,2,0:2:0:0:
176,3,38744,1,2,3:2:0:0:
6,146,38915,5,2,0:2:0:0:
32,142,39001,1,2,0:2:0:0:
58,138,39087,1,2,3:2:0:0:
84,134,39173,1,2,0:2:0:0:
110,129,39258,1,2,0:2:0:0:
136,124,39344,1,2,0:2:0:0:
161,119,39430,6,0,L|198:110,1,26.1250007972718,2|0,3:2|3:2,3:2:0:0:
172,152,39515,2,0,L|146:158,1,26.1250007972718,2|2,3:2|3:2,3:2:0:0:
179,183,39601,2,0,L|216:174,1,26.1250007972718,2|2,3:2|3:2,3:2:0:0:
187,216,39687,2,0,L|155:223,1,26.1250007972718,2|2,3:2|3:2,3:2:0:0:
196,250,39773,5,0,0:2:0:0:
115,358,39944,1,2,0:2:0:0:
115,358,40030,1,2,0:2:0:0:
115,358,40115,1,10,3:2:0:0:
31,260,40287,1,2,0:2:0:0:
270,344,40458,5,2,3:2:0:0:
435,287,40630,1,2,0:2:0:0:
435,287,40715,1,2,0:2:0:0:
435,287,40801,1,10,3:2:0:0:
320,240,40973,1,2,0:2:0:0:
361,0,41144,5,2,3:2:0:0:
408,182,41315,1,2,0:2:0:0:
408,182,41401,1,2,0:2:0:0:
408,182,41487,1,10,3:2:0:0:
487,70,41658,1,2,0:2:0:0:
198,122,41830,5,2,3:2:0:0:
156,331,42001,1,2,0:2:0:0:
156,331,42087,1,2,0:2:0:0:
156,331,42173,1,10,3:2:0:0:
57,213,42344,1,2,0:2:0:0:
318,337,42515,6,0,P|357:333|387:317,2,47.5000018119813,2|2|2,3:2|3:2|3:2,3:2:0:0:
196,259,42858,6,0,P|157:255|114:232,2,66.4999979705811,2|2|2,3:2|3:2|3:2,3:2:0:0:
305,180,43201,5,0,3:2:0:0:
320,136,43315,1,0,3:2:0:0:
311,90,43430,1,0,3:2:0:0:
136,108,43544,5,0,3:2:0:0:
177,178,43658,1,0,3:2:0:0:
241,126,43773,1,0,3:2:0:0:
386,12,43887,5,0,0:2:0:0:
386,12,43973,1,0,0:2:0:0:
386,12,44058,1,0,0:2:0:0:
354,151,44230,1,0,0:2:0:0:
354,151,44316,1,0,0:2:0:0:
354,151,44401,1,0,0:2:0:0:
239,63,44573,1,0,0:2:0:0:
239,63,44659,1,0,0:2:0:0:
239,63,44744,1,0,0:2:0:0:
472,91,44915,6,0,B|487:70|487:70|479:94,1,47.5,6|2,3:2|0:2,0:2:0:0:
449,322,45258,5,2,3:2:0:0:
449,322,45344,1,2,0:2:0:0:
449,322,45430,2,0,P|420:324|380:310,1,47.5,2|0,0:2|0:2,0:2:0:0:
268,256,45601,5,2,3:2:0:0:
268,256,45687,1,2,0:2:0:0:
268,256,45773,2,0,P|266:285|280:325,1,47.5,2|0,0:2|0:2,0:2:0:0:
171,381,45944,5,2,3:2:0:0:
173,362,46030,1,2,0:2:0:0:
52,309,46201,1,2,0:2:0:0:
52,309,46287,1,2,3:2:0:0:
52,309,46373,2,0,L|9:316,4,23.75,2|2|2|2|0,0:2|0:2|0:2|0:2|0:2,0:2:0:0:
166,216,46630,5,2,3:2:0:0:
166,216,46715,1,2,0:2:0:0:
166,216,46801,2,0,L|175:146,1,47.5,2|0,0:2|0:2,0:2:0:0:
50,95,46973,5,2,3:2:0:0:
50,95,47058,1,2,0:2:0:0:
50,95,47144,2,0,L|39:23,1,47.5,2|0,0:2|0:2,0:2:0:0:
149,21,47315,6,0,B|213:-5|279:40|279:40|297:23|297:23|363:72|421:31,1,285,10|0,3:0|0:2,0:2:0:0:
482,94,47658,6,0,B|455:137|398:134|398:134|455:189|440:256|395:236|355:296|405:369,1,356.25,6|0,3:0|0:2,0:2:0:0:
467,315,48001,5,2,3:2:0:0:
467,315,48087,1,2,0:2:0:0:
467,315,48173,2,0,L|512:303,1,47.5,2|0,0:2|0:2,0:2:0:0:
353,198,48344,5,2,3:2:0:0:
353,198,48430,1,2,0:2:0:0:
353,198,48516,2,0,L|308:186,1,47.5,2|0,0:2|0:2,0:2:0:0:
222,315,48687,5,2,3:2:0:0:
245,310,48773,1,2,0:2:0:0:
97,248,48944,1,2,0:2:0:0:
97,248,49030,1,2,3:2:0:0:
97,248,49115,2,0,L|61:240,4,23.75,2|2|2|2|2,0:2|0:2|0:2|0:2|0:2,0:2:0:0:
164,132,49373,5,2,3:2:0:0:
164,132,49458,1,2,0:2:0:0:
164,132,49544,2,0,L|109:121,1,47.5,2|2,0:2|0:2,0:2:0:0:
277,57,49715,5,2,3:2:0:0:
277,57,49800,1,2,0:2:0:0:
277,57,49887,2,0,L|285:7,1,47.5,2|0,0:2|0:2,0:2:0:0:
375,101,50058,6,0,B|371:114|371:114|375:122|375:122|370:131|370:131|374:139|374:139|370:148|370:148|373:154|373:154|369:161|369:161|371:165|371:165|367:173|367:173|373:178|373:178|369:188|369:188|372:192|372:192|366:200|366:200|370:205|370:205|367:213|367:213|371:216|371:216|366:227|366:227|371:231|371:231|371:241|371:241|367:246|367:246|368:251|368:251|370:251|370:251|370:260|370:260|367:263|367:263|370:272|370:272|368:277|368:277|370:284|370:284|367:289|367:289|366:298,1,213.750008153916,6|0,3:0|0:2,0:2:0:0:
424,373,50401,6,0,B|394:379|394:379|386:374|386:374|382:381|382:381|348:387|348:387|310:359|310:359|301:360|301:360|301:351|301:351|258:319|258:319|212:332|212:332|205:329|205:329|202:333|202:333|151:347,1,285,10|0,3:0|0:2,0:2:0:0:
40,360,50744,5,2,3:2:0:0:
40,360,50830,1,2,0:2:0:0:
40,360,50915,2,0,P|32:324|37:294,1,47.5,2|0,0:2|0:2,0:2:0:0:
118,211,51087,5,2,3:2:0:0:
118,211,51173,1,2,0:2:0:0:
118,211,51258,2,0,P|126:175|121:145,1,47.5,2|0,0:2|0:2,0:2:0:0:
69,57,51430,5,2,3:2:0:0:
69,57,51515,2,0,L|26:62,4,23.75,2|2|2|2|2,0:2|0:2|0:2|0:2|0:2,0:2:0:0:
166,0,51773,5,2,3:2:0:0:
166,0,51858,2,0,L|209:5,4,23.75,2|2|2|2|2,0:2|0:2|0:2|0:2|0:2,0:2:0:0:
265,108,52115,5,2,3:2:0:0:
265,108,52201,1,2,0:2:0:0:
265,108,52287,2,0,L|331:97,1,47.5,2|0,0:2|0:2,0:2:0:0:
394,11,52458,5,2,3:2:0:0:
394,11,52544,1,2,0:2:0:0:
394,11,52630,2,0,L|460:0,1,47.5,2|0,0:2|0:2,0:2:0:0:
441,119,52801,6,0,B|379:165|412:239|441:229|490:301|414:378,1,285,10|0,3:0|0:2,0:2:0:0:
321,195,53144,6,0,P|215:231|359:282,1,356.25,6|0,3:0|0:2,0:2:0:0:
298,112,53487,5,2,3:2:0:0:
298,112,53573,1,2,0:2:0:0:
298,112,53658,2,0,P|239:119|223:132,1,47.5,2|0,0:2|0:2,0:2:0:0:
105,234,53830,5,2,3:2:0:0:
105,234,53916,1,2,0:2:0:0:
105,234,54001,2,0,P|128:179|125:159,1,47.5,2|0,0:2|0:2,0:2:0:0:
139,39,54173,5,2,3:2:0:0:
139,39,54258,2,0,L|126:8,4,23.75,2|2|2|2|2,0:2|0:2|0:2|0:2|0:2,0:2:0:0:
37,124,54515,5,2,3:2:0:0:
37,124,54601,2,0,L|24:155,4,23.75,2|2|2|2|2,0:2|0:2|0:2|0:2|0:2,0:2:0:0:
260,274,54859,5,2,0:2:0:0:
462,316,55116,5,2,0:2:0:0:
316,336,55373,5,2,0:2:0:0:
200,212,55631,5,2,0:2:0:0:
366,236,55888,5,2,0:2:0:0:
432,96,56059,5,2,0:2:0:0:
260,29,56231,5,2,3:2:0:0:
262,51,56288,1,2,0:2:0:0:
264,73,56345,1,2,0:2:0:0:
267,95,56402,2,0,L|273:164,1,52.7250012872315,2|0,0:2|0:2,0:2:0:0:
153,80,56573,2,0,L|156:16,3,52.7250012872315,10|2|2|2,3:2|0:2|0:2|0:2,0:2:0:0:
43,122,56916,5,2,3:2:0:0:
45,144,56973,1,2,0:2:0:0:
47,166,57030,1,2,0:2:0:0:
50,188,57087,2,0,L|54:253,1,52.7250012872315,2|0,0:2|0:2,0:2:0:0:
56,346,57259,2,0,L|-12:359,3,52.7250012872315,10|2|2|2,3:2|0:2|0:2|0:2,0:2:0:0:
147,382,57601,6,0,P|192:385|223:369,1,52.7250012872315,2|0,3:2|0:2,0:2:0:0:
272,280,57773,2,0,P|295:276|333:292,1,52.7250012872315,2|2,0:2|0:2,0:2:0:0:
162,346,57945,2,0,P|203:361|238:357,1,52.7250012872315,10|0,3:2|0:2,0:2:0:0:
343,254,58115,2,0,P|365:258|399:288,1,52.7250012872315,2|2,0:2|0:2,0:2:0:0:
455,384,58288,5,2,3:2:0:0:
419,379,58373,1,2,0:2:0:0:
386,374,58458,2,0,L|323:366,1,52.7250012872315,2|0,0:2|0:2,0:2:0:0:
211,361,58631,5,10,3:2:0:0:
216,324,58688,1,2,3:2:0:0:
223,287,58745,1,2,3:2:0:0:
227,251,58802,2,0,L|239:149,1,52.7250012872315,2|0,3:2|0:2,0:2:0:0:
305,103,58973,5,2,3:2:0:0:
285,114,59031,1,2,0:2:0:0:
262,116,59088,1,2,0:2:0:0:
239,115,59145,2,0,P|203:110|182:92,1,52.7250012872315,2|0,0:2|0:2,0:2:0:0:
104,57,59316,2,0,L|109:-5,3,52.7250012872315,10|2|2|2,3:2|0:2|0:2|0:2,0:2:0:0:
11,192,59659,5,2,3:2:0:0:
31,203,59715,1,2,0:2:0:0:
54,205,59773,1,2,0:2:0:0:
77,204,59831,2,0,P|113:199|136:182,1,52.7250012872315,2|0,0:2|0:2,0:2:0:0:
231,229,60002,2,0,L|228:287,3,52.7250012872315,10|2|2|2,3:2|0:2|0:2|0:2,0:2:0:0:
352,222,60345,5,2,3:2:0:0:
354,244,60402,1,2,3:2:0:0:
356,266,60459,1,2,3:2:0:0:
359,288,60516,2,0,L|366:354,1,52.7250012872315,2|0,3:2|0:2,0:2:0:0:
493,168,60688,5,10,3:2:0:0:
491,190,60745,1,2,3:2:0:0:
489,212,60802,1,2,3:2:0:0:
486,234,60859,2,0,L|479:300,1,52.7250012872315,2|0,3:2|0:2,0:2:0:0:
396,101,61031,6,0,B|397:77|421:60|421:60|344:51|343:125|257:119|257:119|300:93|298:55,1,285,6|0,3:0|0:2,0:2:0:0:
138,8,61373,2,0,P|164:150|152:360,1,356.25,10|0,3:0|0:2,0:2:0:0:
8,273,61716,5,2,3:2:0:0:
25,261,61773,1,2,0:2:0:0:
46,260,61831,1,2,0:2:0:0:
63,271,61888,2,0,P|85:284|130:276,1,52.7250012872315,2|0,0:2|0:2,0:2:0:0:
260,265,62059,2,0,B|266:293|266:293|246:316,3,52.7250012872315,10|2|2|2,3:2|0:2|0:2|0:2,0:2:0:0:
398,297,62402,5,2,3:2:0:0:
406,277,62459,1,2,0:2:0:0:
409,256,62515,1,2,0:2:0:0:
402,235,62574,2,0,P|396:202|398:162,1,52.7250012872315,2|2,0:2|0:2,0:2:0:0:
413,34,62745,2,0,B|441:28|441:28|464:48,3,52.7250012872315,10|2|2|2,3:2|0:2|0:2|0:2,0:2:0:0:
291,126,63088,6,0,P|260:127|234:115,1,52.7250012872315,2|0,3:2|0:2,0:2:0:0:
132,20,63259,2,0,P|94:17|71:29,1,52.7250012872315,2|0,0:2|0:2,0:2:0:0:
262,157,63431,2,0,P|231:158|205:146,1,52.7250012872315,10|0,3:2|0:2,0:2:0:0:
99,51,63602,2,0,P|61:48|38:60,1,52.7250012872315,2|0,0:2|0:2,0:2:0:0:
44,195,63773,5,2,3:2:0:0:
46,219,63831,1,2,0:2:0:0:
50,243,63888,1,2,0:2:0:0:
54,267,63945,2,0,L|60:332,1,52.7250012872315,2|0,0:2|0:2,0:2:0:0:
202,372,64116,6,0,B|189:381|189:381|159:369,5,35.1500008581543,10|0|0|0|0|0,3:2|3:2|3:2|3:2|3:2|3:2,3:2:0:0:
263,255,64459,5,2,3:2:0:0:
286,247,64516,1,2,0:2:0:0:
310,247,64573,1,2,0:2:0:0:
334,251,64631,2,0,P|361:257|384:272,1,52.7250012872315,2|2,0:2|0:2,0:2:0:0:
461,332,64802,2,0,L|456:388,3,52.7250012872315,10|2|2|2,3:2|0:2|0:2|0:2,0:2:0:0:
477,205,65145,5,2,3:2:0:0:
490,182,65202,1,2,0:2:0:0:
494,161,65259,1,2,0:2:0:0:
486,135,65316,2,0,L|476:68,1,52.7250012872315,2|0,0:2|0:2,0:2:0:0:
372,142,65488,2,0,L|300:143,3,52.7250012872315,8|2|0|2,3:2|0:2|0:2|0:2,0:2:0:0:
301,32,65831,5,2,3:2:0:0:
259,26,65916,1,2,0:2:0:0:
216,24,66002,2,0,P|203:50|200:83,1,52.7250012872315,2|0,0:2|0:2,0:2:0:0:
186,282,66173,5,10,3:2:0:0:
145,293,66259,1,2,0:2:0:0:
102,296,66345,2,0,P|57:286|33:264,1,52.7250012872315,2|0,0:2|0:2,0:2:0:0:
50,31,66516,5,2,3:2:0:0:
52,52,66602,1,2,0:2:0:0:
54,73,66688,2,0,L|61:153,1,52.7250012872315,2|0,0:2|0:2,0:2:0:0:
128,194,66859,2,0,L|182:186,3,35.625001358986,10|0|2|0,3:2|0:2|0:2|0:2,0:2:0:0:
266,205,67201,6,0,L|261:264,2,50.8249984489441,2|2|2,3:2|0:2|0:2,0:2:0:0:
297,127,67458,2,0,P|272:120|229:130,1,50.8249984489441,0|10,0:2|0:2,0:2:0:0:
478,136,67630,1,0,0:2:0:0:
478,136,67715,6,0,L|488:74,1,50.8249984489441,2|2,3:2|0:2,0:2:0:0:
387,226,67887,1,2,0:2:0:0:
387,226,67973,2,0,L|377:164,1,50.8249984489441,2|2,3:2|0:2,0:2:0:0:
466,326,68144,1,2,0:2:0:0:
466,326,68230,2,0,L|476:264,1,50.8249984489441,10|2,3:2|0:2,0:2:0:0:
481,244,68401,1,2,0:2:0:0:
323,349,68573,6,0,L|256:342,1,50.8249984489441,2|0,3:2|0:2,0:2:0:0:
237,338,68744,1,2,0:2:0:0:
119,249,68915,1,10,0:2:0:0:
119,249,69001,1,2,0:2:0:0:
119,249,69087,6,0,L|110:324,1,50.8249984489441,2|0,3:2|0:2,0:2:0:0:
245,163,69258,1,2,3:2:0:0:
245,163,69344,2,0,L|251:213,1,50.8249984489441,0|2,3:2|0:2,0:2:0:0:
145,58,69515,1,2,0:2:0:0:
145,58,69601,2,0,L|138:108,1,50.8249984489441,10|0,3:2|0:2,0:2:0:0:
135,140,69773,1,2,0:2:0:0:
404,49,69944,5,2,3:2:0:0:
349,174,70115,1,2,0:2:0:0:
345,153,70201,1,2,0:2:0:0:
341,132,70287,2,0,L|330:67,1,50.8249984489441,10|0,0:2|0:0,0:0:0:0:
446,295,70458,6,0,P|421:284|391:284,1,50.8249984489441,2|2,3:2|0:2,0:2:0:0:
272,335,70630,1,2,3:2:0:0:
285,349,70715,2,0,P|310:360|340:360,1,50.8249984489441,2|2,3:2|0:2,0:2:0:0:
216,273,70887,1,2,0:2:0:0:
199,258,70972,6,0,P|174:247|144:247,1,50.8249984489441,10|0,3:2|0:2,0:2:0:0:
35,328,71144,2,0,P|57:311|72:285,1,50.8249984489441,2|0,3:2|0:2,0:2:0:0:
47,145,71315,2,0,P|49:172|64:198,1,50.8249984489441,2|0,3:2|0:2,0:2:0:0:
174,121,71487,5,2,0:2:0:0:
174,121,71573,2,0,L|182:54,1,50.8249984489441,0|8,0:2|3:2,0:2:0:0:
289,180,71744,1,0,0:2:0:0:
289,180,71830,2,0,L|281:113,1,50.8249984489441,2|0,3:2|0:2,0:2:0:0:
398,47,72001,1,2,3:2:0:0:
398,47,72087,1,2,0:2:0:0:
398,47,72173,2,0,P|349:34|331:38,1,50.8249984489441,2|0,0:2|0:0,0:0:0:0:
43,138,72344,6,0,B|38:153|38:153|51:190,1,44.6499993186951,10|2,3:2|0:2,0:2:0:0:
129,304,72687,5,2,3:2:0:0:
280,192,72858,1,2,0:2:0:0:
280,192,72944,1,2,0:2:0:0:
280,192,73030,1,10,0:2:0:0:
163,185,73201,1,2,0:2:0:0:
448,139,73373,5,2,3:2:0:0:
249,71,73544,1,2,0:2:0:0:
249,71,73630,1,2,0:2:0:0:
249,71,73715,1,10,0:2:0:0:
406,42,73887,1,2,0:2:0:0:
463,345,74058,5,2,3:2:0:0:
376,203,74230,1,2,0:2:0:0:
376,203,74315,1,2,0:2:0:0:
376,203,74401,1,10,0:2:0:0:
289,384,74573,1,2,0:2:0:0:
130,341,74744,5,2,3:2:0:0:
338,300,74915,1,2,0:2:0:0:
338,300,75001,1,2,0:2:0:0:
338,300,75087,1,10,0:2:0:0:
244,118,75258,1,2,0:2:0:0:
91,206,75430,6,0,P|84:243|63:266,2,47.5000018119813,0|0|0,3:2|3:2|3:2,3:2:0:0:
65,55,75773,2,0,P|28:62|-3:91,2,66.4999979705811,0|0|0,3:2|3:2|3:2,3:2:0:0:
190,25,76115,5,0,3:2:0:0:
262,38,76230,1,0,3:2:0:0:
295,103,76344,1,0,3:2:0:0:
160,207,76458,5,0,3:2:0:0:
193,119,76573,1,0,3:2:0:0:
270,183,76687,1,0,3:2:0:0:
392,85,76801,5,0,0:2:0:0:
392,85,76887,1,0,0:2:0:0:
392,85,76973,1,0,0:2:0:0:
355,195,77144,1,0,0:2:0:0:
355,195,77230,1,0,0:2:0:0:
355,195,77315,1,0,0:2:0:0:
292,107,77487,1,0,0:2:0:0:
292,107,77573,1,0,0:2:0:0:
292,107,77658,1,0,0:2:0:0:
460,166,77830,6,0,B|457:175|457:175|461:180|461:180|457:185|457:185|459:196|459:196|456:205|456:205|458:212|458:212|456:218|456:218|460:223|460:223|456:230|456:230|459:237|459:237|455:244|455:244|457:255|457:255|452:261|452:261|456:268|456:268|451:276|451:276|454:285|454:285|450:290|450:290|453:296|453:296|450:303|450:303|453:312|453:312|449:319|449:319|451:328|451:328|448:337|448:337|452:348|452:348|447:354|447:354|449:361|449:361|445:368|445:368|449:375|449:375|444:384,1,242.250004620552,6|0,3:2|0:2,0:2:0:0:
352,358,78173,6,0,P|323:347|242:359,1,80.750001540184,2|0,3:2|0:2,0:2:0:0:
91,374,78344,5,2,0:2:0:0:
91,374,78430,1,2,0:2:0:0:
91,374,78515,2,0,P|115:354|145:278,1,80.750001540184,2|2,3:2|0:2,0:2:0:0:
168,124,78687,5,2,0:2:0:0:
168,124,78773,1,2,0:2:0:0:
168,124,78858,2,0,P|172:154|223:218,1,80.750001540184,2|0,3:2|0:2,0:2:0:0:
416,125,79115,5,2,0:2:0:0:
426,166,79201,5,2,3:2:0:0:
426,166,79287,2,0,L|479:175,4,40.375000770092,2|2|0|2|0,3:2|3:2|3:2|3:2|3:2,3:2:0:0:
311,123,79544,5,2,3:2:0:0:
311,123,79630,1,2,0:2:0:0:
311,123,79715,2,0,L|320:42,1,80.750001540184,2|0,0:2|0:2,0:2:0:0:
176,204,79887,5,2,3:2:0:0:
176,204,79973,1,2,0:2:0:0:
176,204,80058,2,0,L|165:101,1,80.750001540184,2|2,0:2|0:2,0:2:0:0:
317,278,80230,6,0,B|310:282|310:282|303:275|303:275|296:281|296:281|290:275|290:275|282:282|282:282|273:275|273:275|265:282|265:282|254:276|254:276|247:283|247:283|240:279|240:279|236:288|236:288|226:284|226:284|213:294|213:294|202:287|202:287|196:294|196:294|179:288|179:288|177:296|177:296|167:290|167:290|167:299|167:299|155:291|155:291|151:302|151:302|139:294|139:294|135:303|135:303|121:296|121:296|116:306|116:306|106:299|106:299|106:311|106:311|90:303|90:303|91:318|91:318|73:312|73:312|70:324|70:324|57:318|57:318|51:329|51:329|46:323|46:323|40:338|40:338|26:331|26:331|24:343|24:343|4:345,1,427.500016307831,10|0,3:0|0:2,0:2:0:0:
165,375,80573,6,0,B|176:370|176:370|175:355|175:355|187:356|187:356|186:340|186:340|197:346|197:346|193:333|193:333|201:325|201:325|198:318|198:318|206:308|206:308|202:297|202:297|208:291|208:291|199:281|199:281|202:275|202:275|195:265|195:265|200:258|200:258|193:252|193:252|195:242|195:242|187:237|187:237|181:229|181:229|178:218|178:218|169:214|169:214|168:206|168:206|156:205|156:205|150:196|150:196|139:194|139:194|130:187|130:187|119:185|119:185|108:177|108:177|98:181|98:181|87:174|87:174|78:181|78:181|72:174|72:174|65:181|65:181|56:175|56:175|52:183|52:183|44:180|44:180|41:189|41:189|32:186|32:186|24:190|24:190|12:190,1,427.500016307831,6|0,3:0|0:2,0:2:0:0:
17,77,80915,6,0,B|60:66|60:66|92:82,1,80.750001540184,2|0,3:2|0:2,0:2:0:0:
280,170,81086,5,2,0:2:0:0:
280,170,81172,1,2,0:2:0:0:
280,170,81258,2,0,B|238:155|238:155|215:118,1,80.750001540184,2|0,3:2|0:2,0:2:0:0:
411,37,81430,5,2,0:2:0:0:
411,37,81516,1,2,0:2:0:0:
411,37,81602,2,0,B|419:80|419:80|401:112,1,80.750001540184,2|0,3:2|0:2,0:2:0:0:
459,206,81858,5,2,0:2:0:0:
471,169,81944,5,2,3:2:0:0:
471,169,82030,2,0,L|529:162,4,40.375000770092,2|2|0|2|0,3:2|3:2|3:2|3:2|3:2,3:2:0:0:
395,323,82287,5,2,3:2:0:0:
395,323,82373,1,2,0:2:0:0:
395,323,82458,2,0,P|355:336|299:323,1,80.750001540184,2|0,0:2|0:2,0:2:0:0:
169,224,82630,5,2,3:2:0:0:
169,224,82716,1,2,0:2:0:0:
169,224,82801,2,0,P|209:211|265:224,1,80.750001540184,2|2,0:2|0:2,0:2:0:0:
45,317,82973,6,0,B|81:352|81:352|68:251|68:251|62:255|62:255|56:165|56:165|94:218,1,285,6|0,3:0|0:0,0:0:0:0:
172,305,83315,6,0,P|350:332|459:318,1,285,10|0,3:0|0:2,0:2:0:0:
359,242,83658,5,2,3:2:0:0:
359,242,83744,1,2,0:2:0:0:
359,242,83830,2,0,B|346:198|346:198|355:163,1,80.750001540184,2|0,0:2|0:2,0:2:0:0:
490,106,84001,5,2,3:2:0:0:
490,106,84087,1,2,0:2:0:0:
490,106,84173,2,0,B|503:62|503:62|494:27,1,80.750001540184,2|0,0:2|0:2,0:2:0:0:
249,56,84344,5,2,3:2:0:0:
334,25,84430,2,0,L|385:17,4,40.375000770092,2|2|0|2|0,3:2|3:2|3:2|3:2|3:2,3:2:0:0:
249,56,84687,5,2,3:2:0:0:
159,21,84773,2,0,L|108:13,4,40.375000770092,2|2|2|2|2,3:2|3:2|3:2|3:2|3:2,3:2:0:0:
46,120,85030,5,2,3:2:0:0:
46,120,85115,1,2,0:2:0:0:
46,120,85201,2,0,L|56:219,1,80.750001540184,2|0,0:2|0:2,0:2:0:0:
142,351,85373,5,2,3:2:0:0:
142,351,85458,1,2,0:2:0:0:
142,351,85544,2,0,L|152:252,1,80.750001540184,2|0,0:2|0:2,0:2:0:0:
188,143,85715,6,0,B|195:138|195:138|202:145|202:145|209:139|209:139|214:145|214:145|223:138|223:138|232:145|232:145|240:138|240:138|252:144|252:144|259:137|259:137|266:141|266:141|270:132|270:132|280:135|280:135|293:126|293:126|305:133|305:133|311:126|311:126|328:132|328:132|331:124|331:124|341:130|341:130|341:120|341:120|353:128|353:128|355:118|355:118|369:126|369:126|374:117|374:117|388:124|388:124|393:113|393:113|403:120|403:120|403:108|403:108|420:117|420:117|419:101|419:101|430:111|430:111|435:97|435:97|449:105|449:105|457:92|457:92|467:99|467:99|470:89|470:89|481:92|481:92|484:82|484:82|508:91,1,427.500016307831,10|0,3:0|0:2,0:2:0:0:
338,24,86058,6,0,B|326:28|326:28|327:43|327:43|314:42|314:42|315:59|315:59|305:53|305:53|308:66|308:66|300:74|300:74|303:81|303:81|295:92|295:92|299:103|299:103|293:109|293:109|302:120|302:120|299:126|299:126|306:136|306:136|301:143|301:143|308:149|308:149|306:160|306:160|314:164|314:164|321:172|321:172|323:184|323:184|333:188|333:188|334:196|334:196|346:197|346:197|353:206|353:206|363:209|363:209|373:216|373:216|384:218|384:218|395:226|395:226|406:222|406:222|417:229|417:229|427:222|427:222|433:229|433:229|440:222|440:222|449:228|449:228|452:219|452:219|461:223|461:223|464:214|464:214|474:217|474:217|482:212|482:212|494:212,1,427.500016307831,6|0,3:0|0:2,0:2:0:0:
423,350,86401,5,2,3:2:0:0:
423,350,86487,1,2,0:2:0:0:
423,350,86573,2,0,P|376:355|326:327,1,80.750001540184,2|2,0:2|0:2,0:2:0:0:
220,234,86744,5,2,3:2:0:0:
220,234,86830,1,2,0:2:0:0:
220,234,86916,2,0,P|267:239|317:211,1,80.750001540184,2|0,0:2|0:2,0:2:0:0:
377,130,87087,5,2,3:2:0:0:
325,57,87173,2,0,L|300:11,4,40.375000770092,2|2|2|2|2,3:2|3:2|3:2|3:2|3:2,3:2:0:0:
377,130,87430,5,2,3:2:0:0:
429,57,87516,2,0,L|454:11,4,40.375000770092,2|2|2|2|2,3:2|3:2|3:2|3:2|3:2,3:2:0:0:
456,234,87773,5,2,0:2:0:0:
336,319,88030,5,2,0:2:0:0:
253,200,88287,5,2,0:2:0:0:
377,130,88544,5,2,0:2:0:0:
355,221,88801,5,2,0:2:0:0:
253,200,88973,5,2,0:2:0:0:
134,64,89144,5,2,3:2:0:0:
158,59,89201,1,2,0:2:0:0:
182,53,89258,1,2,0:2:0:0:
206,49,89315,2,0,L|272:35,1,52.7250012872315,2|0,0:2|0:2,0:2:0:0:
417,106,89487,2,0,P|418:126|415:143,1,35.625001358986,10|0,3:2|0:2,0:2:0:0:
319,133,89658,2,0,P|317:115|320:97,1,35.625001358986,2|2,0:2|0:2,0:2:0:0:
379,248,89830,5,2,3:2:0:0:
355,243,89887,1,2,0:2:0:0:
331,238,89944,1,2,0:2:0:0:
307,233,90001,2,0,L|241:219,1,52.7250012872315,2|0,0:2|0:2,0:2:0:0:
70,280,90173,2,0,P|69:300|72:317,1,35.625001358986,10|0,3:2|0:2,0:2:0:0:
168,307,90344,2,0,P|169:289|166:271,1,35.625001358986,2|2,0:2|0:2,0:2:0:0:
89,138,90515,6,0,B|72:109|76:81|76:81|93:83,1,71.7249991791725,2|0,3:2|0:2,0:2:0:0:
260,98,90687,2,0,B|277:69|273:41|273:41|256:43,1,71.7249991791725,2|0,0:2|0:2,0:2:0:0:
27,99,90858,2,0,B|18:66|29:40|29:40|45:46,1,71.7249991791725,10|0,3:2|0:2,0:2:0:0:
320,68,91030,2,0,B|328:35|317:9|317:9|301:15,1,71.7249991791725,2|0,0:2|0:2,0:2:0:0:
132,212,91201,5,2,3:2:0:0:
128,243,91287,1,2,3:2:0:0:
124,274,91373,2,0,L|119:316,2,26.3625006436157,2|0|0,3:2|3:2|3:2,3:2:0:0:
183,367,91544,6,0,B|202:377|202:377|224:372,6,35.625001358986,10|0|0|0|0|0|0,3:2|3:2|3:2|3:2|3:2|3:2|3:2,0:2:0:0:
388,324,91887,5,2,3:2:0:0:
386,299,91944,1,2,0:2:0:0:
384,274,92001,1,2,0:2:0:0:
382,249,92058,2,0,L|376:196,1,52.7250012872315,2|0,0:2|0:2,0:2:0:0:
220,76,92230,2,0,P|218:97|223:115,1,35.625001358986,10|2,3:2|0:2,0:2:0:0:
321,102,92401,2,0,P|323:81|318:63,1,35.625001358986,2|2,0:2|0:2,0:2:0:0:
65,44,92573,5,2,3:2:0:0:
67,69,92630,1,2,0:2:0:0:
69,94,92687,1,2,0:2:0:0:
71,119,92744,2,0,L|76:187,1,52.7250012872315,2|0,0:2|0:2,0:2:0:0:
127,357,92915,2,0,P|148:359|166:354,1,35.625001358986,10|2,3:2|0:2,0:2:0:0:
153,256,93087,2,0,P|132:254|114:259,1,35.625001358986,2|2,0:2|0:2,0:2:0:0:
270,282,93258,5,2,3:2:0:0:
299,269,93315,1,2,3:2:0:0:
331,268,93373,1,2,3:2:0:0:
358,283,93430,2,0,B|387:292|387:292|416:285,1,52.7250012872315,2|0,3:2|0:2,0:2:0:0:
481,96,93601,5,10,3:2:0:0:
451,77,93658,1,2,3:2:0:0:
415,75,93716,1,2,3:2:0:0:
383,90,93773,2,0,B|356:100|356:100|325:92,1,52.7250012872315,2|0,3:2|0:2,0:2:0:0:
91,121,93944,6,0,B|79:68|120:42|120:42|153:48|185:77|195:160|143:220,1,285,6|0,3:0|0:2,0:2:0:0:
23,313,94287,6,0,P|216:281|452:299,1,356.25,10|0,3:0|0:2,0:2:0:0:
457,155,94630,5,2,3:2:0:0:
436,159,94687,1,2,0:2:0:0:
416,166,94744,1,2,0:2:0:0:
397,176,94801,2,0,P|360:210|352:230,1,52.7250012872315,2|0,0:2|0:2,0:2:0:0:
471,325,94973,2,0,L|475:282,1,35.625001358986,10|0,3:2|0:2,0:2:0:0:
361,349,95144,2,0,L|364:384,1,35.625001358986,2|2,0:2|0:2,0:2:0:0:
231,358,95315,5,2,3:2:0:0:
225,337,95373,1,2,0:2:0:0:
223,316,95430,1,2,0:2:0:0:
225,295,95487,2,0,P|227:255|239:227,1,52.7250012872315,2|0,0:2|0:2,0:2:0:0:
305,116,95658,2,0,P|334:103|356:103,1,35.625001358986,10|2,3:2|0:2,0:2:0:0:
397,176,95830,2,0,P|381:185|364:189,1,35.625001358986,2|2,0:2|0:2,0:2:0:0:
86,89,96001,6,0,P|50:62|32:31,1,71.2500027179719,2|0,3:2|0:2,0:2:0:0:
187,155,96173,2,0,P|223:182|241:213,1,71.2500027179719,2|0,0:2|0:2,0:2:0:0:
115,65,96344,2,0,P|101:22|105:-13,1,71.2500027179719,10|0,3:2|0:2,0:2:0:0:
157,178,96516,2,0,P|171:221|167:257,1,71.2500027179719,2|0,0:2|0:2,0:2:0:0:
242,50,96687,5,2,3:2:0:0:
262,48,96744,1,2,0:2:0:0:
283,47,96801,1,2,0:2:0:0:
303,44,96858,2,0,L|384:37,1,52.7250012872315,2|0,0:2|0:2,0:2:0:0:
463,153,97030,6,0,B|483:161|483:161|501:152,6,35.625001358986,10|0|0|0|0|0|0,3:2|3:2|3:2|3:2|3:2|3:2|3:2,3:2:0:0:
449,276,97373,5,2,3:2:0:0:
432,288,97430,1,2,0:2:0:0:
412,290,97487,1,2,0:2:0:0:
392,285,97544,2,0,P|367:272|351:255,1,52.7250012872315,2|0,0:2|0:2,0:2:0:0:
233,181,97715,2,0,P|237:202|231:231,1,35.625001358986,10|0,3:2|0:2,0:2:0:0:
201,344,97887,2,0,P|197:323|179:299,1,35.625001358986,2|2,0:2|0:2,0:2:0:0:
89,228,98058,5,2,3:2:0:0:
65,202,98115,1,2,0:2:0:0:
54,167,98173,1,2,0:2:0:0:
59,132,98230,2,0,P|65:99|89:67,1,52.7250012872315,2|0,0:2|0:2,0:2:0:0:
286,15,98401,2,0,P|291:36|291:52,1,35.625001358986,10|0,3:2|0:0,3:0:0:0:
187,68,98573,2,0,P|182:50|181:33,1,35.625001358986,2|2,0:2|0:0,0:0:0:0:
308,194,98744,5,2,3:2:0:0:
288,201,98801,1,2,3:2:0:0:
267,204,98858,1,2,3:2:0:0:
246,202,98915,2,0,P|214:196|174:174,1,52.7250012872315,2|0,3:2|0:2,0:2:0:0:
363,110,99087,5,10,3:2:0:0:
383,103,99144,1,2,3:2:0:0:
404,100,99201,1,2,3:2:0:0:
425,102,99258,2,0,P|457:108|497:130,1,52.7250012872315,2|0,3:2|0:2,0:2:0:0:
427,245,99430,5,2,3:2:0:0:
427,245,99516,1,2,0:2:0:0:
427,245,99601,2,0,L|354:235,1,52.7250012872315,2|0,0:2|0:2,0:2:0:0:
201,295,99773,5,10,3:2:0:0:
201,295,99859,1,2,0:2:0:0:
201,295,99944,2,0,L|274:305,1,52.7250012872315,2|0,0:2|0:2,0:2:0:0:
176,91,100115,6,0,B|164:53|126:49|126:49|28:106,1,158.175003861694,2|2,3:2|3:2,3:2:0:0:
37,256,100630,1,2,0:2:0:0:
116,163,100887,1,2,0:2:0:0:
174,342,101144,1,2,0:2:0:0:
364,213,101487,6,0,L|240:200,1,106.875004076958,2|2,3:2|3:2,3:2:0:0:
354,314,102001,1,2,0:2:0:0:
442,272,102258,1,2,0:2:0:0:
463,183,102515,1,2,0:2:0:0:
