osu file format v14

[General]
AudioFilename: audio.mp3
AudioLeadIn: 0
PreviewTime: 54859
Countdown: 0
SampleSet: Soft
StackLeniency: 0.7
Mode: 0
LetterboxInBreaks: 0
WidescreenStoryboard: 1

[Editor]
Bookmarks: 17830,43887,54858,67201,78173
DistanceSpacing: 0.7
BeatDivisor: 4
GridSize: 32
TimelineZoom: 2.3

[Metadata]
Title:Arrogation (Cut Ver.)
TitleUnicode:Arrogation (Cut Ver.)
Artist:A?
ArtistUnicode:あ?
Creator:OneShotFox
Version:Insane
Source:
Tags:aquestion hardpsy hardstyle ocutechno techno electronic instrumental 人體解剖 市大テクノ部 hardcore a ducky- ducky
BeatmapID:2784599
BeatmapSetID:1311422

[Difficulty]
HPDrainRate:4.5
CircleSize:4
OverallDifficulty:8.3
ApproachRate:9.1
SliderMultiplier:1.7
SliderTickRate:1

[Events]
//Background and Video events
0,0,"EfECmevUcAsOaIk.jpg",0,0
//Break Periods
//Storyboard Layer 0 (Background)
//Storyboard Layer 1 (Fail)
//Storyboard Layer 2 (Pass)
//Storyboard Layer 3 (Foreground)
//Storyboard Layer 4 (Overlay)
//Storyboard Sound Samples

[TimingPoints]
1373,342.857142857143,4,2,1,50,1,0
23315,-100,4,2,1,50,0,0
33944,-66.6666666666667,4,2,1,80,0,0
34287,-76.9230769230769,4,2,1,65,0,0
42515,-133.333333333333,4,2,2,60,0,0
42858,-95.2380952380951,4,2,2,60,0,0
43200,-68.9655172413793,4,2,2,65,0,0
43543,-54.054054054054,4,2,2,70,0,0
44230,-100,4,2,2,70,0,0
44915,-100,4,2,1,80,0,0
45172,-100,4,2,1,5,0,0
45258,-100,4,2,1,65,0,0
47315,-57.1428571428571,4,2,2,65,0,0
47572,-57.1428571428571,4,2,2,5,0,0
47658,-50,4,2,2,65,0,0
47915,-50,4,2,2,5,0,0
48001,-100,4,2,1,65,0,0
50058,-66.6666666666667,4,2,2,65,0,0
50315,-66.6666666666667,4,2,2,5,0,0
50401,-50,4,2,2,65,0,0
50658,-50,4,2,2,5,0,0
50744,-100,4,2,1,65,0,0
52801,-57.1428571428571,4,2,2,65,0,0
53058,-57.1428571428571,4,2,2,5,0,0
53144,-50,4,2,2,65,0,0
53401,-50,4,2,2,5,0,0
53487,-100,4,2,1,65,0,0
56230,-66.6666666666667,4,2,2,70,0,1
58630,-90.0900900900901,4,2,2,70,0,1
58687,-90.0900900900901,4,2,1,70,0,1
58973,-66.6666666666667,4,2,2,70,0,1
60401,-90.0900900900901,4,2,1,70,0,1
60687,-90.0900900900901,4,2,2,70,0,1
60744,-90.0900900900901,4,2,1,70,0,1
61030,-57.1428571428571,4,2,2,70,0,1
61287,-57.1428571428571,4,2,2,5,0,1
61373,-50,4,2,2,80,0,0
61630,-50,4,2,2,5,0,0
61715,-66.6666666666667,4,2,2,70,0,1
64115,-90.0900900900901,4,2,2,70,0,1
64158,-90.0900900900901,4,2,1,70,0,1
64458,-66.6666666666667,4,2,2,70,0,1
66858,-133.333333333333,4,2,2,70,0,1
67201,-90.9090909090909,4,2,1,55,0,0
72344,-90.9090909090909,4,2,2,80,0,0
72687,-100,4,2,1,65,0,0
73373,-90.9090909090909,4,2,1,65,0,0
74058,-76.9230769230769,4,2,1,65,0,0
74744,-66.6666666666667,4,2,1,65,0,0
75430,-125,4,2,2,60,0,0
75773,-90.9090909090909,4,2,2,60,0,0
76115,-76.9230769230769,4,2,2,65,0,0
76458,-66.6666666666667,4,2,2,70,0,0
76801,-66.6666666666667,4,2,2,70,0,0
77144,-100,4,2,2,70,0,0
77830,-90.9090909090909,4,2,2,80,0,0
78087,-90.9090909090909,4,2,2,5,0,0
78173,-83.3333333333333,4,2,2,80,0,0
79287,-90.9090909090909,4,2,1,70,0,0
79544,-90.9090909090909,4,2,2,70,0,0
80230,-66.6666666666667,4,2,2,70,0,0
80487,-66.6666666666667,4,2,2,5,0,0
80573,-71.4285714285714,4,2,2,70,0,0
80830,-71.4285714285714,4,2,2,5,0,0
80915,-90.9090909090909,4,2,2,70,0,0
82030,-90.9090909090909,4,2,1,70,0,0
82287,-90.9090909090909,4,2,2,70,0,0
82973,-66.6666666666667,4,2,2,70,0,0
83230,-66.6666666666667,4,2,2,5,0,0
83315,-66.6666666666667,4,2,2,70,0,0
83572,-66.6666666666667,4,2,2,5,0,0
83658,-90.9090909090909,4,2,2,70,0,0
84430,-90.9090909090909,4,2,1,70,0,0
84687,-90.9090909090909,4,2,2,70,0,0
84773,-90.9090909090909,4,2,1,70,0,0
85030,-90.9090909090909,4,2,2,70,0,0
85715,-66.6666666666667,4,2,2,70,0,0
85972,-66.6666666666667,4,2,2,5,0,0
86058,-71.4285714285714,4,2,2,70,0,0
86315,-71.4285714285714,4,2,2,5,0,0
86401,-90.9090909090909,4,2,2,70,0,0
87173,-90.9090909090909,4,2,1,70,0,0
87430,-90.9090909090909,4,2,2,70,0,0
87515,-90.9090909090909,4,2,1,70,0,0
87773,-90.9090909090909,4,2,2,60,0,0
89144,-57.1428571428571,4,2,2,80,0,1
91415,-57.1428571428571,4,2,1,80,0,1
91544,-90.9090909090909,4,2,2,80,0,1
91587,-90.9090909090909,4,2,1,80,0,1
91887,-57.1428571428571,4,2,2,80,0,1
93258,-90.9090909090909,4,2,2,80,0,1
93315,-90.9090909090909,4,2,1,80,0,1
93601,-90.9090909090909,4,2,2,80,0,1
93658,-90.9090909090909,4,2,1,80,0,1
93944,-57.1428571428571,4,2,2,80,0,1
94201,-57.1428571428571,4,2,2,5,0,1
94287,-50,4,2,2,80,0,0
94544,-50,4,2,2,5,0,0
94630,-57.1428571428571,4,2,2,80,0,1
97030,-90.9090909090909,4,2,2,80,0,1
97073,-90.9090909090909,4,2,1,80,0,1
97373,-57.1428571428571,4,2,2,80,0,1
98744,-83.3333333333333,4,2,2,80,0,1
98801,-90.9090909090909,4,2,1,80,0,1
99087,-90.9090909090909,4,2,2,80,0,1
99144,-90.9090909090909,4,2,1,80,0,1
99430,-90.9090909090909,4,2,2,80,0,1
100115,-111.111111111111,4,2,1,60,0,0
101487,-111.111111111111,4,2,1,50,0,0
101744,-111.111111111111,4,2,1,40,0,0
102001,-111.111111111111,4,2,1,30,0,0
102258,-111.111111111111,4,2,1,20,0,0
102515,-111.111111111111,4,2,1,15,0,0

[Colours]
Combo1 : 155,155,155
Combo2 : 55,129,189
Combo3 : 208,213,51

[HitObjects]
256,192,17830,12,0,21944,3:2:0:0:
78,306,23315,6,0,P|122:278|208:280,1,127.5,2|2,3:2|3:2,0:2:0:0:
309,354,23830,1,2,3:2:0:0:
319,265,24087,1,2,3:2:0:0:
375,196,24344,1,10,0:2:0:0:
259,37,24687,6,0,L|274:174,1,127.5,2|2,3:2|3:2,0:2:0:0:
156,103,25201,1,2,3:2:0:0:
110,26,25458,1,2,3:2:0:0:
21,16,25715,1,10,0:2:0:0:
9,213,26058,6,0,P|59:201|147:221,1,127.5,2|2,3:2|3:2,0:2:0:0:
268,307,26573,1,2,3:2:0:0:
309,213,26830,1,2,3:2:0:0:
243,120,27087,5,10,0:2:0:0:
208,26,27258,1,10,0:2:0:0:
368,111,27430,1,2,3:2:0:0:
443,33,27687,1,2,3:2:0:0:
499,132,27944,1,2,3:2:0:0:
434,226,28201,1,2,3:2:0:0:
478,335,28458,1,10,0:2:0:0:
365,358,28801,6,0,B|329:341|329:341|211:367,1,127.5,2|2,3:2|0:2,0:2:0:0:
79,259,29315,1,2,3:2:0:0:
134,359,29573,1,2,3:2:0:0:
218,280,29830,1,10,0:2:0:0:
30,115,30173,6,0,P|85:93|165:100,1,127.5,2|2,3:2|3:2,0:2:0:0:
271,193,30687,1,2,3:2:0:0:
271,78,30944,1,2,3:2:0:0:
175,14,31201,1,10,3:2:0:0:
392,189,31544,6,0,L|410:54,1,127.5,2|2,3:2|3:2,0:2:0:0:
503,190,32058,1,2,3:2:0:0:
440,286,32315,1,2,3:2:0:0:
324,290,32573,5,10,3:2:0:0:
375,357,32744,1,2,3:2:0:0:
383,213,32915,1,2,3:2:0:0:
274,173,33173,1,2,3:2:0:0:
187,248,33430,1,2,3:2:0:0:
97,191,33601,1,0,0:0:0:0:
97,191,33687,2,0,L|40:202,2,42.5,2|2|0,0:2|3:2|3:2,0:0:0:0:
119,150,33944,6,0,B|129:131|129:131|114:71,1,63.7500024318696,8|0,3:2|0:2,0:2:0:0:
362,89,34287,5,2,3:2:0:0:
332,202,34458,1,2,0:2:0:0:
461,129,34630,2,0,L|449:10,1,110.499994941712,2|2,3:2|0:2,0:2:0:0:
446,243,34973,5,2,3:2:0:0:
442,275,35058,1,2,0:2:0:0:
438,308,35144,1,2,0:2:0:0:
329,297,35315,1,2,3:2:0:0:
325,329,35400,1,2,0:2:0:0:
321,362,35486,1,2,0:2:0:0:
109,330,35658,5,2,3:2:0:0:
224,303,35830,1,2,0:2:0:0:
65,328,36001,2,0,L|55:388,3,55.2499974708558,2|2|2|2,3:2|0:2|0:2|0:2,0:0:0:0:
116,206,36344,2,0,P|109:129|100:80,1,110.499994941712,2|2,3:2|0:2,0:2:0:0:
83,72,36601,1,2,0:2:0:0:
83,72,36687,1,2,3:2:0:0:
26,166,36859,1,2,0:2:0:0:
226,123,37030,5,2,3:2:0:0:
235,148,37115,1,2,0:2:0:0:
244,174,37201,1,2,0:2:0:0:
252,200,37287,1,2,0:2:0:0:
259,226,37373,2,0,P|285:215|321:212,1,55.2499974708558,2|2,3:2|0:2,0:2:0:0:
418,185,37544,2,0,P|384:165|368:136,1,55.2499974708558,2|0,0:2|0:0,0:0:0:0:
427,0,37715,2,0,P|447:51|450:110,1,110.499994941712,2|2,3:2|0:2,0:2:0:0:
311,211,38058,1,2,3:2:0:0:
363,70,38230,1,2,0:2:0:0:
479,273,38401,6,0,L|468:394,1,110.499994941712,2|2,3:2|0:2,0:2:0:0:
431,384,38658,1,2,0:2:0:0:
431,384,38744,1,2,3:2:0:0:
235,384,38915,1,2,0:2:0:0:
244,357,39001,1,2,0:2:0:0:
252,331,39087,2,0,P|261:300|275:268,1,55.2499974708558,2|2,3:2|0:2,0:0:0:0:
169,170,39258,2,0,P|180:196|186:222,1,55.2499974708558,2|2,0:2|0:2,0:0:0:0:
71,350,39430,6,0,B|33:353|33:353|10:368,3,55.2499974708558,2|2|2|2,3:2|3:2|3:2|3:2,3:2:0:0:
110,341,39773,6,0,P|100:282|87:213,1,110.499994941712,0|2,0:2|0:2,0:0:0:0:
66,214,40030,1,2,0:2:0:0:
66,214,40115,1,10,3:2:0:0:
80,111,40287,1,2,0:2:0:0:
235,30,40458,6,0,B|213:48|213:48|231:130,1,110.499994941712,2|2,3:2|0:2,0:0:0:0:
249,151,40715,1,2,0:2:0:0:
249,151,40801,1,10,3:2:0:0:
352,56,40973,1,2,0:2:0:0:
473,178,41144,6,0,P|419:186|375:242,1,110.499994941712,2|2,3:2|0:2,0:0:0:0:
385,254,41401,1,2,0:2:0:0:
385,254,41487,1,10,3:2:0:0:
500,359,41658,1,2,0:2:0:0:
321,360,41830,6,0,L|193:372,1,110.499994941712,2|2,3:2|0:2,0:0:0:0:
182,376,42087,1,2,0:2:0:0:
182,376,42173,1,10,3:2:0:0:
0,282,42344,1,2,0:2:0:0:
130,179,42515,6,0,L|121:137,2,42.5000016212464,2|2|2,3:2|3:2|3:2,3:2:0:0:
243,216,42858,6,0,L|261:293,2,59.4999981842042,2|2|2,3:2|3:2|3:2,3:2:0:0:
309,115,43201,6,0,L|286:32,2,82.1666691741944,0|0|0,3:0|3:0|3:0,0:0:0:0:
429,146,43544,6,0,L|458:261,2,104.833332933426,0|0|0,3:0|3:0|3:0,0:0:0:0:
444,16,43887,5,0,0:2:0:0:
444,16,43973,1,0,0:2:0:0:
444,16,44058,1,0,0:2:0:0:
344,104,44230,2,0,P|342:128|347:159,2,42.5,0|0|0,0:2|0:2|0:2,0:0:0:0:
226,5,44573,5,0,0:2:0:0:
226,5,44658,1,0,0:2:0:0:
226,5,44744,2,0,P|191:8|171:21,1,42.5,0|0,0:2|0:0,0:0:0:0:
48,131,44915,2,0,B|29:156|29:156|71:165|85:134|158:148,1,127.5,6|0,3:2|0:0,0:2:0:0:
155,151,45258,5,2,3:2:0:0:
161,121,45344,1,2,0:2:0:0:
156,91,45430,1,2,0:2:0:0:
54,235,45601,5,2,3:2:0:0:
49,265,45687,1,2,0:2:0:0:
55,295,45773,1,2,0:2:0:0:
186,369,45944,6,0,B|209:360|209:360|207:330,1,42.5,2|2,3:2|0:2,0:2:0:0:
328,315,46201,1,2,0:2:0:0:
337,323,46287,1,2,3:2:0:0:
337,323,46373,2,0,L|375:329,4,21.25,2|2|2|2|2,0:2|0:2|0:2|0:2|0:2,0:0:0:0:
305,281,46630,5,2,3:2:0:0:
294,251,46715,1,2,0:2:0:0:
290,222,46801,1,2,0:2:0:0:
370,159,46973,5,2,3:2:0:0:
380,130,47058,1,2,0:2:0:0:
384,100,47144,1,2,0:2:0:0:
255,43,47315,6,0,B|154:56|105:12|105:12|121:44|106:89,1,223.125002127886,10|0,3:0|0:0,0:0:0:0:
29,84,47658,6,0,P|122:55|115:192,1,255,6|0,3:0|0:0,0:0:0:0:
27,203,48001,5,2,3:2:0:0:
17,240,48087,1,2,0:2:0:0:
19,278,48173,1,2,0:2:0:0:
119,384,48344,5,2,3:2:0:0:
129,347,48430,1,2,0:2:0:0:
127,309,48516,1,2,0:2:0:0:
230,368,48687,6,0,B|241:376|241:376|289:362,1,42.5,2|2,3:2|0:2,0:2:0:0:
303,260,48944,1,2,0:2:0:0:
420,323,49115,2,0,L|416:357,4,21.25,2|2|2|2|2,0:2|0:2|0:2|0:2|0:2,0:2:0:0:
442,300,49373,5,2,3:2:0:0:
438,266,49458,1,2,0:2:0:0:
433,232,49544,1,2,0:0:0:0:
477,140,49715,5,2,3:2:0:0:
481,106,49800,1,2,0:2:0:0:
486,72,49886,1,2,0:0:0:0:
327,62,50058,6,0,B|257:49|192:82|193:134|193:134|203:122|226:120,1,191.250007295609,6|0,3:0|0:0,0:0:0:0:
263,177,50401,6,0,P|179:216|172:60,1,255,10|0,3:0|0:0,0:0:0:0:
17,31,50744,5,2,3:2:0:0:
19,60,50830,1,2,0:2:0:0:
20,89,50915,1,2,0:2:0:0:
68,170,51087,5,2,3:2:0:0:
66,199,51173,1,2,0:2:0:0:
65,228,51258,1,2,0:2:0:0:
52,330,51430,5,2,3:2:0:0:
52,330,51515,2,0,L|20:337,4,21.25,2|2|2|2|2,0:2|0:2|0:2|0:2|0:2,0:2:0:0:
163,348,51773,5,2,3:2:0:0:
163,348,51858,2,0,L|140:372,4,21.25,2|2|2|2|2,0:2|0:2|0:2|0:2|0:2,0:2:0:0:
271,303,52115,5,2,3:2:0:0:
299,295,52201,1,2,0:2:0:0:
324,279,52287,1,2,0:2:0:0:
209,152,52458,5,2,3:2:0:0:
238,153,52544,1,2,0:2:0:0:
266,163,52630,1,2,0:2:0:0:
353,87,52801,6,0,B|392:82|416:60|416:60|372:147|383:232,1,223.125002127886,10|0,3:0|0:0,0:0:0:0:
472,158,53144,6,0,B|406:142|406:142|350:175|350:175|343:173|343:173|341:181|341:181|292:212|292:212|202:186,1,255,6|0,3:0|0:0,0:0:0:0:
197,111,53487,5,2,3:2:0:0:
168,101,53573,1,2,0:2:0:0:
138,102,53658,1,2,0:2:0:0:
29,51,53829,5,2,3:2:0:0:
56,39,53915,1,2,0:2:0:0:
85,33,54001,1,2,0:2:0:0:
213,21,54173,5,2,3:2:0:0:
213,21,54258,2,0,L|210:-17,4,21.25,2|2|2|2|2,0:2|0:2|0:2|0:2|0:2,0:2:0:0:
235,137,54515,5,2,3:2:0:0:
235,137,54601,2,0,L|248:172,4,21.25,2|2|2|2|2,0:2|0:2|0:2|0:2|0:2,0:2:0:0:
341,76,54858,6,0,P|422:85|479:131,2,127.5,2|2|2,0:2|0:2|0:2,0:0:0:0:
223,231,55630,1,2,0:2:0:0:
374,165,55887,1,2,0:2:0:0:
411,260,56058,1,2,0:2:0:0:
364,363,56230,6,0,B|330:383|330:383|216:371,1,127.500004863739,2|2,3:2|0:2,0:0:0:0:
139,346,56573,1,10,3:2:0:0:
139,346,56658,1,2,0:2:0:0:
139,346,56744,1,2,0:2:0:0:
90,152,56915,6,0,P|31:190|66:244,1,127.500004863739,2|2,3:2|0:2,0:0:0:0:
156,257,57258,1,10,3:2:0:0:
156,257,57344,1,2,0:2:0:0:
156,257,57430,1,2,0:2:0:0:
272,130,57601,5,2,3:2:0:0:
149,50,57772,2,8,P|121:34|90:25,1,63.7500024318696,2|2,0:2|0:2,0:2:0:0:
272,48,57944,5,10,3:2:0:0:
149,128,58115,2,0,P|121:143|90:152,1,63.7500024318696,2|2,0:2|0:2,0:2:0:0:
255,211,58287,1,2,3:2:0:0:
301,222,58372,1,2,0:2:0:0:
347,212,58458,1,2,0:2:0:0:
385,184,58544,1,0,0:2:0:0:
408,142,58630,6,0,P|395:135|376:117,6,23.5875005758667,10|0|0|0|2|0|0,3:2|3:0|3:0|3:0|3:2|3:0|3:2,3:0:0:0:
489,224,58973,6,0,P|471:298|479:381,1,127.500004863739,2|2,3:2|0:2,0:0:0:0:
375,384,59315,1,10,3:2:0:0:
375,384,59401,1,2,0:2:0:0:
375,384,59487,1,2,0:2:0:0:
170,281,59658,6,0,P|167:346|236:328,1,127.500004863739,2|2,3:2|0:2,0:0:0:0:
280,266,60001,1,10,3:2:0:0:
280,266,60087,1,2,0:2:0:0:
280,266,60173,1,2,0:2:0:0:
175,161,60344,6,0,P|155:164|130:177,3,42.5000016212464,2|2|2|2,3:2|3:2|3:2|3:2,0:0:0:0:
233,42,60687,6,0,P|253:45|275:54,3,31.4500007678223,10|2|2|2,3:2|3:2|3:2|3:2,0:0:0:0:
59,12,61030,6,0,B|1:-1|1:-1|28:200,1,223.125002127886,6|0,3:0|0:0,0:2:0:0:
26,292,61373,2,0,P|95:283|302:326,1,255,10|0,3:0|0:0,0:2:0:0:
394,374,61715,6,0,P|389:288|407:231,1,127.500004863739,2|2,3:2|0:2,0:0:0:0:
476,164,62058,1,10,3:2:0:0:
476,164,62144,1,2,0:2:0:0:
476,164,62230,1,2,0:2:0:0:
386,25,62401,6,0,B|352:5|352:5|336:127,1,127.500004863739,2|2,3:2|0:2,0:0:0:0:
278,214,62744,1,10,3:2:0:0:
278,214,62830,1,2,0:2:0:0:
278,214,62915,1,2,0:2:0:0:
54,140,63087,5,2,3:2:0:0:
170,22,63258,2,0,P|200:12|232:13,1,63.7500024318696,2|0,0:2|0:2,0:2:0:0:
49,27,63430,5,10,3:2:0:0:
178,133,63601,2,0,P|209:135|240:126,1,63.7500024318696,2|0,0:2|0:2,0:2:0:0:
120,204,63773,5,2,3:2:0:0:
123,241,63858,1,0,0:0:0:0:
126,279,63944,1,2,0:2:0:0:
130,317,64030,1,0,0:2:0:0:
132,344,64115,2,0,L|98:357,6,23.5875005758667,10|0|0|0|0|0|0,3:2|3:2|3:2|3:2|3:2|3:2|3:2,3:2:0:0:
225,311,64458,6,0,P|304:304|358:323,1,127.500004863739,2|2,3:2|0:2,0:0:0:0:
500,374,64801,1,10,3:2:0:0:
500,374,64887,1,2,0:2:0:0:
500,374,64973,1,2,0:2:0:0:
476,204,65144,6,0,L|459:58,1,127.500004863739,2|2,3:2|0:2,0:0:0:0:
355,0,65487,1,8,3:2:0:0:
355,0,65573,1,2,0:2:0:0:
355,0,65658,1,0,0:2:0:0:
285,133,65830,5,2,3:2:0:0:
250,148,65915,1,2,0:2:0:0:
211,153,66001,2,0,P|186:157|147:150,1,63.7500024318696,2|0,0:2|0:2,0:2:0:0:
39,45,66173,5,10,3:2:0:0:
54,80,66258,1,2,0:2:0:0:
59,119,66344,2,0,P|63:144|56:183,1,63.7500024318696,2|0,0:2|0:2,0:2:0:0:
21,321,66515,5,2,3:2:0:0:
58,330,66601,1,2,0:2:0:0:
96,326,66687,2,0,P|130:324|168:304,1,63.7500024318696,2|0,0:2|0:2,0:2:0:0:
240,260,66858,2,0,L|235:228,3,31.8750012159348,10|0|2|0,3:2|0:2|0:2|0:2,0:2:0:0:
317,343,67201,5,2,3:2:0:0:
385,275,67373,1,2,0:2:0:0:
376,145,67544,1,10,0:2:0:0:
476,167,67715,1,2,3:2:0:0:
488,141,67801,1,2,0:0:0:0:
499,114,67887,2,0,L|514:60,2,46.7500014266968,2|2|2,0:2|3:2|0:2,0:0:0:0:
448,12,68230,1,10,3:2:0:0:
332,70,68401,1,2,0:2:0:0:
222,129,68573,5,2,3:2:0:0:
332,70,68744,1,2,0:2:0:0:
306,191,68915,1,10,0:2:0:0:
301,208,69001,1,2,0:2:0:0:
298,225,69087,1,2,3:2:0:0:
295,242,69173,1,0,0:2:0:0:
290,259,69258,2,0,P|245:248|182:251,1,93.5000028533936,2|2,3:2|0:2,0:0:0:0:
70,288,69601,1,10,3:2:0:0:
42,197,69773,1,2,0:2:0:0:
145,115,69944,5,2,3:2:0:0:
161,122,70030,1,0,0:0:0:0:
177,129,70115,1,2,0:2:0:0:
194,134,70201,1,2,0:2:0:0:
211,139,70287,2,0,L|203:42,1,93.5000028533936,10|2,0:2|3:2,0:0:0:0:
313,6,70630,2,0,P|342:0|377:3,2,46.7500014266968,2|2|2,3:2|3:2|0:2,0:0:0:0:
361,106,70973,1,10,3:2:0:0:
451,46,71144,1,2,3:2:0:0:
469,249,71315,6,0,L|367:233,1,93.5000028533936,2|2,3:2|0:2,0:2:0:0:
358,236,71573,1,0,3:2:0:0:
358,236,71658,1,8,0:2:0:0:
290,340,71830,1,2,3:2:0:0:
290,340,71915,1,0,0:2:0:0:
290,340,72001,1,2,3:2:0:0:
161,339,72173,1,2,3:2:0:0:
225,223,72344,2,0,B|241:180|241:180|233:123,1,93.5000028533936,10|2,3:0|0:2,0:2:0:0:
59,55,72687,6,0,L|51:148,1,85,2|2,3:2|0:2,0:0:0:0:
47,171,72944,1,2,0:2:0:0:
47,171,73030,2,0,L|54:264,1,85,10|2,0:2|0:2,0:0:0:0:
179,321,73373,6,0,L|169:215,1,93.5000028533936,2|2,3:2|0:2,0:0:0:0:
165,190,73630,1,2,0:2:0:0:
165,190,73716,2,0,L|174:84,1,93.5000028533936,10|2,0:2|0:2,0:0:0:0:
322,29,74058,6,0,L|310:170,1,110.499994941712,2|2,3:2|0:2,0:0:0:0:
304,202,74315,1,2,0:2:0:0:
304,202,74401,2,0,L|316:343,1,110.499994941712,10|2,0:2|0:2,0:0:0:0:
475,347,74744,6,0,L|486:219,1,127.500004863739,2|2,3:2|0:2,0:0:0:0:
498,139,75001,1,2,0:2:0:0:
497,139,75087,2,0,L|486:11,1,127.500004863739,10|2,0:2|0:2,0:0:0:0:
350,155,75430,6,0,P|373:172|399:173,2,45.3333333333333,0|0|0,3:0|3:0|3:0,3:0:0:0:
220,142,75773,6,0,P|193:153|175:183,2,62.3333352355958,0|0|0,3:0|3:0|3:0,3:0:0:0:
285,67,76115,6,0,P|287:37|267:-2,2,73.6666632944744,0|0|0,3:0|3:0|3:0,0:0:0:0:
305,236,76458,6,0,P|320:261|371:285,2,85.0000032424928,0|0|0,3:0|3:0|3:0,0:0:0:0:
379,139,76801,1,0,0:2:0:0:
379,139,76887,1,0,0:2:0:0:
379,139,76973,1,0,0:2:0:0:
464,221,77144,2,0,B|501:232|501:232|516:236,2,42.5,0|0|0,0:2|0:2|0:2,0:0:0:0:
416,333,77487,2,0,P|388:340|371:337,1,42.5,0|0,0:2|0:2,0:0:0:0:
337,336,77658,1,0,0:2:0:0:
177,242,77830,6,0,B|181:262|181:262|179:273|179:273|183:279|183:279|178:287|178:287|182:293|182:293|178:301|178:301|184:308|184:308|180:317|180:317|186:321|186:321|182:329|182:329|186:333|186:333|183:339|183:339|186:343|186:343|182:354|182:354|187:362|187:362|188:372,1,140.25000428009,6|0,3:0|0:0,0:2:0:0:
146,373,78173,6,0,L|94:385,3,50.9999984436036,2|0|2|2,3:2|0:2|0:2|0:2,0:2:0:0:
53,291,78515,1,2,3:2:0:0:
44,261,78601,1,2,0:2:0:0:
34,231,78687,1,2,0:2:0:0:
26,201,78773,1,2,0:2:0:0:
42,160,78858,2,0,L|91:148,1,50.9999984436036,2|0,3:2|0:2,0:2:0:0:
143,30,79115,1,2,0:2:0:0:
145,44,79201,2,0,B|149:66|149:66|168:80,6,25.4999992218018,2|0|2|2|0|2|0,3:2|0:0|3:2|3:2|3:2|3:2|3:2,0:0:0:0:
257,81,79544,6,0,L|251:148,3,46.7500014266968,2|2|2|0,3:2|0:2|0:2|0:2,0:0:0:0:
389,23,79887,1,2,3:2:0:0:
412,38,79973,1,2,0:2:0:0:
423,63,80058,1,2,0:2:0:0:
438,86,80144,1,2,0:2:0:0:
438,124,80230,6,0,B|378:121|378:121|417:260,1,191.250007295609,10|0,3:0|0:0,0:2:0:0:
482,343,80573,2,0,P|410:307|307:329,1,178.499994552612,6|0,3:0|0:0,0:2:0:0:
191,384,80915,6,0,B|211:387|211:387|232:371,3,46.7500014266968,2|0|2|2,3:2|0:2|0:2|0:2,0:2:0:0:
101,310,81258,2,0,B|80:313|80:313|59:297,3,46.7500014266968,2|0|2|2,3:2|0:2|0:2|0:2,0:2:0:0:
186,213,81601,2,0,B|206:216|206:216|227:200,1,46.7500014266968,2|0,3:2|0:2,0:2:0:0:
51,133,81858,1,2,0:2:0:0:
22,126,81944,2,0,P|12:126|-11:135,6,23.3750007133484,2|0|2|2|0|2|0,3:2|0:0|3:2|3:2|3:2|3:2|3:2,0:0:0:0:
172,99,82287,6,0,P|166:75|183:41,3,46.7500014266968,2|2|2|0,3:2|0:2|0:2|0:2,0:0:0:0:
291,33,82630,1,2,3:2:0:0:
296,60,82715,1,2,0:2:0:0:
301,87,82801,1,2,0:2:0:0:
306,114,82887,1,2,0:2:0:0:
325,150,82973,6,0,B|348:165|359:196|359:196|353:108|415:51,1,191.250007295609,6|0,3:0|0:0,0:2:0:0:
484,20,83315,2,0,B|515:75|506:127|467:108|440:152|477:256,1,191.250007295609,10|0,3:0|0:0,0:2:0:0:
475,327,83658,2,0,L|414:321,3,46.7500014266968,2|2|2|0,3:2|0:2|0:2|0:2,0:0:0:0:
298,359,84001,2,0,L|345:364,3,46.7500014266968,2|2|2|0,3:2|0:2|0:2|0:2,0:0:0:0:
181,289,84344,5,2,3:2:0:0:
183,315,84430,2,0,L|186:350,4,23.3750007133484,2|2|0|2|0,3:2|3:2|3:2|3:2|3:2,3:2:0:0:
86,220,84687,5,2,3:2:0:0:
84,246,84773,2,0,L|81:281,4,23.3750007133484,2|2|2|2|2,3:2|3:2|3:2|3:2|3:2,3:2:0:0:
117,109,85030,6,0,P|90:93|65:91,3,46.7500014266968,2|2|2|0,3:2|0:2|0:2|0:2,0:0:0:0:
209,70,85373,2,0,P|196:41|176:25,3,46.7500014266968,2|2|2|0,3:2|0:2|0:2|0:2,0:0:0:0:
311,48,85715,6,0,B|267:111|292:180|292:180|325:165|357:183,1,191.250007295609,10|0,3:0|0:0,0:2:0:0:
398,108,86058,2,0,P|433:177|365:257,1,178.499994552612,6|0,3:0|0:0,0:2:0:0:
271,304,86401,5,2,3:2:0:0:
295,317,86487,1,2,0:2:0:0:
319,331,86573,1,2,0:2:0:0:
343,343,86658,1,2,0:2:0:0:
367,355,86744,2,0,L|371:309,3,46.7500014266968,2|2|2|0,3:2|0:2|0:2|0:2,0:0:0:0:
490,231,87087,5,2,3:2:0:0:
492,257,87173,2,0,L|495:292,4,23.3750007133484,2|2|2|2|2,3:2|3:2|3:2|3:2|3:2,3:2:0:0:
395,162,87430,5,2,3:2:0:0:
393,188,87516,2,0,L|390:223,4,23.3750007133484,2|2|2|2|2,3:2|3:2|3:2|3:2|3:2,3:2:0:0:
476,49,87773,6,0,B|393:-5|314:37,2,140.25000428009,2|2|2,0:2|0:2|0:2,0:0:0:0:
384,154,88544,1,2,0:2:0:0:
249,136,88801,1,2,0:2:0:0:
221,46,88973,1,2,0:2:0:0:
78,103,89144,6,0,B|60:148|60:148|79:196|79:196|70:248,1,148.750001418591,2|2,3:2|0:2,0:0:0:0:
67,284,89401,1,0,0:2:0:0:
67,284,89487,1,10,3:2:0:0:
189,353,89658,2,0,P|215:329|261:323,1,74.3750007092953,2|2,0:2|0:2,0:0:0:0:
384,384,89830,2,0,L|412:210,1,148.750001418591,2|2,3:2|0:2,0:0:0:0:
434,101,90173,1,10,3:2:0:0:
277,174,90344,6,0,B|279:192|275:211|275:211|284:197|309:191,1,74.3750007092953,2|2,0:2|0:2,0:0:0:0:
434,101,90515,1,2,3:2:0:0:
286,40,90687,6,0,B|288:22|284:3|284:3|293:17|318:23,1,74.3750007092953,2|0,0:2|0:2,0:2:0:0:
434,101,90858,1,10,3:2:0:0:
222,100,91030,6,0,L|129:109,1,74.3750007092953,2|0,0:2|0:2,0:2:0:0:
7,120,91201,1,2,3:2:0:0:
11,149,91287,1,2,0:0:0:0:
16,178,91373,1,2,3:2:0:0:
20,207,91458,1,0,3:2:0:0:
25,229,91544,6,0,L|32:268,6,23.3750007133484,10|0|0|0|0|0|0,3:2|3:2|3:2|3:2|3:2|3:2|3:2,0:2:0:0:
92,347,91887,6,0,B|186:373|151:304|247:319,1,148.750001418591,2|2,3:2|0:2,0:0:0:0:
267,338,92144,1,0,0:2:0:0:
267,338,92230,1,10,3:2:0:0:
417,213,92401,2,0,P|384:239|390:301,1,74.3750007092953,2|2,0:2|0:2,0:0:0:0:
499,316,92573,2,0,P|521:231|509:143,1,148.750001418591,2|2,3:2|0:2,0:0:0:0:
442,66,92915,1,10,3:2:0:0:
260,45,93087,2,0,B|286:24|286:24|346:35,1,74.3750007092953,2|2,0:2|0:2,0:0:0:0:
194,132,93258,6,0,L|163:140,6,23.3750007133484,2|0|0|0|2|0|0,3:2|0:0|0:0|0:0|3:2|0:0|0:2,0:0:0:0:
97,67,93601,2,0,L|60:75,6,23.3750007133484,10|0|0|0|2|0|0,3:2|0:0|0:0|0:0|3:2|0:0|0:2,0:0:0:0:
52,179,93944,6,0,B|29:344|29:344|55:287|104:300,1,223.125002127886,6|0,3:0|0:0,0:2:0:0:
141,240,94287,2,0,P|73:306|184:338,1,255,10|0,3:0|0:0,0:2:0:0:
272,270,94630,6,0,L|263:97,1,148.750001418591,2|2,3:2|0:2,0:0:0:0:
253,88,94887,1,0,0:2:0:0:
253,88,94973,1,10,3:2:0:0:
361,119,95144,2,0,B|372:157|372:157|400:127,1,74.3750007092953,2|2,0:2|0:2,0:0:0:0:
459,38,95315,2,0,B|492:5|492:5|504:172,1,148.750001418591,2|2,3:2|0:2,0:0:0:0:
484,262,95658,1,10,3:2:0:0:
350,359,95830,6,0,P|340:314|305:283,1,74.3750007092953,2|2,0:2|0:2,0:0:0:0:
224,241,96001,1,2,3:2:0:0:
344,282,96173,6,0,P|354:237|389:206,1,74.3750007092953,2|0,0:2|0:2,0:2:0:0:
470,165,96344,1,10,3:2:0:0:
332,206,96515,6,0,P|322:161|287:130,1,74.3750007092953,2|0,0:2|0:2,0:2:0:0:
147,125,96687,1,2,3:2:0:0:
101,120,96772,1,0,0:0:0:0:
84,78,96858,1,2,0:2:0:0:
113,43,96944,1,0,0:2:0:0:
159,49,97030,2,0,P|173:54|186:63,6,23.3750007133484,10|0|0|0|0|0|0,3:2|3:2|3:2|3:2|3:2|3:2|3:2,3:2:0:0:
37,85,97373,6,0,P|16:156|54:232,1,148.750001418591,2|2,3:2|0:2,0:0:0:0:
76,243,97630,1,0,0:2:0:0:
76,243,97715,1,10,3:2:0:0:
212,262,97887,2,0,L|222:176,1,74.3750007092953,2|2,0:2|0:2,0:0:0:0:
136,306,98058,2,0,P|197:344|268:328,1,148.750001418591,2|2,3:2|0:2,0:0:0:0:
345,214,98401,1,10,3:2:0:0:
454,328,98573,2,0,P|477:289|479:243,1,74.3750007092953,2|2,0:2|0:2,0:0:0:0:
362,321,98744,6,0,L|365:375,3,50.9999984436036,2|0|2|0,3:2|0:0|3:2|0:2,0:0:0:0:
212,267,99087,2,0,L|215:220,3,46.7500014266968,10|0|2|0,3:2|0:0|3:2|0:2,0:0:0:0:
114,366,99430,2,0,L|67:362,3,46.7500014266968,2|2|2|0,3:2|0:2|0:2|0:2,0:0:0:0:
17,210,99773,1,10,0:0:0:0:
27,184,99858,1,2,0:0:0:0:
46,164,99944,1,2,0:0:0:0:
71,151,100030,1,0,0:0:0:0:
106,141,100115,6,0,P|65:101|-3:98,2,114.749996498108,2|2|2,3:2|3:2|0:2,3:2:0:0:
210,189,100887,1,2,0:2:0:0:
270,91,101144,1,2,0:2:0:0:
425,239,101487,6,0,L|410:375,2,114.749996498108,2|2|2,3:2|3:2|0:2,3:2:0:0:
476,171,102258,1,2,0:2:0:0:
395,159,102515,1,2,0:2:0:0:
