osu file format v14

[General]
AudioFilename: audio.mp3
AudioLeadIn: 0
PreviewTime: 54859
Countdown: 0
SampleSet: Soft
StackLeniency: 0.4
Mode: 0
LetterboxInBreaks: 0
WidescreenStoryboard: 1

[Editor]
Bookmarks: 23315,34287,45258,56230,67201,78173,89144
DistanceSpacing: 0.7
BeatDivisor: 4
GridSize: 16
TimelineZoom: 2.3

[Metadata]
Title:Arrogation (Cut Ver.)
TitleUnicode:Arrogation (Cut Ver.)
Artist:A?
ArtistUnicode:あ?
Creator:OneShotFox
Version:Ducky-'s Hard
Source:
Tags:aquestion hardpsy hardstyle ocutechno techno electronic instrumental 人體解剖 市大テクノ部 hardcore a ducky- ducky
BeatmapID:2784598
BeatmapSetID:1311422

[Difficulty]
HPDrainRate:4
CircleSize:4
OverallDifficulty:7
ApproachRate:8
SliderMultiplier:1.5
SliderTickRate:1

[Events]
//Background and Video events
0,0,"EfECmevUcAsOaIk.jpg",0,0
//Break Periods
//Storyboard Layer 0 (Background)
//Storyboard Layer 1 (Fail)
//Storyboard Layer 2 (Pass)
//Storyboard Layer 3 (Foreground)
//Storyboard Layer 4 (Overlay)
//Storyboard Sound Samples

[TimingPoints]
1373,342.857142857143,4,2,1,40,1,0
1373,-90.9090909090909,4,2,2,40,0,0
1544,-90.9090909090909,4,2,2,5,0,0
1715,-90.9090909090909,4,2,2,40,0,0
1886,-90.9090909090909,4,2,2,5,0,0
2058,-90.9090909090909,4,2,2,40,0,0
2229,-90.9090909090909,4,2,2,5,0,0
2401,-90.9090909090909,4,2,2,40,0,0
2572,-90.9090909090909,4,2,2,5,0,0
2744,-90.9090909090909,4,2,2,40,0,0
3430,-90.9090909090909,4,2,2,40,0,0
3687,-90.9090909090909,4,2,2,5,0,0
3773,-90.9090909090909,4,2,2,40,0,0
3944,-90.9090909090909,4,2,2,5,0,0
4115,-90.9090909090909,4,2,2,40,0,0
4286,-90.9090909090909,4,2,2,5,0,0
4458,-90.9090909090909,4,2,2,40,0,0
4629,-90.9090909090909,4,2,2,5,0,0
4801,-90.9090909090909,4,2,2,40,0,0
4972,-90.9090909090909,4,2,2,5,0,0
5144,-90.9090909090909,4,2,2,40,0,0
5315,-90.9090909090909,4,2,2,5,0,0
5487,-90.9090909090909,4,2,2,40,0,0
6173,-90.9090909090909,4,2,2,40,0,0
6430,-90.9090909090909,4,2,2,5,0,0
6516,-90.9090909090909,4,2,2,40,0,0
6686,-90.9090909090909,4,2,2,5,0,0
6858,-90.9090909090909,4,2,2,40,0,0
7029,-90.9090909090909,4,2,2,5,0,0
7201,-90.9090909090909,4,2,2,40,0,0
7372,-90.9090909090909,4,2,2,5,0,0
7544,-90.9090909090909,4,2,2,40,0,0
7715,-90.9090909090909,4,2,2,5,0,0
7887,-90.9090909090909,4,2,2,40,0,0
8058,-90.9090909090909,4,2,2,5,0,0
8230,-90.9090909090909,4,2,2,40,0,0
8915,-90.9090909090909,4,2,2,40,0,0
9173,-90.9090909090909,4,2,2,5,0,0
9259,-90.9090909090909,4,2,2,40,0,0
9429,-90.9090909090909,4,2,2,5,0,0
9601,-90.9090909090909,4,2,2,40,0,0
9772,-90.9090909090909,4,2,2,5,0,0
9944,-90.9090909090909,4,2,2,40,0,0
10115,-90.9090909090909,4,2,2,5,0,0
10287,-90.9090909090909,4,2,2,40,0,0
10458,-90.9090909090909,4,2,2,5,0,0
10630,-90.9090909090909,4,2,2,40,0,0
10801,-90.9090909090909,4,2,2,5,0,0
10973,-142.857142857143,4,2,2,40,0,0
11915,-142.857142857143,4,2,2,5,0,0
12001,-142.857142857143,4,2,2,40,0,0
12258,-142.857142857143,4,2,2,5,0,0
12344,-90.9090909090909,4,2,2,40,0,0
12515,-90.9090909090909,4,2,2,5,0,0
12687,-90.9090909090909,4,2,2,40,0,0
12858,-90.9090909090909,4,2,2,5,0,0
13030,-90.9090909090909,4,2,2,40,0,0
13201,-90.9090909090909,4,2,2,5,0,0
13373,-90.9090909090909,4,2,2,40,0,0
13544,-90.9090909090909,4,2,2,5,0,0
13715,-90.9090909090909,4,2,2,40,0,0
14401,-90.9090909090909,4,2,2,40,0,0
14658,-90.9090909090909,4,2,2,5,0,0
14744,-90.9090909090909,4,2,2,40,0,0
14915,-90.9090909090909,4,2,2,5,0,0
15087,-90.9090909090909,4,2,2,40,0,0
15258,-90.9090909090909,4,2,2,5,0,0
15430,-90.9090909090909,4,2,2,40,0,0
15601,-90.9090909090909,4,2,2,5,0,0
15773,-90.9090909090909,4,2,2,40,0,0
15944,-90.9090909090909,4,2,2,5,0,0
16116,-90.9090909090909,4,2,2,40,0,0
16287,-90.9090909090909,4,2,2,5,0,0
16458,-90.9090909090909,4,2,2,40,0,0
17401,-90.9090909090909,4,2,2,5,0,0
17487,-90.9090909090909,4,2,2,40,0,0
17744,-90.9090909090909,4,2,2,5,0,0
17830,-90.9090909090909,4,2,2,40,0,0
20057,-90.9090909090909,4,2,2,5,0,0
20230,-90.9090909090909,4,2,2,40,0,0
20401,-90.9090909090909,4,2,2,5,0,0
20573,-90.9090909090909,4,2,2,40,0,0
23315,-83.3333333333333,4,2,1,50,0,0
24601,-83.3333333333333,4,2,1,5,0,0
24687,-83.3333333333333,4,2,1,50,0,0
25973,-83.3333333333333,4,2,1,5,0,0
26058,-83.3333333333333,4,2,1,50,0,0
27001,-83.3333333333333,4,2,1,5,0,0
27087,-83.3333333333333,4,2,1,50,0,0
28715,-83.3333333333333,4,2,1,5,0,0
28801,-83.3333333333333,4,2,1,50,0,0
30087,-83.3333333333333,4,2,1,5,0,0
30173,-83.3333333333333,4,2,1,50,0,0
31458,-83.3333333333333,4,2,1,5,0,0
31544,-83.3333333333333,4,2,1,50,0,0
32487,-83.3333333333333,4,2,1,5,0,0
32573,-83.3333333333333,4,2,1,50,0,0
33858,-83.3333333333333,4,2,1,5,0,0
33944,-83.3333333333333,4,2,1,80,0,0
34287,-90.9090909090909,4,2,1,65,0,0
42515,-100,4,2,2,60,0,0
43200,-100,4,2,2,65,0,0
43543,-100,4,2,2,70,0,0
44915,-100,4,2,1,80,0,0
45258,-71.4285714285714,4,2,1,65,0,0
47315,-76.9230769230769,4,2,2,65,0,0
47573,-76.9230769230769,4,2,2,5,0,0
47658,-76.9230769230769,4,2,2,65,0,0
47915,-76.9230769230769,4,2,2,5,0,0
48001,-71.4285714285714,4,2,1,65,0,0
50058,-71.4285714285714,4,2,2,65,0,0
50401,-76.9230769230769,4,2,2,65,0,0
50658,-76.9230769230769,4,2,2,5,0,0
50744,-71.4285714285714,4,2,1,65,0,0
52801,-76.9230769230769,4,2,2,65,0,0
53058,-76.9230769230769,4,2,2,5,0,0
53144,-76.9230769230769,4,2,2,65,0,0
53401,-76.9230769230769,4,2,2,5,0,0
53487,-71.4285714285714,4,2,1,65,0,0
54858,-83.3333333333333,4,2,1,65,0,0
56230,-71.4285714285714,4,2,2,70,0,1
56487,-71.4285714285714,4,2,2,5,0,1
56573,-71.4285714285714,4,2,2,70,0,1
56915,-83.3333333333333,4,2,2,70,0,1
57173,-83.3333333333333,4,2,2,5,0,1
57258,-83.3333333333333,4,2,2,70,0,1
57601,-74.0740740740741,4,2,2,70,0,1
58544,-74.0740740740741,4,2,2,5,0,1
58630,-74.0740740740741,4,2,2,70,0,1
58715,-74.0740740740741,4,2,1,70,0,1
58973,-71.4285714285714,4,2,2,70,0,1
59230,-71.4285714285714,4,2,2,5,0,1
59315,-71.4285714285714,4,2,2,70,0,1
59658,-83.3333333333333,4,2,2,70,0,1
59915,-83.3333333333333,4,2,2,5,0,1
60001,-83.3333333333333,4,2,2,70,0,1
60430,-83.3333333333333,4,2,1,70,0,1
60687,-83.3333333333333,4,2,2,70,0,1
60773,-83.3333333333333,4,2,1,70,0,1
61030,-83.3333333333333,4,2,2,70,0,1
61373,-76.9230769230769,4,2,2,80,0,1
61630,-76.9230769230769,4,2,2,5,0,1
61715,-71.4285714285714,4,2,2,70,0,1
61973,-71.4285714285714,4,2,2,5,0,1
62058,-71.4285714285714,4,2,2,70,0,1
62401,-83.3333333333333,4,2,2,70,0,1
62658,-83.3333333333333,4,2,2,5,0,1
62744,-83.3333333333333,4,2,2,70,0,1
63087,-74.0740740740741,4,2,2,70,0,1
64030,-74.0740740740741,4,2,2,5,0,1
64115,-74.0740740740741,4,2,2,70,0,1
64201,-74.0740740740741,4,2,1,70,0,1
64458,-71.4285714285714,4,2,2,70,0,1
64715,-71.4285714285714,4,2,2,5,0,1
64801,-71.4285714285714,4,2,2,70,0,1
65144,-83.3333333333333,4,2,2,70,0,1
65401,-83.3333333333333,4,2,2,5,0,1
65487,-83.3333333333333,4,2,2,70,0,1
66515,-100,4,2,2,70,0,1
67115,-100,4,2,2,5,0,1
67201,-83.3333333333333,4,2,1,55,0,0
68487,-83.3333333333333,4,2,1,5,0,0
68573,-83.3333333333333,4,2,1,55,0,0
69858,-83.3333333333333,4,2,1,5,0,0
69944,-83.3333333333333,4,2,1,55,0,0
70887,-83.3333333333333,4,2,1,5,0,0
70973,-83.3333333333333,4,2,1,55,0,0
72344,-83.3333333333333,4,2,2,80,0,0
72601,-83.3333333333333,4,2,2,5,0,0
72687,-166.666666666667,4,2,1,65,0,0
73373,-125,4,2,1,65,0,0
74058,-100,4,2,1,65,0,0
74744,-83.3333333333333,4,2,1,65,0,0
75430,-83.3333333333333,4,2,2,60,0,0
76115,-83.3333333333333,4,2,2,65,0,0
76458,-83.3333333333333,4,2,2,70,0,0
76801,-83.3333333333333,4,2,2,5,0,0
77830,-83.3333333333333,4,2,2,80,0,0
78173,-71.4285714285714,4,2,2,80,0,0
79287,-71.4285714285714,4,2,1,70,0,0
79544,-71.4285714285714,4,2,2,70,0,0
80487,-71.4285714285714,4,2,2,5,0,0
80573,-71.4285714285714,4,2,2,70,0,0
80830,-71.4285714285714,4,2,2,5,0,0
80915,-71.4285714285714,4,2,2,70,0,0
82030,-71.4285714285714,4,2,1,70,0,0
82287,-71.4285714285714,4,2,2,70,0,0
83573,-71.4285714285714,4,2,2,5,0,0
83658,-71.4285714285714,4,2,2,70,0,0
84430,-71.4285714285714,4,2,1,70,0,0
84687,-71.4285714285714,4,2,2,70,0,0
84773,-71.4285714285714,4,2,1,70,0,0
85030,-71.4285714285714,4,2,2,70,0,0
85973,-71.4285714285714,4,2,2,5,0,0
86058,-71.4285714285714,4,2,2,70,0,0
86315,-71.4285714285714,4,2,2,5,0,0
86401,-71.4285714285714,4,2,2,70,0,0
87173,-71.4285714285714,4,2,1,70,0,0
87430,-71.4285714285714,4,2,2,70,0,0
87687,-71.4285714285714,4,2,1,5,0,0
87773,-100,4,2,2,60,0,0
88715,-100,4,2,2,5,0,0
88801,-100,4,2,2,60,0,0
89144,-71.4285714285714,4,2,2,80,0,1
90087,-71.4285714285714,4,2,2,5,0,1
90173,-71.4285714285714,4,2,2,80,0,1
91458,-71.4285714285714,4,2,1,80,0,1
91544,-71.4285714285714,4,2,2,80,0,1
91801,-71.4285714285714,4,2,2,5,0,1
91887,-71.4285714285714,4,2,2,80,0,1
92830,-71.4285714285714,4,2,2,5,0,1
92915,-71.4285714285714,4,2,2,80,0,1
93344,-71.4285714285714,4,2,1,80,0,1
93601,-71.4285714285714,4,2,2,80,0,1
93687,-71.4285714285714,4,2,1,80,0,1
93944,-71.4285714285714,4,2,2,80,0,1
94201,-71.4285714285714,4,2,2,5,0,1
94287,-71.4285714285714,4,2,2,80,0,1
94544,-71.4285714285714,4,2,2,5,0,1
94630,-71.4285714285714,4,2,2,80,0,1
95573,-71.4285714285714,4,2,2,5,0,1
95658,-71.4285714285714,4,2,2,80,0,1
96944,-71.4285714285714,4,2,2,5,0,1
97030,-71.4285714285714,4,2,2,80,0,1
97287,-71.4285714285714,4,2,1,5,0,1
97373,-71.4285714285714,4,2,2,80,0,1
98315,-71.4285714285714,4,2,2,5,0,1
98401,-71.4285714285714,4,2,2,80,0,1
98830,-71.4285714285714,4,2,1,80,0,1
99087,-71.4285714285714,4,2,2,80,0,1
99173,-71.4285714285714,4,2,1,80,0,1
99430,-71.4285714285714,4,2,2,80,0,1
99687,-71.4285714285714,4,2,2,5,0,1
99773,-71.4285714285714,4,2,2,80,0,1
100030,-71.4285714285714,4,2,2,5,0,1
100115,-83.3333333333333,4,2,1,60,0,0
101401,-83.3333333333333,4,2,1,5,0,0
101487,-83.3333333333333,4,2,1,50,0,0
101744,-83.3333333333333,4,2,1,40,0,0
102001,-83.3333333333333,4,2,1,30,0,0
102258,-83.3333333333333,4,2,1,20,0,0
102515,-83.3333333333333,4,2,1,15,0,0
102857,-83.3333333333333,4,2,1,5,0,0

[Colours]
Combo1 : 155,155,155
Combo2 : 55,129,189
Combo3 : 208,213,51

[HitObjects]
19,36,1373,6,0,P|57:32|125:28,1,82.5000025177003,0|0,3:0|0:0,0:0:0:0:
63,110,1715,2,0,P|101:106|169:102,1,82.5000025177003,0|0,3:0|0:0,0:0:0:0:
176,191,2058,2,0,P|138:187|70:183,1,82.5000025177003,0|0,3:0|0:0,0:0:0:0:
132,265,2401,2,0,P|94:261|26:257,1,82.5000025177003,0|0,3:0|0:0,0:0:0:0:
26,361,2744,6,0,P|167:349|215:345,1,165.000005035401,0|0,3:0|3:0,0:0:0:0:
190,347,3430,6,0,B|220:377|220:377|333:358,1,123.75000377655,4|0,3:0|0:0,0:0:0:0:
328,374,3773,2,0,P|353:355|353:302,1,82.5000025177003,4|0,3:0|0:0,0:0:0:0:
207,208,4115,6,0,P|198:152|185:105,1,82.5000025177003,0|0,3:0|0:0,0:0:0:0:
298,63,4458,2,0,P|288:103|282:143,1,82.5000025177003,0|0,3:0|0:0,0:0:0:0:
387,199,4801,2,0,P|378:143|365:96,1,82.5000025177003,0|0,3:0|0:0,0:0:0:0:
478,54,5144,2,0,P|468:94|462:134,1,82.5000025177003,0|0,3:0|0:0,0:0:0:0:
512,211,5487,6,0,B|424:239|492:294|377:317,1,165.000005035401,0|0,3:0|3:0,0:0:0:0:
392,313,6173,6,0,B|334:310|334:310|331:312|331:312|256:310,1,123.75000377655,4|0,3:0|0:0,0:0:0:0:
242,322,6515,2,0,B|204:298|204:298|213:252,1,82.5000025177003,4|0,3:0|0:0,0:0:0:0:
244,181,6858,6,0,P|239:135|211:118,1,82.5000025177003,0|0,3:0|0:0,0:0:0:0:
266,54,7201,2,0,P|229:25|198:32,1,82.5000025177003,0|0,3:0|0:0,0:0:0:0:
74,63,7544,2,0,P|111:90|112:123,1,82.5000025177003,0|0,3:0|0:0,0:0:0:0:
194,107,7887,2,0,P|201:152|178:176,1,82.5000025177003,0|0,3:0|0:0,0:0:0:0:
121,274,8230,6,0,B|17:258|17:258|-3:229|30:197,1,165.000005035401,0|0,3:0|3:0,0:0:0:0:
24,204,8915,6,0,P|33:130|52:48,1,123.75000377655,0|0,3:0|0:0,0:0:0:0:
61,56,9258,2,0,P|115:50|155:47,1,82.5000025177003,0|0,3:0|0:0,0:0:0:0:
293,37,9601,6,0,B|253:46|253:46|246:97,1,82.5000025177003,0|0,3:0|0:0,0:0:0:0:
330,111,9944,2,0,B|369:95|369:95|397:126,1,82.5000025177003,0|0,3:0|0:0,0:0:0:0:
374,254,10287,2,0,B|386:214|386:214|345:183,1,82.5000025177003,0|0,3:0|0:0,0:0:0:0:
290,249,10630,2,0,B|284:290|284:290|244:299,1,82.5000025177003,0|0,3:0|0:0,0:0:0:0:
165,337,10973,6,0,L|162:364,1,26.2499991989136,8|0,0:0|0:0,0:0:0:0:
181,245,11315,2,0,L|184:218,1,26.2499991989136,8|0,0:0|0:0,0:0:0:0:
200,99,11658,6,8,P|180:71|187:24,1,78.7499975967408,12|8,0:0|0:0,0:0:0:0:
196,13,12001,2,0,P|239:12|293:12,1,78.7499975967408,8|0,0:0|0:0,0:0:0:0:
306,31,12344,6,0,L|401:40,1,82.5000025177003,0|0,3:0|0:0,0:0:0:0:
336,110,12687,2,0,L|431:119,1,82.5000025177003,0|0,3:0|0:0,0:0:0:0:
341,189,13030,2,0,L|246:198,1,82.5000025177003,0|0,3:0|0:0,0:0:0:0:
311,268,13373,2,0,L|216:277,1,82.5000025177003,0|0,3:0|0:0,0:0:0:0:
190,352,13715,6,0,B|165:326|165:326|31:339,1,165.000005035401,0|0,3:0|3:0,0:0:0:0:
36,338,14401,6,0,B|12:348|12:348|30:223,1,123.75000377655,4|0,3:0|0:0,0:0:0:0:
45,237,14744,2,0,B|55:196|24:192|34:154,1,82.5000025177003,4|0,3:0|0:0,0:0:0:0:
0,80,15087,6,0,P|7:56|58:25,1,82.5000025177003,0|0,3:0|0:0,0:0:0:0:
134,41,15430,2,0,P|170:26|209:40,1,82.5000025177003,0|0,3:0|0:0,0:0:0:0:
215,121,15773,2,0,P|238:128|269:179,1,82.5000025177003,0|0,3:0|0:0,0:0:0:0:
254,256,16116,2,0,P|267:293|254:332,1,82.5000025177003,0|0,3:0|0:0,0:0:0:0:
90,278,16458,6,0,P|171:266|253:256,1,165.000005035401,0|0,3:0|3:0,0:0:0:0:
253,256,17144,6,0,B|324:265|291:302|378:318,1,123.75000377655,4|0,3:0|0:0,0:0:0:0:
391,328,17487,2,0,P|384:267|367:190,1,123.75000377655,4|0,3:0|0:0,0:0:0:0:
386,182,17830,6,0,P|397:139|401:87,2,82.5000025177003,0|0|0,3:0|0:0|3:0,0:0:0:0:
309,103,18344,2,0,P|299:63|297:1,2,82.5000025177003,0|0|0,0:2|3:0|0:0,0:0:0:0:
189,178,18858,1,0,3:0:0:0:
189,178,19030,1,0,0:0:0:0:
188,178,19201,2,0,P|198:138|202:97,2,82.5000025177003,0|0|0,3:0|0:0|3:0,0:0:0:0:
108,117,19715,1,0,0:0:0:0:
108,117,19886,2,0,P|97:77|93:36,1,82.5000025177003,4|0,3:0|0:0,0:0:0:0:
15,101,20230,2,0,P|10:141|0:181,1,82.5000025177003,4|0,3:0|0:0,0:0:0:0:
256,192,20573,12,0,21944,3:2:0:0:
0,294,23315,6,0,P|105:281|170:277,2,134.999995880127,2|2|2,3:2|3:2|3:2,0:2:0:0:
4,196,24087,1,2,0:0:0:0:
93,192,24344,2,0,B|180:184|128:140|235:138,1,134.999995880127,10|0,0:2|0:0,0:0:0:0:
233,122,24687,6,0,P|200:63|238:-7,2,134.999995880127,2|2|2,3:2|3:2|3:2,0:2:0:0:
307,176,25458,1,2,0:0:0:0:
284,260,25715,2,0,P|164:273|138:279,1,134.999995880127,10|0,0:2|0:0,0:0:0:0:
135,256,26058,6,0,B|155:189|80:211|116:119,2,134.999995880127,2|2|2,3:2|3:2|3:2,0:2:0:0:
43,337,26830,2,0,P|6:300|25:271,1,89.9999972534181,2|0,3:2|0:0,0:0:0:0:
52,263,27087,1,10,0:2:0:0:
99,188,27258,1,10,0:2:0:0:
29,134,27430,6,0,L|14:-8,2,134.999995880127,2|2|2,3:2|3:2|3:2,0:0:0:0:
128,110,28201,1,2,0:0:0:0:
208,153,28458,2,0,P|224:233|286:253,1,134.999995880127,10|0,0:2|0:0,0:0:0:0:
300,261,28801,6,0,P|340:249|447:227,2,134.999995880127,2|2|2,3:2|0:2|3:2,0:2:0:0:
246,328,29573,1,2,0:0:0:0:
168,278,29830,2,0,P|175:186|188:124,1,134.999995880127,10|0,0:2|0:0,0:0:0:0:
200,128,30173,6,0,B|285:131|245:72|326:85,2,134.999995880127,2|2|2,3:2|3:2|3:2,0:2:0:0:
136,63,30944,1,2,0:0:0:0:
207,16,31201,2,0,L|362:-3,1,134.999995880127,10|0,3:2|0:0,0:0:0:0:
368,11,31544,6,0,B|344:54|344:54|383:135,2,134.999995880127,2|2|2,3:2|3:2|3:2,0:2:0:0:
449,61,32315,2,0,P|495:65|511:111,1,89.9999972534181,2|0,3:2|0:0,0:0:0:0:
500,127,32573,1,10,3:2:0:0:
455,201,32744,1,2,3:2:0:0:
512,269,32915,6,0,P|521:327|442:340,2,134.999995880127,2|2|2,3:2|3:2|3:2,0:0:0:0:
409,282,33687,2,0,P|352:283|307:292,1,89.9999972534181,2|0,3:2|3:2,0:0:0:0:
304,315,33944,1,8,3:2:0:0:
165,384,34287,6,0,P|157:322|154:275,1,82.5000025177003,2|2,3:2|0:2,0:0:0:0:
77,305,34630,2,0,P|85:243|88:196,1,82.5000025177003,2|2,3:2|0:2,0:2:0:0:
153,188,34973,2,0,P|145:126|142:79,1,82.5000025177003,2|2,3:2|0:2,0:0:0:0:
65,109,35316,2,0,P|73:47|76:0,1,82.5000025177003,2|2,3:2|0:2,0:0:0:0:
153,0,35658,6,0,B|254:16|166:54|293:79,2,165.000005035401,2|2|2,3:2|3:2|3:2,0:0:0:0:
74,34,36515,1,2,0:2:0:0:
74,34,36601,1,2,0:2:0:0:
74,34,36687,2,0,P|30:42|28:86,1,82.5000025177003,2|2,3:2|0:2,0:0:0:0:
0,147,37030,6,0,P|63:151|153:192,1,123.75000377655,2|2,3:2|3:2,0:0:0:0:
165,272,37544,1,2,0:2:0:0:
165,272,37715,2,0,P|227:247|267:246,1,82.5000025177003,2|2,3:2|0:2,0:2:0:0:
306,205,38058,1,2,3:2:0:0:
306,205,38230,1,2,0:2:0:0:
250,135,38401,6,0,P|253:77|264:29,1,82.5000025177003,2|2,3:2|0:2,0:2:0:0:
334,1,38744,2,0,P|339:38|341:107,1,82.5000025177003,2|2,3:2|0:2,0:0:0:0:
423,139,39087,2,0,P|426:81|437:33,1,82.5000025177003,2|2,3:2|0:2,0:0:0:0:
486,2,39430,2,0,P|501:5|523:18,3,41.2500012588501,2|2|2|2,3:2|3:2|3:2|3:2,3:2:0:0:
512,41,39773,6,0,P|461:51|424:59,1,82.5000025177003,0|2,0:2|0:2,0:0:0:0:
401,127,40115,2,0,P|346:110|306:105,1,82.5000025177003,10|2,3:2|0:2,0:0:0:0:
278,46,40458,2,0,P|227:56|190:64,1,82.5000025177003,2|2,3:2|0:2,0:0:0:0:
167,130,40801,2,0,P|112:113|72:108,1,82.5000025177003,10|2,3:2|0:2,0:0:0:0:
13,145,41144,6,0,P|3:184|45:204,1,82.5000025177003,2|2,3:2|0:2,0:0:0:0:
47,286,41487,2,0,P|89:267|125:262,1,82.5000025177003,10|2,3:2|0:2,0:0:0:0:
210,301,41830,2,0,P|200:262|242:242,1,82.5000025177003,2|2,3:2|0:2,0:0:0:0:
240,161,42173,2,0,P|282:180|318:185,1,82.5000025177003,10|2,3:2|0:2,0:0:0:0:
404,232,42515,6,0,L|390:183,2,50,2|2|2,3:2|3:2|3:2,3:2:0:0:
446,126,42858,2,0,L|396:93,2,50,2|2|2,3:2|3:2|3:2,3:2:0:0:
374,32,43201,2,0,L|316:45,2,50,0|0|0,3:0|3:0|3:0,0:0:0:0:
267,0,43544,2,0,L|235:46,2,50,0|0|0,3:0|3:0|3:0,0:0:0:0:
175,90,43887,1,0,0:2:0:0:
183,66,45258,6,0,B|192:87|192:87|186:90|186:90|192:98|192:98|189:108|189:108|189:121|189:121|198:126|198:126|202:143|202:143|196:157|196:157|203:166|203:166|207:194,1,104.999996795654,2|2,3:2|0:2,0:0:0:0:
284,245,45601,2,0,B|293:224|293:224|287:221|287:221|293:213|293:213|290:203|290:203|290:190|290:190|299:185|299:185|303:168|303:168|297:154|297:154|304:145|304:145|308:117,1,104.999996795654,2|2,3:2|0:2,0:0:0:0:
345,81,45944,1,2,3:2:0:0:
345,81,46030,2,0,B|378:72|378:72|394:75|394:75|432:64|432:64|480:76,2,104.999996795654,0|2|2,0:0|0:2|0:2,0:0:0:0:
274,22,46630,6,0,B|265:16|265:16|223:23|223:23|170:35|170:35|181:24,1,104.999996795654,2|2,3:2|0:2,0:0:0:0:
96,105,46973,2,0,B|105:99|105:99|147:106|147:106|200:118|200:118|189:107,1,104.999996795654,2|2,3:2|0:2,0:0:0:0:
214,197,47315,6,0,B|120:224|191:272|77:301,1,146.249993305207,10|0,3:0|0:0,0:0:0:0:
90,308,47658,2,0,P|213:342|250:359,1,146.249993305207,6|0,3:0|0:0,0:0:0:0:
260,345,48001,6,0,B|258:334|258:334|262:331|262:331|260:322|260:322|265:317|265:317|261:310|261:310|263:305|263:305|269:303|269:303|264:295|264:295|268:289|268:289|277:274|277:274|273:267|273:267|279:254|279:254|274:238|274:238|279:228,1,104.999996795654,2|2,3:2|0:2,0:0:0:0:
348,217,48344,2,0,B|348:206|348:206|345:203|345:203|348:193|348:193|342:188|342:188|346:182|346:182|344:177|344:177|338:175|338:175|343:166|343:166|339:160|339:160|330:146|330:146|334:139|334:139|328:125|328:125|333:110|333:110|328:100,1,104.999996795654,2|2,3:2|0:2,0:0:0:0:
377,63,48687,1,2,3:2:0:0:
377,63,48773,2,0,B|400:52|400:52|439:76|439:76|438:93|438:93|446:110|446:110|431:155,2,104.999996795654,2|2|2,0:2|0:2|0:2,0:0:0:0:
298,32,49373,6,0,B|288:39|288:39|276:37|276:37|266:39|266:39|258:47|258:47|242:49|242:49|231:59|231:59|220:61|220:61|213:52|213:52|199:57|199:57|178:48,1,104.999996795654,2|2,3:2|0:2,0:0:0:0:
151,110,49715,2,0,B|141:102|141:102|129:104|129:104|119:102|119:102|111:94|111:94|95:92|95:92|84:82|84:82|73:80|73:80|66:89|66:89|52:84|52:84|31:93,1,104.999996795654,2|2,3:2|0:2,0:0:0:0:
0,141,50058,5,6,3:0:0:0:
0,141,50230,1,0,0:0:0:0:
60,87,50401,2,0,P|78:172|52:248,1,146.249993305207,10|0,3:0|0:0,0:0:0:0:
58,250,50744,6,0,B|71:238|71:238|85:238|85:238|93:225|93:225|101:230|101:230|115:225|115:225|136:225|136:225|150:236|150:236|161:240|161:240|190:245,1,104.999996795654,2|2,3:2|0:2,0:0:0:0:
223,278,51087,2,0,B|227:267|227:267|238:264|238:264|253:254|253:254|274:256|274:256|287:262|287:262|296:258|296:258|303:272|303:272|316:273|316:273|328:286,1,104.999996795654,2|2,3:2|0:2,0:0:0:0:
366,336,51430,6,0,B|369:335|369:335|376:339|376:339|384:338|384:338|392:343|392:343|403:342|403:342|407:351|407:351|419:352,3,52.4999983978272,2|2|2|2,3:2|0:2|0:2|0:2,0:0:0:0:
452,282,51773,2,0,B|457:281|457:281|461:272|461:272|473:273|473:273|481:268|481:268|488:269|488:269|496:265|496:265|499:266,3,52.4999983978272,2|2|2|2,3:2|0:2|0:2|0:2,0:0:0:0:
503,187,52115,6,0,B|502:166|502:166|494:158|494:158|498:139|498:139|492:128|492:128|492:117|492:117|486:104|486:104|487:68,1,104.999996795654,2|2,3:2|0:2,0:0:0:0:
404,67,52458,2,0,B|404:89|404:89|398:102|398:102|398:113|398:113|392:124|392:124|396:143|396:143|388:151|388:151|387:172,1,104.999996795654,2|2,3:2|0:2,0:0:0:0:
325,245,52801,6,0,B|276:245|255:274|255:274|259:278|259:278|231:308|186:311,1,146.249993305207,10|0,3:0|0:0,0:0:0:0:
188,320,53144,2,0,P|185:265|89:271,1,146.249993305207,6|0,3:0|0:0,0:0:0:0:
35,280,53487,6,0,B|26:252|26:252|31:232|31:232|9:209|9:209|11:157,1,104.999996795654,2|2,3:2|0:2,0:0:0:0:
128,155,53830,2,0,B|130:186|130:186|108:209|108:209|113:229|113:229|104:257,1,104.999996795654,2|2,3:2|0:2,0:0:0:0:
139,327,54173,6,0,B|159:328|159:328|164:336|164:336|195:341,3,52.4999983978272,2|2|2|2,3:2|0:2|0:2|0:2,0:0:0:0:
268,376,54515,2,0,B|294:371|294:371|299:363|299:363|319:362,3,52.4999983978272,2|2|2|2,3:2|0:2|0:2|0:2,0:0:0:0:
356,291,54858,6,0,B|341:268|355:232|355:232|375:213|370:152,2,134.999995880127,2|2|2,0:2|0:2|0:2,0:0:0:0:
512,222,55630,6,0,P|495:259|489:315,1,89.9999972534181,2|0,0:2|0:0,0:0:0:0:
512,333,55887,1,2,0:2:0:0:
512,333,56058,1,2,0:2:0:0:
442,383,56230,6,0,B|355:362|404:324|290:300,1,157.499995193482,2|0,3:2|0:0,0:0:0:0:
277,296,56573,2,0,P|297:242|237:231,1,104.999996795654,10|2,3:2|0:2,0:0:0:0:
152,284,56915,2,0,P|155:204|187:120,1,134.999995880127,2|0,3:2|0:0,0:0:0:0:
199,140,57258,1,10,3:2:0:0:
199,140,57430,1,2,0:2:0:0:
184,51,57601,6,0,L|62:67,2,101.250000386238,2|2|10,3:2|0:2|3:2,0:2:0:0:
258,0,58115,1,2,0:2:0:0:
258,0,58287,2,0,B|341:26|291:60|388:92,1,151.875000579357,2|0,3:2|0:0,0:0:0:0:
401,76,58630,2,0,P|409:62|389:25,3,50.6250001931191,10|0|2|0,3:2|3:0|3:2|3:2,3:0:0:0:
482,129,58973,6,0,B|444:168|444:168|476:279,1,157.499995193482,2|0,3:2|0:0,0:0:0:0:
460,288,59315,2,0,P|424:241|377:272,1,104.999996795654,10|2,3:2|0:2,0:0:0:0:
279,285,59658,2,0,P|332:300|307:381,1,134.999995880127,2|0,3:2|0:0,0:0:0:0:
300,384,60001,1,10,3:2:0:0:
300,384,60173,1,2,0:2:0:0:
204,310,60344,6,0,L|193:258,3,44.999998626709,2|0|2|0,3:2|0:0|3:2|0:0,0:0:0:0:
249,210,60687,2,0,L|260:158,3,44.999998626709,10|0|2|0,3:2|0:0|3:2|0:0,0:0:0:0:
284,140,61030,1,6,3:0:0:0:
284,140,61201,1,0,0:0:0:0:
175,129,61373,6,0,B|87:144|87:144|84:147|84:147|2:162,1,146.249993305207,10|0,3:0|0:0,0:2:0:0:
11,187,61715,6,0,B|-1:293|64:247|57:361,1,157.499995193482,2|0,3:2|0:0,0:0:0:0:
51,379,62058,2,0,P|86:342|174:359,1,104.999996795654,10|0,3:2|0:0,0:0:0:0:
176,269,62401,2,0,B|255:297|187:307|292:349,1,134.999995880127,2|0,3:2|0:0,0:0:0:0:
318,331,62744,1,10,3:2:0:0:
318,331,62915,1,2,0:2:0:0:
293,245,63087,6,0,P|321:173|368:167,2,101.250000386238,2|2|10,3:2|0:2|3:2,0:2:0:0:
318,331,63601,1,2,0:2:0:0:
318,331,63773,2,0,P|365:313|470:298,1,151.875000579357,2|0,3:2|0:0,0:0:0:0:
479,281,64115,2,0,P|507:257|513:218,3,50.6250001931191,10|0|0|0,3:2|3:2|3:2|3:2,3:2:0:0:
442,204,64458,6,0,P|397:100|384:32,1,157.499995193482,2|0,3:2|0:0,0:0:0:0:
368,28,64801,2,0,P|321:68|263:58,1,104.999996795654,10|2,3:2|0:0,0:0:0:0:
209,8,65144,2,0,P|96:37|76:55,1,134.999995880127,2|0,3:2|0:0,0:0:0:0:
82,69,65487,1,8,3:2:0:0:
82,69,65658,1,0,0:2:0:0:
45,161,65830,6,0,P|42:177|61:208,3,44.999998626709,2|2|2|0,3:2|0:2|0:2|0:2,0:0:0:0:
0,256,66173,2,0,P|9:269|44:277,3,44.999998626709,10|2|2|0,3:2|0:2|0:2|0:2,0:0:0:0:
60,358,66515,2,0,L|122:342,3,37.5,2|2|2|0,3:2|0:2|0:2|0:2,0:0:0:0:
188,351,66858,6,0,L|320:370,1,112.5,10|0,3:2|0:0,0:2:0:0:
338,384,67201,6,0,P|325:279|321:214,2,134.999995880127,2|0|2,3:2|0:0|3:2,0:0:0:0:
427,363,67973,1,2,0:0:0:0:
453,276,68230,2,0,P|387:273|303:237,1,134.999995880127,10|0,3:2|0:0,0:0:0:0:
334,237,68573,6,0,P|367:178|329:108,2,134.999995880127,2|0|2,3:2|0:0|3:2,0:0:0:0:
252,195,69344,1,0,0:0:0:0:
193,257,69601,2,0,P|126:245|59:240,1,134.999995880127,10|0,3:2|0:0,0:0:0:0:
39,216,69944,6,0,B|19:149|94:171|58:79,2,134.999995880127,2|2|2,3:2|0:2|3:2,0:0:0:0:
56,315,70716,2,0,P|93:352|122:333,1,89.9999972534181,2|0,3:2|0:0,0:0:0:0:
130,306,70973,1,10,3:2:0:0:
202,258,71144,1,2,3:2:0:0:
264,321,71316,6,0,L|406:336,2,134.999995880127,2|0|2,3:2|3:2|3:2,0:2:0:0:
314,250,72087,1,2,0:0:0:0:
277,174,72344,2,0,B|206:172|244:227|144:230,1,134.999995880127,10|0,3:0|0:0,0:2:0:0:
132,217,72687,6,0,P|92:221|70:242,2,67.4999979400635,2|2|2,3:2|0:2|0:2,0:0:0:0:
136,308,73373,2,0,P|176:308|194:366,2,90,2|2|2,3:2|0:2|0:2,0:0:0:0:
271,365,74058,6,0,P|201:374|133:394,2,112.5,2|2|2,3:2|0:2|0:2,0:0:0:0:
336,288,74744,2,0,P|389:294|483:320,2,134.999995880127,2|2|2,3:2|0:2|0:2,0:0:0:0:
256,192,75430,12,0,76801,0:0:0:0:
0,91,78173,6,0,L|59:101,3,52.4999983978272,2|0|2|2,3:2|0:0|0:0|0:0,0:2:0:0:
98,161,78515,2,0,L|153:151,3,52.4999983978272,2|2|2|2,3:2|0:0|0:0|0:0,0:2:0:0:
205,98,78858,2,0,L|280:112,1,52.4999983978272,2|0,3:2|0:0,0:2:0:0:
404,0,79201,2,0,L|413:62,3,52.4999983978272,2|2|0|0,3:2|0:0|0:0|0:0,0:0:0:0:
462,116,79544,2,0,L|453:178,3,52.4999983978272,2|2|2|0,3:2|0:0|0:0|0:0,0:0:0:0:
401,224,79887,2,0,L|410:286,3,52.4999983978272,2|2|2|2,3:2|0:0|0:0|0:0,0:0:0:0:
468,347,80230,6,0,P|389:320|320:365,1,157.499995193482,10|0,3:0|0:0,0:2:0:0:
302,384,80573,2,0,P|311:308|292:209,1,157.499995193482,6|0,3:0|0:0,0:2:0:0:
268,210,80915,6,0,P|253:191|272:162,3,52.4999983978272,2|0|2|2,3:2|0:0|0:0|0:0,0:2:0:0:
203,114,81258,2,0,P|205:89|239:82,3,52.4999983978272,2|0|2|2,3:2|0:0|0:0|0:0,0:2:0:0:
224,0,81601,2,0,P|243:-14|272:4,1,52.4999983978272,2|0,3:2|0:0,0:2:0:0:
55,71,81944,6,0,L|-14:78,3,52.4999983978272,2|2|0|0,3:2|0:0|0:0|0:0,0:0:0:0:
29,154,82287,2,0,L|98:161,3,52.4999983978272,2|2|2|0,3:2|0:0|0:0|0:0,0:0:0:0:
119,234,82630,2,0,L|50:241,3,52.4999983978272,2|2|2|2,3:2|0:0|0:0|0:0,0:0:0:0:
16,299,82973,1,6,3:0:0:0:
16,299,83144,1,0,0:0:0:0:
78,365,83315,2,0,L|271:388,1,157.499995193482,10|0,3:0|0:0,0:2:0:0:
283,368,83658,6,0,B|291:341|291:341|289:338|289:338|299:299,3,52.4999983978272,2|2|2|0,3:2|0:0|0:0|0:0,0:0:0:0:
367,285,84001,2,0,B|359:258|359:258|361:255|361:255|351:216,3,52.4999983978272,2|2|2|0,3:2|0:0|0:0|0:0,0:0:0:0:
298,177,84344,6,0,P|280:164|237:170,3,52.4999983978272,2|2|0|0,3:2|3:2|0:0|0:0,0:0:0:0:
355,119,84687,2,0,P|373:106|416:112,3,52.4999983978272,2|2|2|0,3:2|3:2|0:0|0:0,0:0:0:0:
318,53,85030,6,0,P|279:52|248:36,3,52.4999983978272,2|2|2|0,3:2|0:0|0:0|0:0,0:0:0:0:
206,94,85373,2,0,P|179:85|151:86,3,52.4999983978272,2|2|2|2,3:2|0:0|0:0|0:0,0:0:0:0:
104,22,85715,6,0,P|116:113|131:226,1,157.499995193482,10|0,3:0|0:0,0:2:0:0:
113,213,86058,2,0,B|213:243|151:278|255:314,1,157.499995193482,6|0,3:0|0:0,0:2:0:0:
265,335,86401,6,0,P|281:324|325:324,3,52.4999983978272,2|2|2|2,3:2|0:0|0:0|0:0,0:0:0:0:
363,261,86744,2,0,P|390:260|414:274,3,52.4999983978272,2|2|2|0,3:2|0:0|0:0|0:0,0:0:0:0:
479,234,87087,2,0,L|466:168,3,52.4999983978272,2|2|2|2,3:2|3:2|0:0|0:0,0:0:0:0:
502,100,87430,2,0,P|445:150|342:122,1,157.499995193482,2|2,3:2|0:0,0:0:0:0:
345,121,87773,6,0,P|345:83|416:62,2,112.5,2|2|2,0:2|0:2|0:2,0:0:0:0:
269,144,88544,2,0,P|281:183|289:240,1,75,2|0,0:2|0:0,0:0:0:0:
276,250,88801,1,2,0:2:0:0:
276,250,88973,1,2,0:2:0:0:
214,318,89144,6,0,L|145:308,3,52.4999983978272,2|0|2|0,3:2|0:0|0:0|0:0,0:0:0:0:
120,332,89487,1,10,3:2:0:0:
120,332,89658,1,2,0:2:0:0:
85,244,89830,2,0,P|96:183|115:57,1,157.499995193482,2|0,3:2|0:0,0:0:0:0:
96,41,90173,1,10,3:2:0:0:
96,41,90344,1,2,0:2:0:0:
189,21,90515,6,0,L|299:0,2,104.999996795654,2|2|10,3:2|0:0|3:2,0:0:0:0:
226,106,91030,1,2,0:2:0:0:
226,106,91201,2,0,P|259:106|284:137,3,52.4999983978272,2|2|2|0,3:2|0:0|0:0|0:0,0:0:0:0:
229,187,91544,2,0,P|208:263|204:369,1,157.499995193482,10|0,3:2|0:0,0:2:0:0:
281,384,91887,6,0,P|300:361|332:352,3,52.4999983978272,2|0|2|0,3:2|0:0|0:0|0:0,0:0:0:0:
366,372,92230,1,10,3:2:0:0:
366,372,92401,1,2,0:2:0:0:
443,323,92573,2,0,P|431:266|408:133,1,157.499995193482,2|0,3:2|0:0,0:0:0:0:
436,136,92915,1,10,3:2:0:0:
436,136,93087,1,2,0:2:0:0:
374,68,93258,6,0,L|314:78,3,52.4999983978272,2|0|2|0,3:2|0:0|0:0|0:0,0:0:0:0:
289,47,93601,2,0,L|233:37,3,52.4999983978272,10|0|2|0,3:2|0:0|0:0|0:0,0:0:0:0:
208,9,93944,6,0,P|183:83|89:74,1,157.499995193482,6|0,3:0|0:0,0:2:0:0:
73,62,94287,2,0,P|91:157|97:244,1,157.499995193482,10|0,3:0|0:0,0:2:0:0:
22,266,94630,6,0,B|29:290|29:290|60:299,3,52.4999983978272,2|0|2|0,3:2|0:0|0:0|0:0,0:0:0:0:
87,332,94973,1,10,3:2:0:0:
87,332,95144,1,2,0:2:0:0:
164,274,95315,2,0,B|275:304|194:354|301:380,1,157.499995193482,2|0,3:2|0:0,0:0:0:0:
311,370,95658,1,10,3:2:0:0:
311,370,95830,1,2,0:2:0:0:
306,277,96001,6,0,P|315:220|324:151,2,104.999996795654,2|2|8,3:2|0:0|3:2,0:0:0:0:
413,247,96515,1,2,0:2:0:0:
413,247,96687,2,0,B|449:215|449:215|427:66,1,157.499995193482,2|0,3:2|0:0,0:0:0:0:
422,66,97030,2,0,P|378:119|289:79,1,157.499995193482,10|0,3:2|0:0,3:2:0:0:
238,22,97373,6,0,L|175:34,3,52.4999983978272,2|0|2|0,3:2|0:0|0:0|0:0,0:0:0:0:
162,55,97715,1,10,3:2:0:0:
162,55,97887,1,2,0:2:0:0:
89,93,98058,2,0,P|95:180|32:233,1,157.499995193482,2|0,3:2|0:0,0:0:0:0:
16,223,98401,1,10,3:2:0:0:
16,223,98573,1,2,0:2:0:0:
59,327,98744,6,0,L|134:311,3,52.4999983978272,2|0|2|0,3:2|0:0|0:0|0:0,0:0:0:0:
144,292,99087,2,0,L|199:303,3,52.4999983978272,10|0|2|0,3:2|0:0|0:0|0:0,0:0:0:0:
232,330,99430,2,0,P|243:232|270:165,1,157.499995193482,2|0,3:2|0:0,0:0:0:0:
293,149,99773,2,0,P|350:115|309:2,1,157.499995193482,10|0,3:2|0:0,0:0:0:0:
321,32,100115,6,0,P|245:51|177:51,2,134.999995880127,2|2|2,3:2|3:2|0:2,3:2:0:0:
123,104,100887,1,2,0:0:0:0:
204,171,101144,2,0,P|138:174|54:210,1,134.999995880127,2|0,0:2|0:0,0:0:0:0:
71,216,101487,6,0,P|135:240|211:285,2,134.999995880127,2|2|2,3:2|3:2|0:2,3:2:0:0:
35,335,102258,1,2,0:0:0:0:
109,282,102515,2,0,B|219:294|151:356|267:365,1,179.999994506836,2|0,0:2|0:0,0:0:0:0:
