osu file format v14

[General]
AudioFilename: audio.mp3
AudioLeadIn: 0
PreviewTime: 198022
Countdown: 0
SampleSet: Soft
StackLeniency: 0.7
Mode: 0
LetterboxInBreaks: 0
WidescreenStoryboard: 0

[Editor]
Bookmarks: 15322,16072,32422,48622,59422,88222,95422,109822,117022,145822,153022,167422,178222,187222,244822
DistanceSpacing: 1.4
BeatDivisor: 4
GridSize: 32
TimelineZoom: 1.8

[Metadata]
Title:Prototype
TitleUnicode:Prototype
Artist:9uava
ArtistUnicode:구아바
Creator:Sparhten
Version:Dreaming
Source:
Tags:-eresh niki layla amiya japanese H__P1NK rock Porem Genshin_impact_background
BeatmapID:3998870
BeatmapSetID:1935013

[Difficulty]
HPDrainRate:4
CircleSize:4
OverallDifficulty:9
ApproachRate:9.6
SliderMultiplier:2.4
SliderTickRate:1

[Events]
//Background and Video events
0,0,"ANIME-PICTURES.NET_-_781590-2560x1440-genshin+impact-layla+(genshin+impact)-nisikm-single-long+hair-looking+at+viewer.jpg",0,0
//Break Periods
//Storyboard Layer 0 (Background)
//Storyboard Layer 1 (Fail)
//Storyboard Layer 2 (Pass)
//Storyboard Layer 3 (Foreground)
//Storyboard Layer 4 (Overlay)
//Storyboard Sound Samples

[TimingPoints]
1822,300,6,2,1,25,1,0
15322,-333.333333333333,6,2,1,50,0,0
16222,-100,6,2,1,70,0,0
32422,-125,6,2,1,65,0,0
33022,-166.666666666667,6,2,1,65,0,0
34222,-125,6,2,1,65,0,0
36997,-125,6,2,1,5,0,0
37072,-125,6,2,1,65,0,0
37297,-125,6,2,1,5,0,0
37372,-125,6,2,1,65,0,0
37597,-125,6,2,1,5,0,0
37672,-125,6,2,1,65,0,0
42397,-125,6,2,1,5,0,0
42472,-125,6,2,1,65,0,0
42697,-125,6,2,1,5,0,0
42772,-125,6,2,1,65,0,0
42997,-125,6,2,1,5,0,0
43072,-125,6,2,1,65,0,0
59422,-83.3333333333333,6,2,1,80,0,0
88222,-100,6,2,1,70,0,0
95122,-166.666666666667,6,2,1,65,0,0
95422,-125,6,2,1,60,0,0
96397,-125,6,2,1,5,0,0
96472,-125,6,2,1,65,0,0
96697,-125,6,2,1,5,0,0
96772,-125,6,2,1,65,0,0
96997,-125,6,2,1,5,0,0
97072,-125,6,2,1,65,0,0
103597,-125,6,2,1,5,0,0
103672,-125,6,2,1,65,0,0
103897,-125,6,2,1,5,0,0
103972,-125,6,2,1,65,0,0
104197,-125,6,2,1,5,0,0
104272,-125,6,2,1,65,0,0
105997,-125,6,2,1,5,0,0
106072,-125,6,2,1,65,0,0
117022,-83.3333333333333,6,2,1,80,0,0
145822,-100,6,2,1,70,0,0
153022,-83.3333333333333,6,2,1,80,0,0
166522,-1000,6,2,1,50,0,0
167422,-333.333333333333,6,2,1,30,0,0
170197,-333.333333333333,6,2,1,5,0,0
170272,-333.333333333333,6,2,1,30,0,0
170497,-333.333333333333,6,2,1,5,0,0
170572,-333.333333333333,6,2,1,30,0,0
170797,-333.333333333333,6,2,1,5,0,0
170872,-333.333333333333,6,2,1,30,0,0
177322,-166.666666666667,6,2,1,55,0,0
178222,-83.3333333333333,6,2,1,80,0,0
187222,-71.4285714285714,6,2,1,85,0,0
216022,-71.4285714285714,6,2,1,90,0,0
244822,-500,6,2,1,65,0,0
252022,-200,6,2,1,15,0,0

[Colours]
Combo1 : 95,108,235
Combo2 : 132,102,253
Combo3 : 94,184,232
Combo4 : 241,234,88

[HitObjects]
256,192,9022,12,0,15022,0:0:0:0:
129,345,15322,6,0,P|108:328|105:296,1,53.9999983520508,10|0,0:2|0:0,0:0:0:0:
21,309,15622,2,0,P|18:282|38:257,1,53.9999983520508,2|0,1:2|0:0,0:0:0:0:
209,223,15922,6,0,P|202:249|173:264,1,53.9999983520508,2|0,1:2|0:0,0:0:0:0:
99,217,16222,2,0,P|109:165|126:129,1,60,2|0,1:2|0:0,0:0:0:0:
188,116,16372,2,0,P|237:84|249:27,1,120,2|0,1:2|0:0,0:0:0:0:
31,46,16672,2,0,P|95:136|152:209,1,180,2|0,1:2|0:0,0:0:0:0:
137,191,16972,1,0,1:2:0:0:
326,364,17122,2,0,P|394:303|358:215,1,180,10|0,0:2|0:0,0:0:0:0:
160,330,17422,2,0,P|226:256|304:289,1,180,2|0,1:2|0:0,0:0:0:0:
482,164,17722,6,0,P|401:197|336:131,1,180,2|0,1:2|0:2,0:0:0:0:
446,45,18022,6,0,P|422:119|422:122,1,60,6|0,1:2|0:0,0:0:0:0:
512,175,18172,2,0,P|491:232|479:290,1,120,2|0,1:2|0:0,0:0:0:0:
245,343,18472,2,0,P|280:258|320:152,1,180,2|0,1:2|0:0,0:0:0:0:
312,175,18772,1,0,1:2:0:0:
323,91,18922,6,0,B|275:76|229:130|254:126|226:176|156:165,1,180,10|0,0:2|0:0,0:0:0:0:
171,166,19222,1,2,1:2:0:0:
80,9,19372,1,8,0:2:0:0:
23,166,19522,6,0,P|93:110|177:77,1,180,2|0,1:2|0:0,0:0:0:0:
24,79,19822,2,0,P|81:104|111:122,1,60,6|0,1:2|0:0,0:0:0:0:
125,224,19972,2,0,P|180:248|232:278,1,120,2|0,1:2|0:0,0:0:0:0:
0,365,20272,2,0,P|78:320|160:285,1,180,2|0,1:2|0:0,0:0:0:0:
160,285,20572,1,0,1:2:0:0:
311,361,20722,6,0,P|336:276|391:156,1,180,10|0,0:2|0:0,0:0:0:0:
499,163,21022,2,0,P|463:245|438:331,1,180,2|0,1:2|0:0,0:0:0:0:
437,331,21322,1,2,1:2:0:0:
138,158,21472,1,10,0:2:0:0:
438,50,21622,6,0,P|384:94|369:89,1,60,6|0,1:2|0:0,0:0:0:0:
283,188,21772,2,0,P|229:166|211:111,1,120,2|0,1:2|0:0,0:0:0:0:
433,165,22072,5,0,1:2:0:0:
346,0,22222,2,0,P|302:92|284:151,1,120,8|0,0:2|1:2,0:0:0:0:
51,236,22522,5,14,0:2:0:0:
261,289,22672,1,0,1:2:0:0:
5,384,22822,1,4,1:2:0:0:
155,289,22972,1,0,1:2:0:0:
155,289,23047,1,0,1:2:0:0:
155,289,23122,2,0,P|129:196|110:104,1,180,10|0,0:2|0:0,0:0:0:0:
31,40,23422,6,0,P|28:116|47:127,1,60,6|0,1:2|0:0,0:0:0:0:
208,137,23572,2,0,P|257:169|266:226,1,120,2|0,1:2|0:0,0:0:0:0:
17,190,23872,2,0,B|66:156|131:194|87:208|141:243|196:209,1,180,2|0,1:2|0:0,0:0:0:0:
180,216,24172,1,0,1:2:0:0:
442,337,24322,6,0,P|360:315|311:384,1,180,10|0,0:2|0:0,0:0:0:0:
112,316,24622,2,0,P|137:229|176:148,1,180,2|0,1:2|0:0,0:0:0:0:
311,139,24922,2,0,P|267:215|235:301,1,180,2|0,1:2|0:0,0:0:0:0:
423,263,25222,6,0,P|376:249|363:222,1,60,6|0,1:2|0:0,0:0:0:0:
349,61,25372,2,0,P|294:45|251:83,1,120,2|0,1:2|0:0,0:0:0:0:
381,0,25672,6,0,P|404:120|435:201,1,180,2|0,1:2|0:0,0:0:0:0:
423,174,25972,1,0,1:2:0:0:
326,326,26122,6,0,B|342:274|290:232|294:262|239:217|254:168,1,180,10|0,0:2|0:0,0:0:0:0:
473,56,26423,2,0,P|394:99|339:169,1,180,2|0,1:2|0:0,0:0:0:0:
156,157,26722,2,0,P|210:81|291:88,1,180,2|0,1:2|1:2,0:0:0:0:
49,71,27022,6,0,P|55:100|69:126,1,60,6|0,1:2|0:0,0:0:0:0:
37,360,27172,2,0,P|23:294|-7:236,1,120,2|0,1:2|0:0,0:0:0:0:
271,280,27472,2,0,P|171:258|93:216,1,180,2|0,1:2|0:0,0:0:0:0:
102,222,27772,1,0,1:2:0:0:
245,159,27922,6,0,B|260:200|202:256|214:210|153:268|174:334,1,180,10|0,0:2|0:0,0:0:0:0:
391,365,28222,2,0,P|354:278|346:181,1,180,2|0,1:2|0:0,0:0:0:0:
345,193,28522,1,2,1:2:0:0:
471,50,28672,1,0,0:0:0:0:
287,6,28822,1,6,1:2:0:0:
454,204,28972,6,0,B|471:160|410:102|422:148|364:92|380:51,1,180,2|0,1:2|0:0,0:0:0:0:
503,287,29272,2,0,P|459:237|360:269,1,180,2|0,1:2|0:0,0:0:0:0:
361,266,29572,1,0,1:2:0:0:
17,251,29722,5,10,0:2:0:0:
203,365,29872,1,0,1:2:0:0:
5,352,30022,6,0,P|89:316|178:271,1,180,2|0,1:2|0:0,0:0:0:0:
257,222,30322,1,2,1:2:0:0:
232,173,30397,1,10,1:2:0:0:
242,120,30472,1,10,0:2:0:0:
271,74,30547,1,10,0:2:0:0:
247,5,30622,6,0,P|261:69|265:93,1,60,6|0,1:2|0:0,0:0:0:0:
218,230,30772,2,0,P|201:300|193:360,1,120,2|0,1:2|0:0,0:0:0:0:
490,195,31072,6,0,P|352:168|293:152,1,180,2|0,1:2|0:0,0:0:0:0:
314,157,31372,1,0,1:2:0:0:
0,104,31522,2,0,P|138:77|197:61,1,180,10|0,0:2|0:0,0:0:0:0:
176,66,31822,1,2,1:2:0:0:
317,279,31972,1,10,0:2:0:0:
317,37,32122,6,0,B|331:81|267:130|298:117|233:163|255:237,1,180,2|0,1:2|0:0,0:0:0:0:
251,200,32422,1,6,1:2:0:0:
293,0,32572,2,0,P|298:25|399:165,1,192,2|8,1:2|0:2,0:0:0:0:
483,190,33022,2,0,P|458:251|430:352,2,143.999995605469,2|2|0,1:2|0:2|0:0,0:0:0:0:
474,109,33772,5,0,1:2:0:0:
397,180,33922,1,0,1:2:0:0:
329,144,34072,1,0,1:2:0:0:
280,194,34222,6,0,P|262:243|237:295,1,96,2|0,1:2|0:0,0:0:0:0:
98,333,34522,5,2,0:2:0:0:
25,366,34672,2,0,P|1:297|73:207,1,192,2|0,0:2|0:0,0:0:0:0:
170,132,35122,2,0,P|241:185|281:200,1,96,2|0,0:2|0:0,0:0:0:0:
99,68,35422,2,0,P|63:99|21:123,1,96,2|0,0:2|0:0,0:0:0:0:
132,0,35722,1,2,0:2:0:0:
132,0,36022,5,2,0:2:0:0:
190,50,36172,2,0,P|198:110|226:221,1,144
202,214,36472,2,0,P|212:266|229:320,1,96,2|0,0:2|0:0,0:0:0:0:
386,242,36772,1,2,0:2:0:0:
343,370,36922,6,0,P|348:346|355:323,1,48,2|0,0:2|0:0,0:0:0:0:
304,139,37222,2,0,P|322:155|338:172,1,48,2|0,0:2|0:0,0:0:0:0:
512,207,37522,2,0,P|488:214|462:220,1,48,2|0,0:2|0:0,0:0:0:0:
386,242,37822,5,2,0:2:0:0:
386,242,37972,2,0,P|366:193|357:141,1,96
265,0,38272,2,0,P|241:96|230:213,1,192,2|0,0:2|0:0,0:0:0:0:
117,352,38722,2,0,P|27:306|64:212,1,192,2|0,0:2|0:0,0:0:0:0:
123,130,39322,5,2,0:2:0:0:
123,130,39622,6,0,P|131:185|154:237,1,96,2|0,0:2|0:0,0:0:0:0:
137,321,39922,1,0,0:0:0:0:
137,321,40072,2,0,B|199:331|235:265|193:270|249:195|313:219,1,192,2|0,0:2|0:0,0:0:0:0:
296,332,40522,2,0,P|323:208|358:120,1,192,2|0,0:2|0:0,0:0:0:0:
505,98,41122,5,2,0:2:0:0:
402,240,41422,1,6,0:2:0:0:
402,240,41572,2,0,P|438:191|422:143,1,96,0|2,0:0|0:2,0:0:0:0:
358,60,41872,2,0,P|304:119|217:229,1,192,2|0,0:2|0:0,0:0:0:0:
342,295,42322,6,0,P|325:277|307:262,1,48,2|0,0:2|0:0,0:0:0:0:
252,77,42622,2,0,P|245:100|240:123,1,48,2|0,0:2|0:0,0:0:0:0:
103,257,42922,2,0,P|126:251|152:241,1,48,2|0,0:2|0:0,0:0:0:0:
237,212,43222,5,2,0:2:0:0:
237,212,43372,2,0,P|280:267|254:361,1,144
261,349,43672,2,0,P|216:334|169:326,1,96,2|0,0:2|0:0,0:0:0:0:
65,350,43972,1,2,0:2:0:0:
47,247,44122,2,0,P|42:197|32:139,1,96,2|0,0:2|0:0,0:0:0:0:
125,112,44422,2,0,P|132:159|137:207,1,96,2|0,0:2|0:0,0:0:0:0:
148,294,44722,1,2,0:2:0:0:
221,132,45022,5,2,0:2:0:0:
265,199,45172,2,0,P|337:234|418:289,1,144
405,284,45472,6,0,P|436:202|497:86,1,192,2|0,0:2|0:0,0:0:0:0:
407,49,45922,2,0,P|363:134|328:223,1,192,2|0,0:2|0:0,0:0:0:0:
98,240,46522,5,2,0:2:0:0:
98,240,46822,2,0,P|55:219|-3:252,1,96,2|0,0:2|0:0,0:0:0:0:
26,313,47122,1,0,0:0:0:0:
26,313,47272,2,0,B|82:328|119:266|90:270|126:211|188:217,1,192,2|0,0:2|0:0,0:0:0:0:
374,376,47722,2,0,P|289:330|198:301,1,192,2|0,0:2|0:0,0:0:0:0:
143,80,48172,5,0,1:2:0:0:
205,137,48322,1,0,1:2:0:0:
170,152,48472,1,0,1:2:0:0:
205,47,48622,6,0,P|185:102|151:231,1,192,4|0,1:2|0:0,0:0:0:0:
85,297,49072,2,0,P|53:255|67:205,1,96,8|0,0:2|0:0,0:0:0:0:
154,132,49372,1,0,0:0:0:0:
53,90,49522,2,0,P|127:146|232:206,1,192,0|0,1:2|0:0,0:0:0:0:
387,167,49972,1,8,0:2:0:0:
411,224,50122,1,0,0:0:0:0:
347,289,50272,1,0,0:0:0:0:
429,133,50422,6,0,P|395:224|369:315,1,192,0|0,1:2|0:0,0:0:0:0:
262,378,50872,2,0,P|245:344|241:251,1,96,8|0,0:2|0:0,0:0:0:0:
326,149,51172,1,0,0:0:0:0:
338,30,51322,2,0,P|308:114|230:219,1,192,0|0,1:2|0:0,0:0:0:0:
28,231,51772,1,8,0:2:0:0:
98,186,51922,1,0,0:0:0:0:
141,237,52072,1,0,0:0:0:0:
2,177,52222,6,0,P|111:214|188:247,1,192,0|0,1:2|0:0,0:0:0:0:
321,132,52672,2,0,P|376:128|445:113,1,96,8|0,0:2|0:0,0:0:0:0:
227,22,52972,1,0,0:0:0:0:
216,149,53122,2,0,P|141:94|149:3,1,192,0|0,1:2|0:0,0:0:0:0:
53,145,53572,1,8,0:2:0:0:
91,180,53722,1,0,0:0:0:0:
3,226,53872,1,0,0:0:0:0:
16,82,54022,2,0,P|42:179|51:272,1,192,0|0,1:2|0:0,0:0:0:0:
128,353,54472,5,8,0:2:0:0:
175,303,54622,1,0,0:0:0:0:
274,331,54772,1,0,0:0:0:0:
209,329,54922,1,4,1:2:0:0:
256,192,54997,12,0,58822,0:0:0:0:
279,313,59422,6,0,P|306:245|308:220,1,71.9999978027344,2|0,1:2|0:0,0:0:0:0:
63,18,59572,6,0,P|79:134|136:250,1,215.999993408203,2|0,1:2|0:0,0:0:0:0:
0,141,59872,2,0,P|71:115|224:235,1,287.999991210938,2|0,1:2|1:2,0:0:0:0:
503,33,60322,6,0,P|406:39|323:138,1,215.999993408203,10|0,0:2|0:0,0:0:0:0:
497,51,60622,2,0,P|442:107|350:264,1,215.999993408203,2|0,1:2|0:0,0:0:0:0:
230,0,60922,2,0,P|238:140|288:232,1,215.999993408203,2|0,1:2|0:0,0:0:0:0:
53,48,61222,2,0,P|93:62|143:98,1,71.9999978027344,6|0,1:2|0:0,0:0:0:0:
446,335,61372,2,0,P|317:293|210:275,1,215.999993408203,2|0,1:2|0:0,0:0:0:0:
30,322,61672,2,0,P|91:177|214:179,1,287.999991210938,2|0,1:2|1:2,0:0:0:0:
85,384,62122,2,0,P|184:281|320:195,1,287.999991210938,10|2,0:2|1:2,0:0:0:0:
512,295,62572,5,8,0:2:0:0:
403,7,62722,1,2,1:2:0:0:
403,7,63022,6,0,P|436:71|441:111,1,71.9999978027344,6|0,1:2|0:0,0:0:0:0:
251,285,63172,2,0,P|308:194|339:91,1,215.999993408203,2|0,1:2|0:0,0:0:0:0:
424,243,63472,2,0,P|332:132|255:11,1,287.999991210938,2|0,1:2|1:2,0:0:0:0:
112,24,63921,2,0,P|59:112|103:206,1,215.999993408203,10|0,0:2|0:0,0:0:0:0:
51,291,64222,2,0,P|153:293|196:200,1,215.999993408203,2|0,1:2|0:0,0:0:0:0:
36,63,64522,5,2,1:2:0:0:
278,215,64672,1,10,0:2:0:0:
355,49,64822,2,0,P|337:125|337:135,1,71.9999978027344,6|0,1:2|0:0,0:0:0:0:
206,377,64972,2,0,P|168:235|150:78,1,287.999991210938,2|0,1:2|1:2,0:0:0:0:
416,191,65422,5,8,0:2:0:0:
146,318,65572,1,0,1:2:0:0:
480,330,65722,5,14,0:2:0:0:
180,176,65872,1,0,1:2:0:0:
474,19,66022,5,4,1:2:0:0:
249,230,66172,1,0,1:2:0:0:
259,232,66247,1,0,1:2:0:0:
271,240,66322,1,10,0:2:0:0:
271,240,66622,6,0,P|289:194|272:161,1,71.9999978027344,6|0,1:2|0:0,0:0:0:0:
41,74,66772,2,0,P|9:168|86:254,1,215.999993408203,2|0,1:2|0:0,0:0:0:0:
354,0,67072,2,0,P|237:64|104:159,1,287.999991210938,2|0,1:2|1:2,0:0:0:0:
436,139,67522,6,0,B|430:95|355:55|372:109|256:81|251:-5,1,215.999993408203,10|0,0:2|0:0,0:0:0:0:
352,284,67822,2,0,P|297:181|349:104,1,215.999993408203,2|0,1:2|0:0,0:0:0:0:
471,0,68122,2,0,P|431:105|366:225,1,215.999993408203,2|0,1:2|0:0,0:0:0:0:
133,335,68422,2,0,P|101:256|97:250,1,71.9999978027344,6|0,1:2|0:0,0:0:0:0:
84,45,68572,2,0,P|136:118|194:241,1,215.999993408203,2|0,1:2|0:0,0:0:0:0:
242,341,68872,2,0,P|282:280|213:75,1,287.999991210938,2|0,1:2|1:2,0:0:0:0:
5,173,69322,6,0,P|114:214|200:291,1,215.999993408203,10|0,0:2|0:0,0:0:0:0:
14,263,69622,2,0,B|68:291|127:224|84:243|148:168|213:196,1,215.999993408203,2|0,1:2|0:0,0:0:0:0:
510,359,69922,2,0,P|408:315|295:289,1,215.999993408203,2|0,1:2|0:0,0:0:0:0:
462,248,70222,6,0,P|483:221|470:150,1,71.9999978027344,6|0,1:2|0:0,0:0:0:0:
320,7,70372,2,0,P|265:65|336:188,1,215.999993408203,2|0,1:2|0:0,0:0:0:0:
159,42,70672,6,0,P|290:105|404:201,1,287.999991210938,2|0,1:2|1:2,0:0:0:0:
120,123,71122,2,0,P|64:168|0:199,1,143.999995605469,10|0,0:2|0:0,0:0:0:0:
334,12,71422,2,0,P|389:57|454:88,1,143.999995605469,2|0,1:2|0:0,0:0:0:0:
1,51,71722,5,2,1:2:0:0:
36,75,71797,1,0,1:2:0:0:
43,117,71872,1,0,1:2:0:0:
47,159,71947,1,0,1:2:0:0:
79,187,72022,1,6,1:2:0:0:
247,24,72172,1,2,1:2:0:0:
250,49,72472,1,2,1:2:0:0:
232,61,72547,1,0,1:2:0:0:
219,78,72622,1,0,1:2:0:0:
125,290,72772,1,0,1:2:0:0:
322,379,72922,5,8,0:2:0:0:
155,23,73072,1,0,1:2:0:0:
58,384,73222,5,0,1:2:0:0:
290,119,73372,1,8,0:2:0:0:
444,296,73522,5,2,1:2:0:0:
446,289,73597,1,10,1:2:0:0:
449,282,73672,1,10,0:2:0:0:
453,276,73747,1,10,0:2:0:0:
457,270,73822,6,0,P|475:219|501:171,1,71.9999978027344,2|0,1:2|0:0,0:0:0:0:
437,72,73972,2,0,P|374:212|333:283,1,215.999993408203,2|0,1:2|0:0,0:0:0:0:
142,286,74272,2,0,B|217:319|305:225|231:272|288:145|387:173,1,287.999991210938,2|0,1:2|1:2,0:0:0:0:
264,351,74722,2,0,P|222:265|136:137,1,215.999993408203,10|0,0:2|0:0,0:0:0:0:
344,286,75022,2,0,P|445:270|505:354,1,215.999993408203,10|0,0:2|0:0,0:0:0:0:
291,200,75322,2,0,P|336:101|394:11,1,215.999993408203,10|0,0:2|0:0,0:0:0:0:
229,112,75622,6,0,P|271:43|287:34,1,71.9999978027344,6|0,1:2|0:0,0:0:0:0:
143,240,75772,2,0,B|92:240|52:178|88:185|48:84|-26:92,1,215.999993408203,2|0,1:2|0:0,0:0:0:0:
163,31,76072,2,0,P|84:167|9:285,1,287.999991210938,2|0,1:2|1:2,0:0:0:0:
182,336,76522,2,0,P|240:216|135:134,1,287.999991210938,10|2,0:2|1:2,0:0:0:0:
451,133,76972,5,8,0:2:0:0:
133,258,77122,1,2,1:2:0:0:
137,273,77422,6,0,P|208:305|216:310,1,71.9999978027344,6|0,1:2|0:0,0:0:0:0:
411,336,77572,2,0,P|320:276|237:208,1,215.999993408203,2|0,1:2|0:0,0:0:0:0:
390,82,77872,2,0,P|464:192|368:282,1,287.999991210938,2|0,1:2|1:2,0:0:0:0:
244,0,78322,6,0,P|279:72|364:185,1,215.999993408203,10|0,0:2|0:0,0:0:0:0:
392,13,78622,2,0,B|382:88|294:102|320:63|245:82|229:127,1,215.999993408203,2|0,1:2|0:0,0:0:0:0:
8,46,78922,1,2,1:2:0:0:
199,265,79072,1,10,0:2:0:0:
15,358,79222,6,0,P|0:328|1:268,1,71.9999978027344,6|0,1:2|0:0,0:0:0:0:
162,22,79372,2,0,P|139:131|74:306,1,287.999991210938,2|0,1:2|1:2,0:0:0:0:
16,177,79822,5,8,0:2:0:0:
281,88,79972,1,0,1:2:0:0:
268,361,80122,5,14,0:2:0:0:
116,135,80272,1,0,1:2:0:0:
184,290,80422,5,4,1:2:0:0:
338,31,80572,1,0,1:2:0:0:
495,356,80722,5,10,0:2:0:0:
203,187,80872,1,0,1:2:0:0:
449,249,81022,6,0,P|415:235|393:208,1,71.9999978027344,6|0,1:2|0:0,0:0:0:0:
242,343,81172,2,0,P|345:356|384:229,1,215.999993408203,2|0,1:2|0:0,0:0:0:0:
110,71,81472,2,0,P|221:170|307:278,1,287.999991210938,2|0,1:2|1:2,0:0:0:0:
485,27,81922,6,0,B|421:13|368:90|415:72|398:141|323:147,1,215.999993408203,10|0,0:2|0:0,0:0:0:0:
354,17,82222,2,0,P|466:96|446:174,1,215.999993408203,2|0,1:2|0:0,0:0:0:0:
202,284,82522,2,0,P|251:193|290:71,1,215.999993408203,2|0,1:2|0:0,0:0:0:0:
104,11,82822,2,0,P|140:81|143:104,1,71.9999978027344,6|0,1:2|0:0,0:0:0:0:
174,355,82972,2,0,P|134:247|69:157,1,215.999993408203,2|0,1:2|0:0,0:0:0:0:
22,382,83272,2,0,B|93:368|133:243|60:301|93:170|173:155,1,287.999991210938,2|0,1:2|1:2,0:0:0:0:
355,24,83722,6,0,P|277:85|301:206,1,215.999993408203,10|0,0:2|0:0,0:0:0:0:
431,239,84022,1,2,1:2:0:0:
255,49,84172,1,8,0:0:0:0:
446,338,84322,2,0,P|353:300|232:271,1,215.999993408203,2|0,1:2|0:0,0:0:0:0:
132,352,84622,2,0,P|114:299|137:233,1,71.9999978027344,6|0,1:2|0:0,0:0:0:0:
352,124,84772,2,0,P|410:200|372:318,1,215.999993408203,2|0,1:2|0:0,0:0:0:0:
178,66,85072,6,0,P|183:147|224:358,1,287.999991210938,2|0,1:2|1:2,0:0:0:0:
186,175,85522,6,0,B|248:186|294:90|239:120|272:39|330:35,1,215.999993408203,10|0,0:2|0:0,0:0:0:0:
161,259,85822,2,0,B|99:270|53:174|108:204|75:123|17:119,1,215.999993408203,2|0,1:2|0:0,0:0:0:0:
141,27,86122,2,0,P|173:49|184:96,1,71.9999978027344,2|0,1:2|0:0,0:0:0:0:
18,254,86272,2,0,P|32:222|62:203,1,71.9999978027344,8|0,0:0|0:0,0:0:0:0:
298,294,86422,5,6,1:2:0:0:
100,124,86572,1,0,1:2:0:0:
71,367,86722,2,0,P|125:298|199:305,1,143.999995605469,2|0,0:0|1:2,0:0:0:0:
219,149,87022,2,0,P|306:146|348:207,1,143.999995605469,2|0,0:0|1:2,0:0:0:0:
512,363,87247,1,0,1:2:0:0:
512,363,87322,6,0,P|383:298|252:235,1,287.999991210938,8|0,0:2|1:2,0:0:0:0:
23,134,87772,1,0,1:2:0:0:
23,134,87847,1,0,1:2:0:0:
22,134,87922,2,0,P|166:96|244:64,1,215.999993408203,2|0,1:2|0:0,0:0:0:0:
377,0,88222,5,6,1:2:0:0:
500,160,88372,2,0,P|380:148|368:286,1,240,2|2,1:2|1:2,0:0:0:0:
41,337,88822,5,8,0:2:0:0:
237,289,88972,1,0,1:2:0:0:
62,86,89122,5,10,0:2:0:0:
119,261,89272,2,0,P|141:181|169:113,1,120,0|0,0:0|1:2,0:0:0:0:
357,12,89572,1,2,0:2:0:0:
371,207,89722,2,0,P|386:149|407:93,1,120,0|8,1:2|0:2,0:0:0:0:
484,297,90022,1,6,1:2:0:0:
484,297,90172,2,0,B|410:337|363:248|421:267|343:171|281:203,1,240,0|2,1:2|1:2,0:0:0:0:
172,71,90622,5,8,0:2:0:0:
295,286,90772,1,0,1:2:0:0:
276,43,90922,2,0,P|240:195|198:281,1,240,10|0,0:2|1:2,0:0:0:0:
7,330,91372,5,0,1:2:0:0:
218,168,91522,1,0,1:2:0:0:
35,50,91672,1,0,0:0:0:0:
121,330,91822,6,0,P|99:298|101:266,1,60,4|0,1:2|0:0,0:0:0:0:
20,171,91972,2,0,P|35:135|63:120,1,60,0|0,1:2|0:0,0:0:0:0:
329,85,92122,5,2,0:2:0:0:
329,85,92272,2,0,P|211:149|95:195,1,240,0|0,1:2|1:2,0:0:0:0:
166,48,92722,2,0,B|159:110|242:156|244:105|329:153|314:214,2,240,8|0|0,0:2|1:2|1:2,0:0:0:0:
502,20,93472,5,8,0:2:0:0:
310,157,93622,1,6,1:2:0:0:
512,254,93772,1,8,0:2:0:0:
322,3,93922,5,0,0:0:0:0:
433,282,94072,1,0,1:2:0:0:
219,308,94222,5,8,0:2:0:0:
454,143,94372,1,0,1:2:0:0:
197,26,94522,1,0,1:2:0:0:
348,384,94672,1,0,1:2:0:0:
373,358,94747,1,8,0:2:0:0:
408,350,94822,1,8,0:2:0:0:
442,359,94897,1,0,1:2:0:0:
474,344,94972,1,8,0:2:0:0:
281,92,95122,6,0,P|270:118|240:222,1,107.999996704102,6|0,1:2|0:0,0:0:0:0:
82,254,95422,6,0,P|17:289|-20:266,1,96,2|0,1:2|0:0,0:0:0:0:
137,186,95722,1,2,0:2:0:0:
142,317,95872,2,0,P|207:352|244:329,1,96,2|0,0:2|0:0,0:0:0:0:
137,169,96172,1,0,0:0:0:0:
118,37,96322,2,0,P|133:60|135:81,1,48,2|0,0:2|0:0,0:0:0:0:
259,215,96622,2,0,P|231:216|212:207,1,48,2|0,0:2|0:0,0:0:0:0:
33,247,96922,2,0,P|45:222|62:210,1,48,2|0,0:2|0:0,0:0:0:0:
122,165,97222,5,2,0:2:0:0:
130,162,97297,1,0,0:0:0:0:
139,160,97372,1,0,0:0:0:0:
147,158,97447,1,0,0:0:0:0:
156,156,97522,1,0,0:0:0:0:
242,60,97672,2,0,P|305:74|351:81,1,96,2|0,0:2|0:0,0:0:0:0:
406,323,97972,1,0,0:0:0:0:
406,323,98122,2,0,P|444:270|414:212,1,96,2|0,0:2|0:0,0:0:0:0:
309,162,98422,2,0,P|273:192|269:239,1,96,2|0,0:2|0:0,0:0:0:0:
360,262,98722,5,2,0:2:0:0:
358,253,98797,1,0,0:0:0:0:
356,245,98872,1,0,0:0:0:0:
354,236,98947,1,0,0:0:0:0:
351,228,99022,1,2,0:2:0:0:
192,243,99172,6,0,P|184:292|169:349,1,96
63,384,99472,2,0,P|90:280|105:178,1,192,2|0,0:2|0:0,0:0:0:0:
128,40,99922,1,2,0:2:0:0:
128,40,100072,2,0,B|138:93|64:118|81:88|8:121|23:187,1,192
133,106,100522,5,2,0:2:0:0:
133,106,100822,2,0,P|197:193|182:271,1,192,2|0,0:2|0:0,0:0:0:0:
206,369,101272,2,0,P|100:320|11:292,1,192,2|0,0:2|0:0,0:0:0:0:
103,221,101722,1,2,0:2:0:0:
103,221,101872,2,0,P|192:255|277:299,1,192
205,222,102322,2,0,P|180:173|219:120,1,96,2|0,0:2|0:0,0:0:0:0:
358,0,102622,2,0,P|316:78|272:187,1,192,2|0,0:2|0:0,0:0:0:0:
373,323,103072,2,0,P|427:242|377:157,1,192,2|0,0:2|0:0,0:0:0:0:
344,45,103522,6,0,P|342:72|350:91,1,48,2|0,0:2|0:0,0:0:0:0:
299,260,103822,2,0,P|323:247|336:230,1,48,2|0,0:2|0:0,0:0:0:0:
512,179,104122,2,0,P|489:162|468:160,1,48,2|0,0:2|0:0,0:0:0:0:
390,165,104422,6,0,B|340:197|287:152|322:161|263:100|205:138,1,192,2|0,0:2|0:0,0:0:0:0:
94,20,104872,2,0,P|122:97|128:141,1,96,2|0,0:2|0:0,0:0:0:0:
69,171,105172,1,2,0:2:0:0:
206,305,105322,2,0,P|217:258|236:214,1,96,2|0,0:2|0:0,0:0:0:0:
339,145,105622,1,2,0:0:0:0:
332,151,105697,1,0,0:0:0:0:
327,159,105772,1,0,0:0:0:0:
322,167,105847,1,0,0:0:0:0:
321,176,105922,2,0,P|328:203|328:224,1,48,2|0,0:0|0:0,0:0:0:0:
4,278,106222,6,0,P|38:218|159:257,1,192,2|0,0:0|0:0,0:0:0:0:
264,378,106672,2,0,P|158:336|79:294,1,192,2|0,0:0|0:0,0:0:0:0:
387,232,107122,2,0,P|421:188|398:134,1,96,2|0,0:0|0:0,0:0:0:0:
413,151,107572,5,0,0:0:0:0:
301,145,107722,1,2,0:0:0:0:
308,150,107797,1,0,0:0:0:0:
316,154,107872,1,0,0:0:0:0:
323,159,107947,1,0,0:0:0:0:
329,165,108022,2,0,P|348:271|373:374,1,192,2|0,0:0|0:0,0:0:0:0:
199,384,108472,1,2,0:0:0:0:
265,346,108622,2,0,P|257:293|234:219,1,96
72,161,108922,2,0,P|59:207|53:254,1,96,2|0,0:0|0:0,0:0:0:0:
2,343,109222,5,0,0:2:0:0:
246,252,109372,1,0,1:2:0:0:
53,61,109522,5,8,0:2:0:0:
183,169,109672,1,0,1:2:0:0:
150,325,109822,6,0,B|160:264|116:219|107:265|54:194|77:149,1,192,4|0,1:2|0:0,0:0:0:0:
217,77,110272,2,0,P|170:115|174:167,1,96,8|0,0:2|0:0,0:0:0:0:
246,252,110572,1,0,0:0:0:0:
311,292,110722,2,0,P|390:261|511:238,1,192,0|0,1:2|0:0,0:0:0:0:
350,83,111172,1,8,0:2:0:0:
377,149,111322,1,0,0:0:0:0:
244,141,111472,1,0,0:0:0:0:
380,16,111622,6,0,P|381:105|309:172,1,192,0|0,1:2|0:0,0:0:0:0:
181,73,112072,2,0,P|218:43|286:68,1,96,8|0,0:2|0:0,0:0:0:0:
132,157,112372,1,0,0:0:0:0:
71,55,112522,2,0,P|100:128|115:244,1,192,0|0,1:2|0:0,0:0:0:0:
246,260,112972,5,8,0:2:0:0:
303,311,113122,1,0,0:0:0:0:
384,230,113272,1,0,0:0:0:0:
315,384,113422,6,0,P|345:300|289:200,1,192,0|0,1:2|0:0,0:0:0:0:
153,118,113872,2,0,P|148:172|196:218,1,96,8|0,0:2|0:0,0:0:0:0:
235,147,114172,1,0,0:0:0:0:
211,318,114322,6,0,P|125:295|9:288,1,192,0|0,1:2|0:0,0:0:0:0:
336,278,114772,5,8,0:2:0:0:
390,225,114922,1,0,0:0:0:0:
488,287,115072,1,0,0:0:0:0:
332,158,115222,6,0,P|358:248|409:371,1,192,0|0,1:2|0:0,0:0:0:0:
412,125,115672,2,0,P|438:74|436:10,1,96,8|0,0:2|0:0,0:0:0:0:
337,40,115972,1,0,0:0:0:0:
228,156,116122,2,0,P|177:105|96:136,1,144,4|0,1:2|0:0,0:0:0:0:
52,328,116422,5,8,0:2:0:0:
62,281,116497,1,8,0:2:0:0:
105,260,116572,1,8,0:2:0:0:
150,246,116647,1,8,0:2:0:0:
169,203,116722,1,0,1:2:0:0:
156,188,116797,5,0,1:2:0:0:
149,206,116872,1,0,1:2:0:0:
155,224,116947,1,0,1:2:0:0:
164,240,117022,2,0,P|204:303|211:333,1,71.9999978027344,2|0,1:2|0:0,0:0:0:0:
402,351,117172,2,0,P|441:271|346:184,1,215.999993408203,2|0,1:2|0:0,0:0:0:0:
159,39,117472,6,0,P|264:184|313:286,1,287.999991210938,2|0,1:2|1:2,0:0:0:0:
151,156,117922,2,0,B|98:147|63:237|95:203|69:295|0:286,1,215.999993408203,10|0,0:2|0:0,0:0:0:0:
174,286,118222,2,0,P|238:199|310:119,1,215.999993408203,2|0,1:2|0:0,0:0:0:0:
173,377,118521,2,0,P|86:328|111:231,1,215.999993408203,2|0,1:2|0:0,0:0:0:0:
248,16,118822,6,0,P|224:66|218:104,1,71.9999978027344,6|0,1:2|0:0,0:0:0:0:
388,219,118972,2,0,P|426:117|456:-15,1,215.999993408203,2|0,1:2|0:0,0:0:0:0:
337,44,119272,2,0,P|349:172|384:335,1,287.999991210938,2|0,1:2|1:2,0:0:0:0:
257,358,119722,2,0,B|190:401|107:312|159:320|80:221|4:284,1,287.999991210938,10|2,0:2|1:2,0:0:0:0:
0,6,120172,5,8,0:2:0:0:
204,163,120322,1,2,1:2:0:0:
204,163,120622,6,0,P|219:79|208:70,1,71.9999978027344,6|0,1:2|0:0,0:0:0:0:
138,255,120772,2,0,P|43:213|24:111,1,215.999993408203,2|0,1:2|0:0,0:0:0:0:
368,22,121072,2,0,P|161:116|108:152,1,287.999991210938,2|0,1:2|1:2,0:0:0:0:
363,114,121522,6,0,P|421:171|508:299,1,215.999993408203,10|0,0:2|0:0,0:0:0:0:
457,52,121822,2,0,B|482:117|416:167|421:126|359:188|401:268,1,215.999993408203,2|0,1:2|0:0,0:0:0:0:
469,366,122122,5,2,1:2:0:0:
226,184,122272,1,10,0:2:0:0:
314,368,122422,6,0,P|288:278|280:279,1,71.9999978027344,6|0,1:2|0:0,0:0:0:0:
35,220,122572,2,0,P|62:199|247:306,1,287.999991210938,2|0,1:2|1:2,0:0:0:0:
88,327,123022,5,8,0:2:0:0:
0,85,123172,1,0,1:2:0:0:
140,384,123322,5,14,0:2:0:0:
326,129,123472,1,0,1:2:0:0:
110,102,123622,5,4,1:2:0:0:
130,132,123697,1,0,0:0:0:0:
115,164,123772,1,0,1:2:0:0:
122,199,123847,1,0,1:2:0:0:
142,229,123922,1,10,0:2:0:0:
152,249,124222,6,0,P|181:165|176:157,1,71.9999978027344,6|0,1:2|0:0,0:0:0:0:
273,39,124372,2,0,P|321:169|379:245,1,215.999993408203,2|0,1:2|0:0,0:0:0:0:
247,378,124672,2,0,B|337:346|301:204|281:298|252:167|331:127,1,287.999991210938,2|0,1:2|1:2,0:0:0:0:
195,303,125122,6,0,P|299:291|380:359,1,215.999993408203,10|0,0:2|0:0,0:0:0:0:
123,193,125422,2,0,P|93:296|30:384,1,215.999993408203,2|0,1:2|0:0,0:0:0:0:
106,23,125722,2,0,P|170:110|243:190,1,215.999993408203,2|0,1:2|0:0,0:0:0:0:
53,145,126022,6,0,P|49:109|37:75,1,71.9999978027344,6|0,1:2|0:0,0:0:0:0:
337,11,126172,2,0,P|260:17|243:163,1,215.999993408203,2|0,1:2|0:0,0:0:0:0:
460,309,126472,2,0,B|361:303|354:182|393:232|390:107|278:91,1,287.999991210938,2|0,1:2|1:2,0:0:0:0:
475,202,126922,6,0,P|377:261|318:373,1,215.999993408203,10|0,0:2|0:0,0:0:0:0:
200,194,127222,2,0,P|234:289|335:294,1,215.999993408203,2|0,1:2|0:0,0:0:0:0:
263,0,127522,2,0,P|274:107|294:213,1,215.999993408203,2|0,1:2|0:0,0:0:0:0:
377,118,127822,6,0,P|361:87|350:52,1,71.9999978027344,6|0,1:2|0:0,0:0:0:0:
181,289,127972,2,0,P|185:181|177:74,1,215.999993408203,2|0,1:2|0:0,0:0:0:0:
0,13,128272,6,0,P|50:131|182:95,1,287.999991210938,2|0,1:2|1:2,0:0:0:0:
49,86,128722,6,0,B|90:86|113:29|73:60|119:-8|153:0,1,143.999995605469,10|0,0:2|0:0,0:0:0:0:
404,223,129022,2,0,B|362:223|339:166|379:197|333:128|299:136,1,143.999995605469,2|0,1:2|0:0,0:0:0:0:
145,220,129322,5,2,1:2:0:0:
105,235,129397,1,0,1:2:0:0:
98,277,129472,1,0,1:2:0:0:
77,312,129547,1,0,1:2:0:0:
35,319,129622,1,6,1:2:0:0:
201,116,129772,1,2,1:2:0:0:
218,104,130072,5,2,1:2:0:0:
254,127,130147,1,0,1:2:0:0:
296,122,130222,1,0,1:2:0:0:
160,7,130372,1,0,1:2:0:0:
279,297,130522,1,8,0:2:0:0:
464,37,130672,5,0,1:2:0:0:
352,353,130822,1,0,1:2:0:0:
131,238,130972,5,8,0:2:0:0:
472,151,131122,1,2,1:2:0:0:
431,167,131197,1,10,1:2:0:0:
412,206,131272,1,10,0:2:0:0:
378,233,131347,1,10,0:2:0:0:
336,244,131422,2,0,P|242:212|238:213,1,71.9999978027344,2|0,1:2|0:0,0:0:0:0:
3,137,131572,2,0,P|106:106|198:51,1,215.999993408203,2|0,1:2|0:0,0:0:0:0:
365,105,131872,2,0,B|345:194|214:192|273:151|152:158|144:242,1,287.999991210938,2|0,1:2|1:2,0:0:0:0:
105,330,132322,6,0,P|50:246|103:138,1,215.999993408203,10|0,0:2|0:0,0:0:0:0:
296,67,132622,2,0,P|250:197|202:298,1,215.999993408203,10|0,0:2|0:0,0:0:0:0:
386,261,132922,2,0,B|345:241|283:332|334:294|280:379|211:365,1,215.999993408203,10|0,0:2|0:0,0:0:0:0:
480,248,133222,6,0,P|512:168|517:163,1,71.9999978027344,6|0,1:2|0:0,0:0:0:0:
331,231,133372,2,0,P|405:153|454:56,1,215.999993408203,2|0,1:2|0:0,0:0:0:0:
260,183,133672,2,0,P|330:120|475:244,1,287.999991210938,2|0,1:2|1:2,0:0:0:0:
35,142,134122,2,0,P|99:270|203:370,1,287.999991210938,10|2,0:2|1:2,0:0:0:0:
442,31,134572,5,8,0:2:0:0:
176,174,134722,1,2,1:2:0:0:
182,197,135022,6,0,P|148:105|150:103,1,71.9999978027344,6|0,1:2|0:0,0:0:0:0:
359,11,135172,2,0,P|294:109|265:230,1,215.999993408203,2|0,1:2|0:0,0:0:0:0:
228,90,135472,2,0,P|356:125|347:258,1,287.999991210938,2|0,1:2|1:2,0:0:0:0:
139,272,135922,6,0,P|62:175|11:95,1,215.999993408203,10|0,0:2|0:0,0:0:0:0:
229,291,136222,2,0,P|134:297|55:384,1,215.999993408203,2|0,1:2|0:0,0:0:0:0:
295,351,136522,1,2,1:2:0:0:
179,171,136672,1,10,0:2:0:0:
392,334,136822,2,0,P|381:298|357:271,1,71.9999978027344,6|0,1:2|0:0,0:0:0:0:
237,83,136972,6,0,P|195:221|171:373,1,287.999991210938,2|0,1:2|1:2,0:0:0:0:
354,124,137422,5,8,0:2:0:0:
77,225,137572,1,0,1:2:0:0:
512,242,137722,5,14,0:2:0:0:
351,17,137872,1,0,1:2:0:0:
128,302,138022,5,4,1:2:0:0:
237,83,138172,1,0,1:2:0:0:
387,269,138322,5,10,0:2:0:0:
92,132,138472,1,0,1:2:0:0:
349,49,138622,2,0,P|336:90|323:157,1,71.9999978027344,6|0,1:2|0:0,0:0:0:0:
504,366,138772,2,0,P|467:226|429:109,1,215.999993408203,2|0,1:2|0:0,0:0:0:0:
197,202,139072,2,0,P|64:224|4:104,1,287.999991210938,2|0,1:2|1:2,0:0:0:0:
102,299,139522,2,0,B|47:260|86:171|112:217|130:134|99:98,1,215.999993408203,10|0,0:2|0:0,0:0:0:0:
319,138,139822,2,0,P|231:112|160:-3,1,215.999993408203,2|0,1:2|0:0,0:0:0:0:
281,45,140122,2,0,P|353:139|314:286,1,215.999993408203,2|0,1:2|0:0,0:0:0:0:
434,94,140422,6,0,P|461:172|467:179,1,71.9999978027344,6|0,1:2|0:0,0:0:0:0:
310,375,140572,2,0,P|269:269|184:160,1,215.999993408203,2|0,1:2|0:0,0:0:0:0:
466,310,140872,2,0,B|444:242|305:238|368:279|261:305|204:214,1,287.999991210938,2|0,1:2|1:2,0:0:0:0:
114,26,141322,6,0,P|24:67|61:201,1,215.999993408203,10|0,0:2|0:0,0:0:0:0:
310,126,141622,5,2,1:2:0:0:
86,240,141772,1,8,0:0:0:0:
163,376,141922,6,0,P|145:290|98:129,1,215.999993408203,2|0,1:2|0:0,0:0:0:0:
219,5,142222,2,0,P|258:82|271:99,1,71.9999978027344,6|0,1:2|0:0,0:0:0:0:
76,330,142372,2,0,B|168:343|198:225|144:275|177:149|270:170,1,215.999993408203,2|0,1:2|0:0,0:0:0:0:
407,187,142672,2,0,P|326:135|141:65,1,287.999991210938,2|0,1:2|1:2,0:0:0:0:
328,35,143122,6,0,P|343:144|273:217,1,215.999993408203,10|0,0:2|0:0,0:0:0:0:
8,384,143422,2,0,P|160:316|255:290,1,215.999993408203,2|0,1:2|0:0,0:0:0:0:
14,213,143722,6,0,P|-1:132|-1:129,1,71.9999978027344,2|0,1:2|0:0,0:0:0:0:
217,15,143872,2,0,P|221:50|231:85,1,71.9999978027344,8|0,0:0|0:0,0:0:0:0:
363,227,144022,5,6,1:2:0:0:
96,166,144172,1,2,1:2:0:0:
498,147,144322,6,0,P|429:134|392:75,1,143.999995605469,0|2,0:0|1:2,0:0:0:0:
0,38,144622,2,0,P|87:41|129:-20,1,143.999995605469,0|0,0:0|1:2,0:0:0:0:
281,0,144847,1,0,1:2:0:0:
281,0,144922,6,0,P|256:142|233:326,1,287.999991210938,10|2,0:2|1:2,0:0:0:0:
287,147,145372,1,0,1:2:0:0:
287,147,145447,1,0,1:2:0:0:
287,146,145522,2,0,P|356:242|316:320,1,215.999993408203,2|0,1:2|0:0,0:0:0:0:
165,351,145822,5,6,1:2:0:0:
344,76,145972,2,0,P|224:64|212:202,1,240,2|2,1:2|1:2,0:0:0:0:
476,168,146422,5,8,0:2:0:0:
242,245,146572,1,0,1:2:0:0:
502,348,146722,5,10,0:2:0:0:
403,316,146872,2,0,P|370:240|353:168,1,120,0|0,0:0|1:2,0:0:0:0:
74,10,147172,1,2,0:2:0:0:
80,204,147322,2,0,P|95:146|124:89,1,120,0|8,1:2|0:2,0:0:0:0:
264,204,147622,1,6,1:2:0:0:
264,204,147772,2,0,B|190:164|143:253|201:234|123:330|61:298,1,240,0|2,1:2|1:2,0:0:0:0:
310,90,148222,5,8,0:2:0:0:
233,342,148372,1,0,1:2:0:0:
218,78,148522,2,0,P|349:154|435:196,1,240,10|0,0:2|1:2,0:0:0:0:
462,23,148972,5,0,1:2:0:0:
277,227,149122,1,0,1:2:0:0:
148,1,149272,1,8,0:0:0:0:
18,194,149422,6,0,P|40:176|70:170,1,60,6|0,1:2|0:0,0:0:0:0:
177,93,149572,2,0,P|205:101|224:124,1,60,0|0,1:2|0:0,0:0:0:0:
392,307,149722,5,0,0:2:0:0:
302,365,149872,2,0,P|184:301|68:255,1,240,2|0,1:2|1:2,0:0:0:0:
219,282,150322,6,0,P|207:224|159:192,1,120,10|0,0:2|0:0,0:0:0:0:
305,243,150622,2,0,P|388:185|407:163,1,120,0|0,1:2|0:0,0:0:0:0:
490,40,150922,5,0,1:2:0:0:
445,266,151072,1,8,0:2:0:0:
229,31,151222,5,6,1:2:0:0:
395,332,151372,1,8,0:2:0:0:
408,348,151747,5,0,0:0:0:0:
402,341,151822,1,8,0:2:0:0:
296,169,151972,1,0,1:2:0:0:
478,65,152122,1,0,1:2:0:0:
317,252,152347,1,8,0:2:0:0:
349,267,152422,1,10,0:2:0:0:
109,26,152572,5,8,0:2:0:0:
398,158,152722,1,6,1:2:0:0:
392,145,153022,2,0,P|412:71|399:60,1,71.9999978027344,2|0,1:2|0:0,0:0:0:0:
136,14,153172,6,0,P|232:35|371:100,1,215.999993408203,2|0,1:2|0:0,0:0:0:0:
339,81,153472,1,2,1:2:0:0:
470,279,153622,2,0,P|395:245|376:264,1,71.9999978027344
168,256,153772,2,0,P|199:239|211:206,1,71.9999978027344,0|0,1:2|0:0,0:0:0:0:
225,78,153922,2,0,P|289:174|347:312,1,215.999993408203,10|0,0:2|0:0,0:0:0:0:
12,343,154222,2,0,B|82:327|89:240|51:281|68:184|141:162,1,215.999993408203,10|0,0:2|0:0,0:0:0:0:
246,0,154522,2,0,B|297:-12|355:67|303:46|347:121|418:105,1,215.999993408203,10|0,0:2|0:0,0:0:0:0:
143,14,154822,2,0,P|126:64|101:96,1,71.9999978027344,6|0,1:2|0:0,0:0:0:0:
109,348,154972,2,0,P|48:230|4:156,1,215.999993408203,2|0,1:2|0:0,0:0:0:0:
38,311,155272,5,2,1:2:0:0:
256,157,155422,1,0,0:0:0:0:
28,39,155572,1,0,1:2:0:0:
212,270,155722,6,0,P|251:194|380:226,1,215.999993408203,10|0,0:2|0:0,0:0:0:0:
202,193,156022,6,0,P|150:147|147:77,1,143.999995605469,2|8,1:2|0:2,0:0:0:0:
420,296,156321,2,0,P|479:262|471:195,1,143.999995605469,2|0,1:2|0:0,0:0:0:0:
340,39,156622,6,0,P|315:108|305:121,1,71.9999978027344,6|0,1:2|0:0,0:0:0:0:
295,318,156772,2,0,P|351:243|412:123,1,215.999993408203,2|0,1:2|0:0,0:0:0:0:
231,102,157072,2,0,B|316:95|351:228|274:182|333:316|430:271,1,287.999991210938,2|0,1:2|1:2,0:0:0:0:
92,371,157522,6,0,P|186:278|237:158,1,215.999993408203,10|0,0:2|0:0,0:0:0:0:
297,22,157822,2,0,B|229:14|182:94|254:69|189:147|136:138,1,215.999993408203,2|0,1:2|0:0,0:0:0:0:
60,58,158122,5,2,1:2:0:0:
271,300,158272,1,10,0:2:0:0:
471,65,158422,6,0,P|397:57|375:59,1,71.9999978027344,6|0,1:2|0:0,0:0:0:0:
8,292,158572,2,0,P|119:238|281:189,1,287.999991210938,2|0,1:2|1:2,0:0:0:0:
496,363,159022,5,8,0:2:0:0:
310,46,159172,1,0,1:2:0:0:
71,366,159322,5,14,0:2:0:0:
179,107,159472,1,0,1:2:0:0:
508,179,159622,5,4,1:2:0:0:
478,210,159697,1,0,1:0:0:0:
435,216,159772,1,0,1:2:0:0:
405,184,159847,1,0,1:2:0:0:
361,185,159922,1,10,0:2:0:0:
359,198,160222,6,0,P|333:227|327:272,1,71.9999978027344,6|0,1:2|0:0,0:0:0:0:
101,251,160372,2,0,P|232:183|359:55,1,287.999991210938,2|2,1:2|1:2,0:0:0:0:
84,364,160822,2,0,P|49:357|28:330,1,71.9999978027344,0|0,1:2|0:0,0:0:0:0:
226,282,160972,2,0,P|214:315|183:331,1,71.9999978027344,0|0,1:2|0:0,0:0:0:0:
89,80,161122,2,0,P|50:186|107:288,1,215.999993408203,10|0,0:2|0:0,0:0:0:0:
218,169,161422,6,0,B|187:210|96:196|150:171|67:129|20:174,1,215.999993408203,2|0,1:2|0:0,0:0:0:0:
244,30,161722,2,0,P|326:98|422:148,1,215.999993408203,2|0,1:2|0:0,0:0:0:0:
452,233,162022,6,0,P|370:264|361:265,1,71.9999978027344,6|0,1:2|0:0,0:0:0:0:
177,90,162172,2,0,P|265:66|390:12,1,215.999993408203,2|0,1:2|0:0,0:0:0:0:
379,17,162472,1,2,1:2:0:0:
313,189,162622,6,0,P|277:158|232:160,1,71.9999978027344,0|0,1:2|0:0,0:0:0:0:
138,15,162772,2,0,P|100:43|92:87,1,71.9999978027344,0|0,1:2|0:0,0:0:0:0:
37,363,162922,5,10,0:2:0:0:
237,241,163072,1,0,0:0:0:0:
81,176,163222,6,0,B|155:173|176:271|120:248|166:343|246:337,1,215.999993408203,2|0,1:2|0:0,0:0:0:0:
213,138,163522,2,0,P|144:221|53:280,1,215.999993408203,2|0,1:2|0:0,0:0:0:0:
337,18,163822,2,0,P|371:109|383:119,1,71.9999978027344,6|0,1:2|0:0,0:0:0:0:
501,222,163972,2,0,P|389:159|306:217,1,215.999993408203,2|0,1:2|0:0,0:0:0:0:
476,39,164272,2,0,P|422:172|383:311,1,287.999991210938,2|0,1:2|1:2,0:0:0:0:
326,82,164722,6,0,P|231:152|205:168,1,143.999995605469,10|0,0:2|0:0,0:0:0:0:
24,293,165022,2,0,P|114:326|178:353,1,143.999995605469,2|0,1:2|0:0,0:0:0:0:
81,46,165322,5,2,1:2:0:0:
111,94,165397,1,0,1:2:0:0:
94,149,165472,1,0,1:2:0:0:
121,199,165547,1,0,1:2:0:0:
161,261,165622,2,0,P|135:350|135:358,1,71.9999978027344,6|0,1:2|0:0,0:0:0:0:
34,14,165772,2,0,P|75:81|120:138,1,143.999995605469,2|0,1:2|0:0,0:0:0:0:
283,277,166072,1,0,1:2:0:0:
314,247,166147,1,0,1:2:0:0:
318,204,166222,1,10,0:2:0:0:
190,77,166372,1,2,0:0:0:0:
220,189,166522,6,0,P|233:169|243:147,1,48,6|2,1:2|0:2,0:0:0:0:
245,133,167422,6,0,B|298:124|348:155|310:185|362:211|410:207,1,179.999994506836,2|0,0:2|0:0,0:0:0:0:
456,151,168322,2,0,B|359:66|259:189|312:174|291:313|179:296,1,359.999989013672,2|0,3:2|3:0,3:0:0:0:
110,350,170122,2,0,L|133:339,1,17.9999994506836,2|0,0:2|0:0,0:0:0:0:
208,201,170422,2,0,L|203:226,1,17.9999994506836,2|0,0:2|0:0,0:0:0:0:
280,362,170722,2,0,L|259:344,1,17.9999994506836,2|0,0:2|0:0,0:0:0:0:
202,295,171022,6,0,P|158:278|130:276,1,71.9999978027344,2|0,0:2|0:0,0:0:0:0:
89,190,171472,2,0,P|53:194|20:209,1,71.9999978027344,2|0,0:2|0:0,0:0:0:0:
16,320,171922,2,0,P|167:240|349:169,1,359.999989013672,2|0,0:2|0:0,0:0:0:0:
342,170,174322,1,2,0:2:0:0:
414,49,174622,2,0,P|404:79|266:114,1,179.999994506836,2|0,0:2|0:0,0:0:0:0:
509,212,175522,2,0,P|423:212|380:137,1,179.999994506836,2|0,0:2|0:0,0:0:0:0:
508,18,176422,2,0,P|498:43|471:129,1,107.999996704102,2|0,0:2|0:0,0:0:0:0:
174,293,177322,6,0,P|134:312|91:363,1,107.999996704102,2|0,0:2|0:0,0:0:0:0:
368,229,177622,2,0,P|394:249|468:271,1,107.999996704102,2|0,0:2|0:0,0:0:0:0:
239,93,177922,2,0,P|213:66|192:-4,1,107.999996704102,2|0,0:2|0:0,0:0:0:0:
253,206,178222,5,6,1:2:0:0:
61,253,178372,1,0,1:2:0:0:
374,321,178522,1,0,1:2:0:0:
384,104,178672,5,10,0:2:0:0:
222,357,178822,1,0,1:2:0:0:
54,107,178972,1,0,1:2:0:0:
306,152,179122,6,0,P|288:243|279:297,1,143.999995605469,14|0,0:2|1:2,0:0:0:0:
478,106,179422,5,12,0:2:0:0:
212,203,179572,1,8,0:2:0:0:
305,61,179722,1,0,1:2:0:0:
382,123,179872,1,0,1:2:0:0:
395,12,180022,5,14,0:2:0:0:
328,227,180172,1,0,1:2:0:0:
138,95,180322,1,0,1:2:0:0:
8,306,180472,5,10,0:2:0:0:
200,164,180622,1,0,1:2:0:0:
254,375,180772,1,0,1:2:0:0:
29,222,180922,6,0,P|93:201|137:252,1,143.999995605469,14|0,0:2|1:2,0:0:0:0:
465,273,181222,5,12,0:2:0:0:
288,80,181372,1,8,0:2:0:0:
315,323,181522,5,8,0:2:0:0:
270,300,181597,1,8,0:2:0:0:
253,252,181672,1,8,0:2:0:0:
284,212,181747,1,8,0:2:0:0:
294,162,181822,1,14,0:2:0:0:
78,90,181972,5,0,1:2:0:0:
369,255,182122,1,0,1:2:0:0:
420,83,182272,5,10,0:2:0:0:
206,175,182422,1,0,1:2:0:0:
159,109,182572,1,0,1:2:0:0:
336,10,182722,5,14,0:2:0:0:
218,281,182872,1,0,1:2:0:0:
236,5,183022,5,12,0:2:0:0:
489,185,183172,1,10,0:2:0:0:
300,182,183322,5,0,1:2:0:0:
349,115,183472,1,0,1:2:0:0:
511,36,183622,5,6,1:2:0:0:
352,248,183772,1,0,1:2:0:0:
209,14,183922,1,0,1:2:0:0:
55,192,184072,5,8,0:2:0:0:
261,103,184222,1,0,1:2:0:0:
268,318,184372,5,0,1:2:0:0:
63,28,184522,5,10,0:2:0:0:
211,201,184672,1,0,1:2:0:0:
347,19,184822,1,0,1:2:0:0:
264,69,184972,1,8,1:2:0:0:
479,313,185122,5,8,1:2:0:0:
137,115,185272,1,8,1:2:0:0:
256,192,185422,12,0,186622,0:0:0:0:
28,36,186922,5,2,0:0:0:0:
22,45,187222,6,0,P|60:51|99:110,1,83.9999974365235,2|0,1:2|0:0,0:0:0:0:
372,191,187372,2,0,P|308:103|193:-15,1,251.999992309571,2|0,1:2|0:0,0:0:0:0:
406,0,187672,2,0,B|313:-12|222:109|311:96|280:246|118:225,1,335.999989746094,2|0,1:2|1:2,0:0:0:0:
92,138,188122,6,0,P|148:58|283:96,1,251.999992309571,10|0,0:2|0:0,0:0:0:0:
110,384,188422,2,0,P|162:244|204:100,1,251.999992309571,2|0,1:2|0:0,0:0:0:0:
210,330,188722,2,0,B|141:363|75:253|138:298|94:183|-13:229,1,251.999992309571,2|0,1:2|0:0,0:0:0:0:
260,262,189022,6,0,P|338:225|354:224,1,83.9999974365235,6|0,1:2|0:0,0:0:0:0:
509,226,189172,2,0,P|385:208|283:108,1,251.999992309571,2|0,1:2|0:0,0:0:0:0:
474,56,189472,2,0,B|510:135|392:226|424:160|312:257|357:368,1,335.999989746094,2|0,1:2|1:2,0:0:0:0:
373,36,189922,6,0,P|423:196|457:360,1,335.999989746094,10|2,0:2|1:2,0:0:0:0:
32,169,190372,5,8,0:2:0:0:
323,220,190522,1,2,1:2:0:0:
315,206,190822,6,0,P|274:216|251:249,1,83.9999974365235,6|0,1:2|0:0,0:0:0:0:
4,247,190972,2,0,P|66:256|157:90,1,251.999992309571,2|0,1:2|0:0,0:0:0:0:
71,42,191272,6,0,P|150:135|257:348,1,335.999989746094,2|0,1:2|1:2,0:0:0:0:
347,77,191722,2,0,B|288:52|206:155|283:150|245:234|174:232,1,251.999992309571,10|0,0:2|0:0,0:0:0:0:
339,158,192022,2,0,P|335:208|500:223,1,251.999992309571,2|0,1:2|0:0,0:0:0:0:
335,54,192322,5,2,1:2:0:0:
512,338,192472,1,10,0:2:0:0:
451,86,192622,6,0,P|434:124|422:165,1,83.9999974365235,6|0,1:2|0:0,0:0:0:0:
381,351,192772,2,0,P|307:200|210:64,1,335.999989746094,2|0,1:2|1:2,0:0:0:0:
230,238,193222,5,8,0:2:0:0:
429,5,193372,1,0,1:2:0:0:
221,358,193522,5,14,0:2:0:0:
48,83,193672,1,0,1:2:0:0:
398,113,193822,5,4,1:2:0:0:
138,273,193972,1,0,1:2:0:0:
94,234,194047,1,0,1:2:0:0:
36,234,194122,1,10,0:2:0:0:
38,246,194422,6,0,P|141:204|163:202,1,83.9999974365235,6|0,1:2|0:0,0:0:0:0:
252,23,194572,2,0,P|329:89|483:208,1,251.999992309571,2|0,1:2|0:0,0:0:0:0:
226,227,194872,2,0,B|332:261|359:104|304:136|402:24|482:64,1,335.999989746094,2|0,1:2|1:2,0:0:0:0:
428,187,195322,6,0,P|354:95|245:139,1,251.999992309571,10|0,0:2|0:0,0:0:0:0:
0,363,195622,2,0,P|121:328|245:307,1,251.999992309571,2|0,1:2|0:0,0:0:0:0:
20,274,195922,2,0,B|86:243|139:338|109:309|117:399|218:384,1,251.999992309571,2|0,1:2|0:0,0:0:0:0:
29,162,196222,6,0,P|2:102|18:69,1,83.9999974365235,6|0,1:2|0:0,0:0:0:0:
248,2,196372,2,0,P|199:118|163:239,1,251.999992309571,2|0,1:2|0:0,0:0:0:0:
327,65,196672,2,0,P|270:164|93:94,1,335.999989746094,2|0,1:2|1:2,0:0:0:0:
380,207,197122,6,0,P|276:133|149:67,1,251.999992309571,10|0,0:2|0:0,0:0:0:0:
474,231,197422,2,0,P|457:161|297:140,1,251.999992309571,2|0,1:2|0:0,0:0:0:0:
90,182,197722,2,0,B|173:202|203:92|166:127|214:23|305:59,1,251.999992309571,2|0,1:2|0:0,0:0:0:0:
390,219,198022,6,0,P|410:183|425:144,1,83.9999974365235,6|0,1:2|0:0,0:0:0:0:
174,345,198172,2,0,P|237:280|331:128,1,251.999992309571,2|0,1:2|0:0,0:0:0:0:
109,90,198472,2,0,B|196:97|237:238|186:183|187:340|316:339,1,335.999989746094,2|0,1:2|1:2,0:0:0:0:
102,365,198922,6,0,P|24:270|26:147,1,251.999992309571,10|0,0:2|0:0,0:0:0:0:
257,265,199222,2,0,P|344:177|346:54,1,251.999992309571,2|0,1:2|0:0,0:0:0:0:
109,15,199522,2,0,P|116:143|137:264,1,251.999992309571,2|0,1:2|0:2,0:0:0:0:
283,382,199822,6,0,P|308:343|293:297,1,83.9999974365235,6|0,1:2|0:0,0:0:0:0:
197,105,199972,2,0,P|209:144|247:161,1,83.9999974365235,2|0,1:2|0:0,0:0:0:0:
296,8,200272,6,0,P|233:203|211:349,1,335.999989746094,2|0,1:2|1:2,0:0:0:0:
392,42,200722,6,0,P|363:112|351:118,1,83.9999974365235,8|0,0:2|0:0,0:0:0:0:
194,226,200872,2,0,P|161:219|133:151,1,83.9999974365235,0|0,1:2|0:0,0:0:0:0:
166,18,201022,2,0,P|231:149|324:205,1,251.999992309571,0|0,1:2|0:0,0:0:0:0:
439,379,201322,5,2,1:2:0:0:
400,334,201397,1,10,1:2:0:0:
407,275,201472,1,10,0:2:0:0:
438,225,201547,1,10,0:2:0:0:
445,130,201622,2,0,P|412:230|411:235,1,83.9999974365235,2|0,1:2|0:0,0:0:0:0:
282,384,201772,2,0,P|364:336|535:282,1,251.999992309571,2|0,1:2|0:0,0:0:0:0:
311,259,202072,2,0,P|275:164|31:139,1,335.999989746094,2|0,1:2|1:2,0:0:0:0:
281,121,202522,6,0,B|263:191|181:202|205:162|110:180|92:257,1,251.999992309571,10|0,0:2|0:0,0:0:0:0:
258,138,202822,2,0,P|214:256|153:367,1,251.999992309571,10|0,0:2|0:0,0:0:0:0:
512,156,203122,2,0,P|391:74|315:-1,1,251.999992309571,10|0,0:2|0:0,0:0:0:0:
345,185,203422,6,0,P|378:286|384:293,1,83.9999974365235,6|0,1:2|0:0,0:0:0:0:
467,381,203572,2,0,P|375:292|269:355,1,251.999992309571,2|0,1:2|0:0,0:0:0:0:
127,353,203872,2,0,P|232:316|451:201,1,335.999989746094,2|0,1:2|1:2,0:0:0:0:
157,314,204322,2,0,P|39:177|72:31,1,335.999989746094,10|2,0:2|1:2,0:0:0:0:
437,32,204772,5,8,0:2:0:0:
193,187,204922,1,2,1:2:0:0:
193,187,205222,6,0,P|233:186|273:204,1,83.9999974365235,6|0,1:2|0:0,0:0:0:0:
432,230,205372,2,0,P|315:201|280:86,1,251.999992309571,2|0,1:2|0:0,0:0:0:0:
239,365,205672,6,0,B|306:375|384:256|295:282|349:131|474:133,1,335.999989746094,2|0,1:2|1:2,0:0:0:0:
223,277,206122,6,0,P|346:303|464:349,1,251.999992309571,10|0,0:2|0:0,0:0:0:0:
262,211,206422,2,0,P|144:256|21:282,1,251.999992309571,2|0,1:2|0:0,0:0:0:0:
238,23,206722,5,2,1:2:0:0:
155,341,206872,1,10,0:2:0:0:
75,81,207022,6,0,P|114:90|133:127,1,83.9999974365235,6|0,1:2|0:0,0:0:0:0:
378,69,207172,2,0,P|221:72|185:224,1,335.999989746094,2|0,1:2|1:2,0:0:0:0:
189,36,207622,5,8,0:2:0:0:
300,311,207772,1,0,1:2:0:0:
456,5,207922,5,14,0:2:0:0:
337,217,208072,1,0,1:2:0:0:
79,126,208222,5,4,1:2:0:0:
402,281,208372,1,0,1:2:0:0:
427,259,208447,1,0,1:2:0:0:
432,225,208522,1,10,0:2:0:0:
419,200,208822,6,0,P|447:304|448:313,1,83.9999974365235,6|0,1:2|0:0,0:0:0:0:
186,357,208972,2,0,P|226:247|303:107,1,251.999992309571,2|0,1:2|0:0,0:0:0:0:
91,25,209272,2,0,B|192:26|232:168|156:144|191:268|310:271,1,335.999989746094,2|0,1:2|1:2,0:0:0:0:
179,173,209722,6,0,P|122:277|198:367,1,251.999992309571,10|0,0:2|0:0,0:0:0:0:
358,189,210021,2,0,P|473:173|475:57,1,251.999992309571,2|0,1:2|0:0,0:0:0:0:
367,340,210322,2,0,P|414:155|384:88,1,251.999992309571,2|0,1:2|0:0,0:0:0:0:
282,281,210622,6,0,P|186:254|176:254,1,83.9999974365235,6|0,1:2|0:0,0:0:0:0:
256,38,210772,2,0,P|144:96|27:139,1,251.999992309571,2|0,1:2|0:0,0:0:0:0:
47,13,211072,2,0,P|155:70|340:202,1,335.999989746094,2|0,1:2|1:2,0:0:0:0:
32,375,211522,6,0,B|106:361|114:251|64:307|106:173|176:175,1,251.999992309571,10|0,0:2|0:0,0:0:0:0:
191,338,211822,2,0,P|120:242|5:269,1,251.999992309571,2|0,1:2|0:0,0:0:0:0:
199,254,212122,2,0,P|288:225|463:198,1,251.999992309571,2|0,1:2|0:0,0:0:0:0:
349,371,212422,6,0,P|323:282|317:273,1,83.9999974365235,6|0,1:2|0:0,0:0:0:0:
363,69,212572,2,0,P|407:231|447:350,1,251.999992309571,2|0,1:2|0:0,0:0:0:0:
470,23,212872,2,0,P|397:159|276:308,1,335.999989746094,2|0,1:2|1:2,0:0:0:0:
85,0,213322,6,0,B|163:2|215:97|134:85|188:166|260:174,1,251.999992309571,10|0,0:2|0:0,0:0:0:0:
28,132,213622,2,0,P|100:57|243:102,1,251.999992309571,2|0,1:2|0:0,0:0:0:0:
80,234,213922,2,0,P|204:252|322:298,1,251.999992309571,2|0,1:2|0:0,0:0:0:0:
512,384,214222,5,6,1:2:0:0:
268,244,214372,1,2,1:2:0:0:
510,122,214522,1,0,1:2:0:0:
146,364,214672,5,2,1:2:0:0:
413,192,214822,1,0,1:2:0:0:
136,27,214972,1,0,1:2:0:0:
240,322,215122,5,10,0:2:0:0:
28,31,215272,1,0,1:2:0:0:
300,384,215422,5,6,1:2:0:0:
450,7,215572,1,0,1:2:0:0:
414,318,215722,5,6,1:2:0:0:
419,331,216022,6,0,P|449:284|433:240,1,83.9999974365235,2|0,1:2|0:0,0:0:0:0:
256,24,216172,2,0,P|283:130|375:292,1,251.999992309571,2|0,1:2|0:0,0:0:0:0:
381,71,216472,2,0,B|304:66|247:224|314:142|282:299|151:289,1,335.999989746094,2|0,1:2|1:2,0:0:0:0:
31,0,216922,6,0,P|90:71|196:220,1,251.999992309571,10|0,0:2|0:0,0:0:0:0:
80,292,217222,2,0,P|34:207|123:19,1,251.999992309571,2|0,1:2|0:0,0:0:0:0:
143,384,217522,2,0,P|244:301|176:179,1,251.999992309571,2|0,1:2|0:0,0:0:0:0:
418,335,217822,6,0,P|377:323|339:305,1,83.9999974365235,6|0,1:2|0:0,0:0:0:0:
503,231,217972,2,0,P|358:278|238:331,1,251.999992309571,2|0,1:2|0:0,0:0:0:0:
352,64,218272,6,0,B|449:96|436:241|402:192|402:330|517:347,1,335.999989746094,2|0,1:2|1:2,0:0:0:0:
445,0,218722,2,0,P|476:86|294:153,1,335.999989746094,10|2,0:2|1:2,0:0:0:0:
22,73,219172,5,8,0:2:0:0:
279,321,219322,1,2,1:2:0:0:
288,330,219622,6,0,P|271:256|233:242,1,83.9999974365235,6|0,1:2|0:0,0:0:0:0:
165,70,219772,2,0,B|208:118|187:213|159:149|136:260|198:306,1,251.999992309571,2|0,1:2|0:0,0:0:0:0:
21,215,220072,2,0,P|164:122|352:63,1,335.999989746094,2|0,1:2|1:2,0:0:0:0:
512,261,220522,6,0,P|447:153|334:190,1,251.999992309571,10|0,0:2|0:0,0:0:0:0:
380,351,220822,2,0,P|443:233|495:109,1,251.999992309571,2|0,1:2|0:0,0:0:0:0:
482,360,221122,5,2,1:2:0:0:
236,42,221272,1,10,0:2:0:0:
512,41,221422,6,0,P|451:46|424:86,1,83.9999974365235,6|0,1:2|0:0,0:0:0:0:
5,306,221572,2,0,P|131:333|217:160,1,335.999989746094,2|0,1:2|1:2,0:0:0:0:
127,2,222022,5,8,0:2:0:0:
24,221,222172,1,0,1:2:0:0:
349,81,222322,5,14,0:2:0:0:
438,338,222472,1,0,1:2:0:0:
191,60,222622,5,4,1:2:0:0:
419,215,222772,1,0,1:2:0:0:
440,188,222847,1,0,1:2:0:0:
449,155,222922,1,10,0:2:0:0:
418,153,223222,6,0,P|451:245|454:256,1,83.9999974365235,6|0,1:2|0:0,0:0:0:0:
379,4,223372,2,0,P|320:167|262:278,1,251.999992309571,2|0,1:2|0:0,0:0:0:0:
509,0,223672,2,0,P|379:126|224:122,1,335.999989746094,2|0,1:2|1:2,0:0:0:0:
181,316,224122,6,0,B|181:235|88:205|117:261|37:196|35:100,1,251.999992309571,10|0,0:2|0:0,0:0:0:0:
18,333,224422,2,0,P|109:223|151:106,1,251.999992309571,2|0,1:2|0:0,0:0:0:0:
416,131,224722,2,0,P|309:103|229:248,1,251.999992309571,2|0,1:2|0:0,0:0:0:0:
478,320,225022,6,0,P|378:283|373:282,1,83.9999974365235,6|0,1:2|0:0,0:0:0:0:
246,82,225172,2,0,P|382:41|499:3,1,251.999992309571,2|0,1:2|0:0,0:0:0:0:
350,367,225472,2,0,B|319:276|413:195|388:254|528:217|496:96,1,335.999989746094,2|0,1:2|1:2,0:0:0:0:
205,4,225922,6,0,P|264:111|383:137,1,251.999992309571,10|0,0:2|0:0,0:0:0:0:
351,43,226222,2,0,B|295:17|215:76|250:107|206:171|138:168,1,251.999992309571,2|0,1:2|0:0,0:0:0:0:
0,39,226522,2,0,P|60:167|111:305,1,251.999992309571,2|0,1:2|0:0,0:0:0:0:
37,362,226822,6,0,P|20:278|20:270,1,83.9999974365235,6|0,1:2|0:0,0:0:0:0:
124,354,226972,2,0,P|175:245|302:250,1,251.999992309571,2|0,1:2|0:0,0:0:0:0:
165,71,227272,2,0,B|263:96|245:224|207:160|170:325|312:346,1,335.999989746094,2|0,1:2|1:2,0:0:0:0:
466,226,227722,6,0,P|317:200|116:147,1,335.999989746094,10|2,0:2|1:2,0:0:0:0:
377,377,228172,2,0,P|395:282|395:270,1,83.9999974365235,2|0,1:2|0:0,0:0:0:0:
408,29,228322,2,0,P|455:174|492:351,1,251.999992309571,0|0,1:2|0:0,0:0:0:0:
321,46,228622,6,0,P|346:141|346:142,1,83.9999974365235,6|0,1:2|0:0,0:0:0:0:
181,352,228772,2,0,P|211:230|251:111,1,251.999992309571,2|0,1:2|0:0,0:0:0:0:
58,71,229072,2,0,B|78:170|211:187|141:132|310:157|309:274,1,335.999989746094,2|0,1:2|1:2,0:0:0:0:
204,0,229522,6,0,P|153:86|154:93,1,83.9999974365235,10|0,0:2|0:0,0:0:0:0:
262,267,229672,2,0,P|179:210|172:210,1,83.9999974365235,14|0,1:2|0:0,0:0:0:0:
0,274,229822,2,0,P|85:222|91:147,1,167.999994873047,0|0,1:2|0:0,0:0:0:0:
41,55,230122,5,10,0:2:0:0:
109,366,230272,1,8,0:2:0:0:
109,366,230347,1,8,0:2:0:0:
109,366,230422,2,0,P|148:320|170:321,1,83.9999974365235,6|0,1:2|0:0,0:0:0:0:
412,340,230572,2,0,P|309:295|321:146,1,251.999992309571,2|0,1:2|0:0,0:0:0:0:
503,108,230872,2,0,B|426:103|346:233|413:182|373:346|260:325,1,335.999989746094,2|0,1:2|1:2,0:0:0:0:
475,237,231322,6,0,P|411:126|318:19,1,251.999992309571,10|0,0:2|0:0,0:0:0:0:
7,104,231622,2,0,P|38:178|198:154,1,251.999992309571,2|0,1:2|0:0,0:0:0:0:
25,180,231922,2,0,B|88:223|186:149|130:126|195:70|262:106,1,251.999992309571,2|0,1:2|0:0,0:0:0:0:
108,0,232222,6,0,P|82:92|81:99,1,83.9999974365235,6|0,1:2|0:0,0:0:0:0:
243,2,232372,2,0,P|274:125|338:316,1,251.999992309571,2|0,1:2|0:0,0:0:0:0:
16,384,232672,2,0,P|91:269|173:82,1,335.999989746094,2|0,1:2|1:2,0:0:0:0:
156,340,233122,2,0,B|263:389|333:268|279:306|351:180|444:225,1,335.999989746094,10|2,0:2|1:2,0:0:0:0:
164,190,233572,5,8,0:2:0:0:
413,358,233722,1,2,1:2:0:0:
413,358,234022,2,0,P|374:315|390:263,1,83.9999974365235,6|0,1:2|0:0,0:0:0:0:
407,11,234172,2,0,P|409:130|285:221,1,251.999992309571,2|0,1:2|0:0,0:0:0:0:
32,254,234472,2,0,P|156:276|374:358,1,335.999989746094,2|0,1:2|1:2,0:0:0:0:
143,236,234922,6,0,P|83:190|128:33,1,251.999992309571,10|0,0:2|0:0,0:0:0:0:
100,384,235222,2,0,P|150:270|228:155,1,251.999992309571,2|0,1:2|0:0,0:0:0:0:
465,165,235522,5,2,1:2:0:0:
201,10,235672,1,10,0:2:0:0:
393,10,235822,6,0,P|396:115|386:120,1,83.9999974365235,6|0,1:2|0:0,0:0:0:0:
467,384,235972,2,0,P|396:259|320:63,1,335.999989746094,2|0,1:2|1:2,0:0:0:0:
172,249,236422,5,8,0:2:0:0:
282,0,236572,1,0,1:2:0:0:
223,357,236722,5,14,0:2:0:0:
35,36,236872,1,0,1:2:0:0:
276,234,237022,5,4,1:2:0:0:
253,171,237097,1,0,0:0:0:0:
187,158,237172,1,0,1:2:0:0:
120,161,237247,1,0,1:2:0:0:
66,121,237322,1,10,0:2:0:0:
64,101,237622,6,0,P|31:185|36:202,1,83.9999974365235,6|0,1:2|0:0,0:0:0:0:
156,68,237772,2,0,P|212:172|130:257,1,251.999992309571,2|0,1:2|0:0,0:0:0:0:
311,376,238072,2,0,P|93:267|-15:240,1,335.999989746094,2|0,1:2|1:2,0:0:0:0:
68,376,238522,6,0,B|144:396|198:284|145:300|211:235|280:248,1,251.999992309571,10|0,0:2|0:0,0:0:0:0:
512,312,238822,2,0,P|406:244|321:153,1,251.999992309571,2|0,1:2|0:0,0:0:0:0:
251,321,239122,2,0,P|282:199|333:84,1,251.999992309571,2|0,1:2|0:0,0:0:0:0:
422,212,239422,6,0,P|465:135|452:119,1,83.9999974365235,6|0,1:2|0:0,0:0:0:0:
147,14,239572,2,0,P|169:147|284:214,1,251.999992309571,2|0,1:2|0:0,0:0:0:0:
512,112,239872,2,0,P|351:174|194:277,1,335.999989746094,2|0,1:2|1:2,0:0:0:0:
476,31,240322,6,0,P|394:124|404:246,1,251.999992309571,10|0,0:2|0:0,0:0:0:0:
247,74,240622,2,0,B|296:38|378:140|310:111|377:208|456:180,1,251.999992309571,2|0,1:2|0:0,0:0:0:0:
253,170,240922,2,0,P|130:256|31:316,1,251.999992309571,2|0,1:2|0:0,0:0:0:0:
71,31,241222,6,0,P|37:117|46:132,1,83.9999974365235,6|0,1:2|0:0,0:0:0:0:
134,362,241372,2,0,P|183:221|85:105,1,251.999992309571,2|0,1:2|0:0,0:0:0:0:
23,189,241672,2,0,P|214:264|341:343,1,335.999989746094,2|0,1:2|1:2,0:0:0:0:
211,365,242122,6,0,P|138:271|22:302,1,251.999992309571,10|0,0:2|0:0,0:0:0:0:
289,259,242423,2,0,P|362:165|478:196,1,251.999992309571,2|0,1:2|0:0,0:0:0:0:
107,354,242722,2,0,P|204:213|238:105,1,251.999992309571,2|0,1:2|0:0,0:0:0:0:
47,60,243022,6,0,P|87:152|104:158,1,83.9999974365235,6|0,1:2|0:0,0:0:0:0:
381,0,243172,2,0,P|258:27|144:81,1,251.999992309571,2|0,1:2|0:0,0:0:0:0:
354,332,243472,2,0,P|274:265|61:148,1,335.999989746094,2|0,1:2|1:2,0:0:0:0:
139,354,243922,2,0,P|230:315|245:313,1,83.9999974365235,10|0,0:2|0:0,0:0:0:0:
354,192,244072,2,0,P|450:165|473:167,1,83.9999974365235,0|0,1:2|0:0,0:0:0:0:
205,36,244222,5,10,0:2:0:0:
168,2,244297,1,8,0:2:0:0:
119,5,244372,1,0,1:2:0:0:
185,189,244522,1,2,1:2:0:0:
234,190,244597,1,8,0:2:0:0:
274,219,244672,1,8,0:2:0:0:
297,263,244747,1,8,0:2:0:0:
334,264,244822,6,0,B|484:219|658:43|454:-92|-10:4|-237:372|203:372|359:272,1,1080,6|0,1:2|0:0,0:0:0:0:
97,117,252022,5,2,0:2:0:0:
259,341,252322,5,2,0:2:0:0:
413,63,252622,5,2,0:2:0:0:
294,58,252847,5,2,0:2:0:0:
304,71,252922,1,2,0:2:0:0:
198,265,253222,5,2,0:2:0:0:
316,358,253522,1,2,0:2:0:0:
369,287,253822,1,2,0:2:0:0:
444,279,254272,1,2,0:2:0:0:
477,307,254722,1,2,0:2:0:0:
295,188,255172,5,0,0:2:0:0:
283,184,255247,1,0,0:2:0:0:
270,178,255322,1,2,0:2:0:0:
273,96,255622,2,0,P|293:28|294:12,2,60,2|0|0,0:2|0:0|0:0,0:0:0:0:
344,234,256072,2,0,P|388:281|400:289,2,60,2|0|0,0:2|0:0|0:0,0:0:0:0:
203,222,256522,2,0,P|160:229|120:243,1,60,2|0,0:2|0:0,0:0:0:0:
344,234,256822,2,0,P|363:258|385:278,1,60,2|0,0:2|0:0,0:0:0:0:
273,96,257122,2,0,P|293:28|294:12,1,60,2|0,0:2|0:0,0:0:0:0:
267,187,257422,5,2,0:2:0:0:
252,173,257872,1,2,0:2:0:0:
269,149,258322,1,2,0:2:0:0:
226,60,259222,5,2,0:2:0:0:
238,164,260047,5,2,0:2:0:0:
246,174,260122,1,2,0:2:0:0:
256,192,260197,12,2,266422,0:2:0:0:
