osu file format v14

[General]
AudioFilename: audio.mp3
AudioLeadIn: 0
PreviewTime: 58903
Countdown: 1
SampleSet: Soft
StackLeniency: 0.7
Mode: 0
LetterboxInBreaks: 0
WidescreenStoryboard: 1

[Editor]
Bookmarks: 7475,14888,22301,29714,37127,44540,50100,51953,59367,66780,70486,74193,81606
DistanceSpacing: 1
BeatDivisor: 4
GridSize: 32
TimelineZoom: 1.8

[Metadata]
Title:Shoujo Traveler (TV Size)
TitleUnicode:少女トラベラー (TV Size)
Artist:9nine
ArtistUnicode:9nine
Creator:Chaoslitz
Version:Normal
Source:べるぜバブ
Tags:Beelzebub ending ed ed5 佐武宇綺 村田寛奈 吉井香奈恵 川島海荷 西脇彩華 satake uki murata hirona yoshii kanae kawashima umika nishiwaki sayaka jpop pop j-pop electronic anime japanese traveller
BeatmapID:3044897
BeatmapSetID:1416627

[Difficulty]
HPDrainRate:3
CircleSize:3.5
OverallDifficulty:4
ApproachRate:5
SliderMultiplier:1.5
SliderTickRate:1

[Events]
//Background and Video events
0,0,"bg.jpg",0,0
Video,10,"bossmouth.mp4"
//Break Periods
//Storyboard Layer 0 (Background)
//Storyboard Layer 1 (Fail)
//Storyboard Layer 2 (Pass)
//Storyboard Layer 3 (Foreground)
//Storyboard Layer 4 (Overlay)
//Storyboard Sound Samples

[TimingPoints]
62,463.320463320463,4,2,1,70,1,0
409,-100,4,2,1,70,0,0
756,-100,4,2,1,70,0,0
988,-100,4,2,1,70,0,0
1451,-100,4,2,1,70,0,0
1915,-100,4,2,1,70,0,0
2262,-100,4,2,1,70,0,0
2610,-100,4,2,1,70,0,0
2841,-100,4,2,1,70,0,0
3305,-100,4,2,1,70,0,0
3768,-100,4,2,1,70,0,0
4116,-100,4,2,1,70,0,0
4463,-100,4,2,1,70,0,0
4695,-100,4,2,1,70,0,0
5158,-100,4,2,1,70,0,0
5621,-100,4,2,1,70,0,0
7011,-100,4,2,1,80,0,0
7475,-100,4,2,2,95,0,0
9791,-100,4,2,2,95,0,0
10255,-100,4,2,2,95,0,0
13498,-100,4,2,2,95,0,0
13961,-100,4,2,2,95,0,0
14888,-100,4,2,2,85,0,0
28324,-100,4,2,2,85,0,0
28556,-100,4,2,2,85,0,0
29251,-100,4,2,10,95,0,0
29367,-100,4,2,2,85,0,0
43382,-100,4,2,2,85,0,0
43845,-100,4,2,3,95,0,0
44309,-100,4,2,2,85,0,0
44540,-100,4,2,2,75,0,0
51143,-100,4,2,3,75,0,0
51374,-100,4,2,5,75,0,0
51490,-100,4,2,2,75,0,0
51953,-100,4,2,2,75,0,0
52996,-100,4,2,3,75,0,0
53228,-100,4,2,5,75,0,0
53343,-100,4,2,2,75,0,0
54849,-100,4,2,3,75,0,0
55081,-100,4,2,5,75,0,0
55197,-100,4,2,2,75,0,0
55660,-100,4,2,2,85,0,0
56702,-100,4,2,3,85,0,0
56934,-100,4,2,5,85,0,0
57050,-100,4,2,2,85,0,0
57282,-100,4,2,2,90,0,0
58903,-100,4,2,2,80,0,0
59367,-100,4,2,6,100,0,1
59482,-100,4,2,2,100,0,1
62610,-100,4,2,2,100,0,1
63073,-100,4,2,6,100,0,1
63189,-100,4,2,2,100,0,1
66316,-100,4,2,2,100,0,1
66780,-100,4,2,6,100,0,1
66895,-100,4,2,2,100,0,1
70081,-100,4,2,2,10,0,1
70139,-100,4,2,2,100,0,1
70197,-100,4,2,2,10,0,1
70255,-100,4,2,2,100,0,1
72745,-100,4,2,2,10,0,1
72803,-100,4,2,2,100,0,1
73034,-100,4,2,2,100,0,1
73729,-100,4,2,2,100,0,0
74193,-100,4,2,6,100,0,1
74309,-100,4,2,2,100,0,1
77436,-100,4,2,2,100,0,1
77899,-100,4,2,6,100,0,1
78015,-100,4,2,2,100,0,1
81143,-100,4,2,2,100,0,1
81606,-100,4,2,6,100,0,1
81722,-100,4,2,2,100,0,1
84907,-100,4,2,2,10,0,1
84965,-100,4,2,2,100,0,1
85023,-100,4,2,2,10,0,1
85081,-100,4,2,2,100,0,1
86934,-100,4,2,2,100,0,0
87397,-100,4,2,2,100,0,0
88556,-100,4,2,2,100,0,0
88787,-100,4,2,2,50,0,0
89019,-100,4,2,2,100,0,0
89482,-100,4,2,2,100,0,0

[Colours]
Combo1 : 100,219,77
Combo2 : 253,199,57
Combo3 : 249,115,191

[HitObjects]
69,356,62,6,0,P|0:312|14:294,1,112.5,8|6,3:1|0:3,0:0:0:0:
53,257,756,1,6,0:3:0:0:
27,220,988,2,0,B|2:170|2:170|45:97,2,112.5,8|6|6,3:1|0:3|0:3,0:0:0:0:
53,257,1915,2,0,L|200:247,1,112.5,8|6,3:1|0:3,0:0:0:0:
228,201,2610,1,6,0:3:0:0:
256,237,2841,2,0,P|332:212|317:163,2,112.5,8|6|6,3:1|0:3|0:3,0:0:0:0:
228,201,3768,6,0,B|203:151|203:151|246:78,1,112.5,8|6,3:1|0:3,0:0:0:0:
296,56,4463,1,6,0:3:0:0:
272,18,4695,2,0,L|125:28,2,112.5,8|6|6,3:1|0:3|0:3,0:0:0:0:
296,56,5621,2,0,B|343:87|343:87|424:43,1,112.5,8|14,3:0|3:3,0:0:0:0:
422,26,6200,1,10,3:3:0:0:
426,30,6432,1,8,3:0:0:0:
467,97,6780,2,0,P|521:73|521:49,2,75,8|8|8,3:0|0:0|0:0,0:0:0:0:
437,131,7475,6,0,L|429:278,1,75,14|2,3:1|3:1,0:0:0:0:
460,242,7938,1,10,3:3:0:0:
410,334,8401,2,0,P|411:351|495:337,2,112.5,10|2|2,3:1|3:1|3:1,0:0:0:0:
397,291,9328,2,0,L|250:301,1,75,10|2,3:1|3:1,0:0:0:0:
293,262,9791,1,10,3:3:0:0:
289,258,10023,1,2,3:3:0:0:
285,254,10255,2,0,B|229:236|238:329|163:278,1,112.5,10|2,3:1|3:1,0:0:0:0:
121,333,10950,1,2,3:1:0:0:
83,357,11181,6,0,P|39:314|92:272,1,75,10|2,3:1|3:1,0:0:0:0:
67,271,11645,1,10,3:3:0:0:
113,173,12108,2,0,L|105:36,2,112.5,10|2|2,3:1|3:1|3:1,0:0:0:0:
70,189,13034,2,0,P|22:139|37:119,1,75,10|2,3:1|3:1,0:0:0:0:
1,106,13498,1,10,3:3:0:0:
5,102,13729,1,2,3:3:0:0:
9,98,13961,2,0,B|65:116|56:23|131:74,1,112.5,10|2,3:1|3:1,0:0:0:0:
165,113,14656,1,2,3:1:0:0:
204,91,14888,5,14,0:1:0:0:
208,87,15119,2,0,L|200:-60,2,75,2|10|2,3:2|0:0|3:2,0:0:0:0:
241,118,15814,2,0,B|288:149|288:149|369:105,1,112.5,10|2,0:1|0:0,0:0:0:0:
381,56,16509,1,0,3:0:0:0:
388,54,16741,2,0,P|431:105|420:118,1,75,10|2,0:1|3:2,0:0:0:0:
457,135,17204,2,0,L|449:282,1,75,10|2,0:0|3:2,0:0:0:0:
426,246,17668,2,0,P|453:246|453:331,2,112.5,10|2|2,0:1|0:0|3:2,0:0:0:0:
399,282,18594,5,10,0:1:0:0:
310,339,19058,2,0,P|239:339|237:327,1,75,10|2,0:0|3:2,0:0:0:0:
223,317,19521,2,0,L|76:327,1,112.5,10|2,0:1|0:0,0:0:0:0:
41,361,20216,1,2,3:2:0:0:
35,365,20448,2,0,P|22:292|76:292,1,75,10|2,0:1|3:2,0:0:0:0:
48,275,20911,2,0,L|56:128,1,75,10|2,0:0|3:2,0:0:0:0:
87,171,21374,2,0,B|134:202|134:202|215:158,2,112.5,10|2|2,0:1|0:0|3:2,0:0:0:0:
68,122,22301,5,10,0:1:0:0:
161,72,22764,2,0,P|161:7|230:7,2,75,10|2|10,0:0|3:2|0:1,0:0:0:0:
184,175,23691,2,0,L|331:165,1,75,10|2,0:0|3:2,0:0:0:0:
294,198,24154,1,10,0:1:0:0:
297,203,24386,2,0,P|372:203|372:163,1,75,2|10,3:2|0:0,0:0:0:0:
384,113,25081,1,10,0:1:0:0:
381,108,25313,2,0,P|306:108|306:148,1,75,2|10,3:2|0:0,0:0:0:0:
294,198,26007,6,0,L|286:345,1,75,10|2,0:1|3:2,0:0:0:0:
311,313,26471,2,0,B|231:290|257:386|172:356,1,150,10|10,0:0|0:1,0:0:0:0:
147,329,27166,1,2,3:2:0:0:
143,334,27397,1,10,0:0:0:0:
139,338,27629,2,0,P|60:302|150:260,1,150,2|2,3:2|3:2,0:0:0:0:
88,216,28324,2,0,B|135:247|135:247|216:203,1,112.5,10|10,3:2|3:2,0:0:0:0:
139,154,29019,1,2,3:2:0:0:
136,149,29251,2,0,L|144:2,1,75,10|2,0:0|3:2,0:0:0:0:
181,56,29714,5,14,0:1:0:0:
187,51,29946,2,0,P|138:0|117:24,2,75,2|10|2,3:2|0:0|3:2,0:0:0:0:
218,84,30641,2,0,B|265:115|265:115|346:71,1,112.5,10|2,0:1|0:0,0:0:0:0:
353,20,31336,1,0,3:2:0:0:
357,16,31567,2,0,L|504:6,1,75,10|2,0:1|3:2,0:0:0:0:
458,48,32031,2,0,P|448:117|394:100,1,75,10|2,0:0|3:2,0:0:0:0:
425,147,32494,2,0,P|354:187|373:217,2,112.5,10|2|2,0:1|0:0|3:2,0:0:0:0:
447,188,33421,5,10,0:1:0:0:
408,285,33884,2,0,P|325:285|315:249,1,75,10|2,0:0|3:2,0:0:0:0:
314,263,34347,2,0,B|267:294|267:294|186:250,1,112.5,10|2,0:1|0:0,0:0:0:0:
169,205,35042,1,2,3:2:0:0:
165,201,35274,2,0,L|18:211,1,75,10|2,0:1|3:2,0:0:0:0:
58,238,35737,2,0,P|68:307|122:290,1,75,10|2,0:0|3:2,0:0:0:0:
97,332,36200,2,0,B|41:314|50:407|-25:356,2,112.5,10|2|2,0:1|0:0|3:2,0:0:0:0:
132,360,37127,5,10,0:1:0:0:
136,364,37359,2,0,P|208:329|194:301,1,75,2|10,3:2|0:0,0:0:0:0:
228,255,38054,1,10,0:1:0:0:
224,251,38286,2,0,P|152:286|166:314,1,75,2|10,3:2|0:0,0:0:0:0:
201,356,38980,2,0,L|362:345,1,150,10|10,0:1|0:0,0:0:0:0:
389,369,39675,1,2,3:2:0:0:
393,373,39907,2,0,P|467:294|375:294,1,150,10|10,0:1|0:0,0:0:0:0:
437,260,40602,1,2,3:2:0:0:
393,268,40834,5,10,0:1:0:0:
389,272,41065,2,0,L|393:147,1,75,2|8,0:0|0:0,0:0:0:0:
420,162,41529,1,2,3:2:0:0:
424,166,41760,1,10,0:1:0:0:
428,170,41992,2,0,P|461:170|473:105,1,75,2|8,3:2|0:0,0:0:0:0:
478,33,42687,2,0,L|331:43,1,75,10|2,0:1|3:2,0:0:0:0:
355,60,43150,1,10,0:0:0:0:
351,56,43382,2,0,P|271:56|353:111,1,150,2|6,3:2|1:3,0:0:0:0:
279,154,44077,2,0,P|195:154|191:119,1,75,6|8,1:3|3:1,0:0:0:0:
178,145,44541,5,14,0:1:0:0:
174,141,44772,2,0,L|182:-6,2,75,2|10|2,3:2|0:0|3:2,0:0:0:0:
137,168,45467,1,10,0:1:0:0:
61,188,45814,2,0,B|33:237|33:237|73:317,1,112.5,2|0,0:0|3:0,0:0:0:0:
99,307,46394,1,10,0:1:0:0:
105,310,46625,2,0,P|105:379|154:379,2,75,2|10|2,3:2|0:0|3:2,0:0:0:0:
140,282,47320,1,10,0:1:0:0:
189,343,47668,2,0,B|236:374|236:374|317:330,1,112.5,2|0,0:0|3:0,0:0:0:0:
309,309,48247,5,10,0:1:0:0:
313,304,48478,2,0,P|383:294|379:248,2,75,2|10|2,3:2|0:0|3:2,0:0:0:0:
290,265,49173,1,10,0:1:0:0:
212,247,49521,2,0,L|217:98,1,112.5,2|0,0:0|3:0,0:0:0:0:
195,95,50100,1,10,0:1:0:0:
191,91,50332,2,0,P|199:28|243:28,1,75,2|10,3:2|0:0,0:0:0:0:
243,10,50795,1,2,3:2:0:0:
247,14,51027,1,10,0:1:0:0:
297,74,51374,2,0,B|353:56|344:149|419:98,1,112.5,6|0,0:3|3:0,0:0:0:0:
433,88,51953,5,10,0:1:0:0:
438,85,52185,2,0,L|446:-62,2,75,2|10|2,3:2|0:0|3:2,0:0:0:0:
471,117,52880,1,10,0:1:0:0:
427,184,53228,2,0,B|399:233|399:233|439:313,1,112.5,6|0,0:3|3:0,0:0:0:0:
454,317,53807,1,10,0:1:0:0:
461,320,54038,2,0,P|474:321|482:245,2,75,2|10|2,3:2|0:0|3:2,0:0:0:0:
437,360,54733,1,10,0:1:0:0:
362,333,55081,2,0,B|306:315|315:408|240:357,1,112.5,6|0,0:3|3:0,0:0:0:0:
229,342,55660,6,0,P|222:333|311:333,2,150,10|10|10,0:1|0:0|0:1,0:0:0:0:
125,359,57050,1,10,0:0:0:0:
121,355,57282,2,0,B|108:327|108:327|138:245|138:245|117:194,1,150,2|2,3:2|0:0,0:0:0:0:
37,159,58208,2,0,P|126:94|72:70,1,150,2|0,0:0|3:0,0:0:0:0:
99,81,58903,2,0,P|99:25|162:25,1,75,2|2,0:0|0:0,0:0:0:0:
152,0,59367,5,14,0:1:0:0:
230,70,59830,1,10,0:0:0:0:
234,74,60061,1,2,3:2:0:0:
238,78,60293,2,0,B|318:55|292:151|377:121,1,150,10|10,0:1|0:0,0:0:0:0:
395,87,60988,2,0,P|321:8|293:54,1,150,2|2,3:2|3:2,0:0:0:0:
230,70,61915,2,0,L|239:248,1,150,2|0,3:2|3:0,0:0:0:0:
271,251,62610,2,0,P|243:317|295:333,1,75,10|2,0:0|0:0,0:0:0:0:
256,350,63073,5,14,0:1:0:0:
357,319,63536,1,10,0:0:0:0:
361,323,63768,1,2,3:2:0:0:
365,327,64000,2,0,P|405:330|338:261,1,150,10|10,0:1|0:0,0:0:0:0:
401,205,64695,2,0,B|321:182|347:278|262:248,1,150,2|2,3:2|3:2,0:0:0:0:
238,220,65390,1,8,0:0:0:0:
234,216,65622,2,0,B|221:188|221:188|251:106|251:106|230:55,1,150,2|0,3:2|3:0,0:0:0:0:
206,45,66316,2,0,P|117:64|106:51,1,75,10|2,0:0|0:0,0:0:0:0:
117,40,66780,5,14,0:1:0:0:
22,85,67243,2,0,P|22:156|82:156,1,75,10|2,0:0|3:2,0:0:0:0:
52,181,67706,1,10,0:1:0:0:
155,203,68170,2,0,P|155:266|91:266,1,75,10|2,0:0|3:2,0:0:0:0:
114,296,68633,1,10,0:1:0:0:
192,366,69096,2,0,P|256:348|269:360,1,75,8|0,0:0|3:0,0:0:0:0:
293,375,69560,2,0,P|330:375|283:285,1,150,8|8,0:1|3:0,0:0:0:0:
319,244,70255,1,2,3:2:0:0:
343,206,70486,6,0,L|504:195,2,150,12|10|10,0:1|0:0|0:1,0:0:0:0:
322,165,71645,1,0,3:0:0:0:
318,161,71876,2,0,L|326:14,1,75,10|0,0:0|0:0,0:0:0:0:
351,52,72339,1,14,0:1:0:0:
256,7,72803,1,10,0:3:0:0:
252,12,73034,2,0,B|172:-11|198:85|113:55,1,150,6|2,3:1|3:2,0:0:0:0:
87,25,73729,2,0,P|31:59|64:120,1,75,10|2,0:0|0:0,0:0:0:0:
45,105,74193,5,14,0:1:0:0:
104,192,74656,1,10,0:0:0:0:
108,188,74888,1,2,3:2:0:0:
112,184,75119,2,0,P|183:184|100:213,1,150,10|10,0:1|0:0,0:0:0:0:
153,282,75814,2,0,P|153:346|196:267,1,150,2|2,3:2|3:2,0:0:0:0:
322,308,76741,2,0,B|402:285|376:381|461:351,1,150,2|0,3:2|3:0,0:0:0:0:
491,330,77436,2,0,P|502:296|423:289,1,75,10|2,0:0|0:0,0:0:0:0:
437,255,77899,5,14,0:1:0:0:
387,162,78363,1,10,0:0:0:0:
383,158,78594,1,2,3:2:0:0:
379,154,78826,2,0,B|331:157|331:157|310:206|310:206|161:214,1,150,10|10,0:1|0:0,0:0:0:0:
221,227,79521,2,0,P|124:174|139:261,1,150,2|2,3:2|3:2,0:0:0:0:
89,198,80216,1,8,0:0:0:0:
85,202,80448,2,0,B|98:230|98:230|68:312|68:312|89:363,1,150,2|0,3:2|3:0,0:0:0:0:
106,378,81143,2,0,P|149:378|149:310,1,75,10|2,0:0|0:0,0:0:0:0:
159,310,81606,5,14,0:1:0:0:
221,227,82069,2,0,L|368:217,1,75,10|2,0:0|3:2,0:0:0:0:
329,253,82533,1,10,0:1:0:0:
401,330,82996,2,0,P|409:347|492:310,1,75,10|2,0:0|3:2,0:0:0:0:
494,335,83459,1,10,0:1:0:0:
500,230,83922,2,0,P|492:213|409:250,1,75,10|2,0:0|3:2,0:0:0:0:
407,225,84386,2,0,P|333:168|371:142,1,150,10|8,0:1|3:0,0:0:0:0:
365,113,85081,1,2,3:2:0:0:
349,71,85312,6,0,B|269:48|295:144|210:114,1,150,14|10,0:1|0:0,0:0:0:0:
134,54,86239,2,0,P|60:111|98:137,1,150,10|10,0:1|0:0,0:0:0:0:
108,152,86934,2,0,B|121:180|121:180|91:262|91:262|112:313,1,150,2|2,3:2|0:0,0:0:0:0:
186,353,87861,2,0,P|260:296|222:270,1,150,2|2,0:0|0:0,0:0:0:0:
211,255,88556,2,0,L|64:265,1,75,2|0,0:0|0:0,0:0:0:0:
103,291,89019,5,2,0:0:0:0:
