osu file format v14

[General]
AudioFilename: audio.mp3
AudioLeadIn: 0
PreviewTime: 58903
Countdown: 1
SampleSet: Soft
StackLeniency: 0.5
Mode: 0
LetterboxInBreaks: 0
WidescreenStoryboard: 1

[Editor]
Bookmarks: 7475,14888,22301,29714,37127,44540,50100,51953,59367,66780,70486,74193,81606
DistanceSpacing: 1.2
BeatDivisor: 2
GridSize: 32
TimelineZoom: 1.8

[Metadata]
Title:Shoujo Traveler (TV Size)
TitleUnicode:少女トラベラー (TV Size)
Artist:9nine
ArtistUnicode:9nine
Creator:Chaoslitz
Version:Hard
Source:べるぜバブ
Tags:Beelzebub ending ed ed5 佐武宇綺 村田寛奈 吉井香奈恵 川島海荷 西脇彩華 satake uki murata hirona yoshii kanae kawashima umika nishiwaki sayaka jpop pop j-pop electronic anime japanese traveller
BeatmapID:3067429
BeatmapSetID:1416627

[Difficulty]
HPDrainRate:4
CircleSize:4.5
OverallDifficulty:6
ApproachRate:7
SliderMultiplier:1.8
SliderTickRate:1

[Events]
//Background and Video events
0,0,"bg.jpg",0,0
Video,10,"bossmouth.mp4"
//Break Periods
//Storyboard Layer 0 (Background)
//Storyboard Layer 1 (Fail)
//Storyboard Layer 2 (Pass)
//Storyboard Layer 3 (Foreground)
//Storyboard Layer 4 (Overlay)
//Storyboard Sound Samples

[TimingPoints]
62,463.320463320463,4,2,1,70,1,0
409,-100,4,2,1,70,0,0
756,-100,4,2,1,70,0,0
988,-100,4,2,1,70,0,0
1451,-100,4,2,1,70,0,0
1915,-100,4,2,1,70,0,0
2262,-100,4,2,1,70,0,0
2610,-100,4,2,1,70,0,0
2841,-100,4,2,1,70,0,0
3305,-100,4,2,1,70,0,0
3768,-100,4,2,1,70,0,0
4116,-100,4,2,1,70,0,0
4463,-100,4,2,1,70,0,0
4695,-100,4,2,1,70,0,0
5158,-100,4,2,1,70,0,0
5621,-100,4,2,1,70,0,0
7011,-100,4,2,1,80,0,0
7475,-100,4,2,2,95,0,0
9791,-100,4,2,2,95,0,0
10255,-100,4,2,2,95,0,0
13498,-100,4,2,2,95,0,0
13961,-100,4,2,2,95,0,0
14888,-100,4,2,2,85,0,0
28324,-100,4,2,2,85,0,0
28556,-100,4,2,2,85,0,0
29251,-100,4,2,10,95,0,0
29367,-100,4,2,2,85,0,0
43382,-100,4,2,2,85,0,0
43845,-100,4,2,3,95,0,0
44309,-100,4,2,2,85,0,0
44540,-100,4,2,2,75,0,0
51143,-100,4,2,3,75,0,0
51374,-100,4,2,5,75,0,0
51490,-100,4,2,2,75,0,0
51953,-100,4,2,2,75,0,0
52996,-100,4,2,3,75,0,0
53228,-100,4,2,5,75,0,0
53343,-100,4,2,2,75,0,0
54849,-100,4,2,3,75,0,0
55081,-100,4,2,5,75,0,0
55197,-100,4,2,2,75,0,0
55660,-100,4,2,2,85,0,0
56702,-100,4,2,3,85,0,0
56934,-100,4,2,5,85,0,0
57050,-100,4,2,2,85,0,0
57282,-100,4,2,2,90,0,0
58903,-100,4,2,2,80,0,0
59367,-100,4,2,6,100,0,1
59482,-100,4,2,2,100,0,1
62610,-100,4,2,2,100,0,1
63073,-100,4,2,6,100,0,1
63189,-100,4,2,2,100,0,1
66316,-100,4,2,2,100,0,1
66780,-100,4,2,6,100,0,1
66895,-100,4,2,2,100,0,1
70081,-100,4,2,2,10,0,1
70139,-100,4,2,2,100,0,1
70197,-100,4,2,2,10,0,1
70255,-100,4,2,2,100,0,1
72745,-100,4,2,2,10,0,1
72803,-100,4,2,2,100,0,1
73034,-100,4,2,2,100,0,1
73729,-100,4,2,2,100,0,0
74193,-100,4,2,6,100,0,1
74309,-100,4,2,2,100,0,1
77436,-100,4,2,2,100,0,1
77899,-100,4,2,6,100,0,1
78015,-100,4,2,2,100,0,1
81143,-100,4,2,2,100,0,1
81606,-100,4,2,6,100,0,1
81722,-100,4,2,2,100,0,1
84907,-100,4,2,2,10,0,1
84965,-100,4,2,2,100,0,1
85023,-100,4,2,2,10,0,1
85081,-100,4,2,2,100,0,1
86934,-100,4,2,2,100,0,0
87397,-100,4,2,2,100,0,0
88556,-100,4,2,2,100,0,0
88787,-100,4,2,2,50,0,0
89019,-100,4,2,2,100,0,0
89482,-100,4,2,2,100,0,0

[Colours]
Combo1 : 100,219,77
Combo2 : 253,199,57
Combo3 : 249,115,191

[HitObjects]
86,378,62,6,0,P|133:350|127:333,2,45,8|2|4,3:1|0:3|0:3,0:0:0:0:
61,349,409,2,0,L|70:170,1,90,6|2,0:3|0:3,0:0:0:0:
41,230,756,1,6,0:3:0:0:
89,174,988,2,0,P|125:249|81:249,1,90,8|4,3:1|0:3,0:0:0:0:
141,231,1336,1,6,0:3:0:0:
139,239,1451,2,0,L|294:229,1,90,2|6,0:0|0:3,0:0:0:0:
295,194,1915,6,0,P|333:226|321:248,2,45,8|2|4,3:1|0:3|0:3,0:0:0:0:
268,167,2262,2,0,B|247:127|247:127|302:38,1,90,6|2,0:3|0:3,0:0:0:0:
301,65,2610,1,6,0:3:0:0:
241,18,2841,2,0,P|205:11|205:87,1,90,8|4,3:1|0:3,0:0:0:0:
180,58,3189,1,6,0:3:0:0:
184,66,3305,2,0,P|132:105|132:29,1,90,2|6,0:0|0:3,0:0:0:0:
85,30,3768,6,0,P|88:25|44:-20,2,45,8|2|4,3:1|0:3|0:3,0:0:0:0:
56,56,4116,2,0,B|32:94|32:94|82:190,1,90,6|2,0:3|0:3,0:0:0:0:
79,162,4463,1,6,0:3:0:0:
33,223,4695,2,0,P|8:287|85:287,1,90,8|4,3:1|0:3,0:0:0:0:
21,302,5042,1,6,0:3:0:0:
28,307,5158,2,0,L|183:297,1,90,2|6,0:0|0:3,0:0:0:0:
187,339,5621,5,8,3:0:0:0:
183,343,5737,2,0,B|221:368|221:368|302:326,1,90,10|14,3:3|3:3,0:0:0:0:
265,271,6200,2,0,B|227:246|227:246|146:288,1,90,10|8,3:3|3:0,0:0:0:0:
118,301,6664,2,0,P|111:348|133:357,2,45,10|8|10,3:3|3:0|3:3,0:0:0:0:
110,263,7011,2,0,L|113:185,3,45,8|8|8|8,0:0|0:0|0:0|0:0,0:0:0:0:
98,182,7475,5,14,3:1:0:0:
152,128,7706,1,2,3:1:0:0:
88,84,7938,2,0,P|133:52|133:201,1,180,10|10,3:3|3:1,0:0:0:0:
225,118,8517,2,0,P|175:144|175:64,2,90,2|2|2,3:1|3:1|3:1,0:0:0:0:
231,39,9212,1,2,3:1:0:0:
235,35,9328,6,0,L|390:25,1,90,10|2,3:1|3:1,0:0:0:0:
396,0,9791,1,10,3:3:0:0:
425,71,10023,1,2,3:3:0:0:
354,100,10255,1,10,3:1:0:0:
350,104,10370,2,0,B|326:142|326:142|376:238,1,90,2|2,3:1|3:1,0:0:0:0:
417,214,10834,2,0,L|497:208,2,45,2|2|2,3:1|3:1|3:1,0:0:0:0:
393,244,11181,5,10,3:1:0:0:
439,306,11413,1,2,3:1:0:0:
387,362,11645,2,0,B|336:365|336:365|306:292|306:292|134:303,1,180,10|10,3:3|3:1,0:0:0:0:
252,299,12224,2,0,P|244:363|313:329,2,90,2|2|2,3:1|3:1|3:1,0:0:0:0:
323,272,12919,1,2,3:1:0:0:
319,268,13034,6,0,L|328:89,1,90,10|2,3:1|3:1,0:0:0:0:
363,113,13498,1,10,3:3:0:0:
314,54,13729,1,2,3:3:0:0:
243,82,13961,1,10,3:1:0:0:
247,86,14077,2,0,P|151:87|151:40,1,90,2|2,3:1|3:1,0:0:0:0:
117,54,14540,2,0,L|120:-24,2,45,2|2|2,3:1|3:1|3:1,0:0:0:0:
98,87,14888,5,14,0:1:0:0:
116,161,15119,2,0,P|116:242|62:242,1,90,2|10,3:2|0:0,0:0:0:0:
52,203,15583,1,2,3:2:0:0:
56,280,15814,2,0,P|138:338|107:377,1,135,10|2,0:1|0:0,0:0:0:0:
115,379,16278,2,0,L|270:369,1,90,8|0,0:0|3:0,0:0:0:0:
256,316,16741,5,10,0:1:0:0:
307,373,16973,2,0,P|344:368|309:288,1,90,2|10,3:2|0:0,0:0:0:0:
314,265,17436,1,2,3:2:0:0:
372,214,17668,2,0,P|408:208|373:128,1,90,10|2,0:1|3:2,0:0:0:0:
378,105,18131,2,0,L|223:115,1,90,10|2,0:0|3:2,0:0:0:0:
284,114,18478,1,0,0:0:0:0:
280,118,18594,5,10,0:1:0:0:
222,167,18826,2,0,P|227:214|255:214,2,45,2|0|10,3:2|0:0|0:0,0:0:0:0:
294,192,19289,1,2,3:2:0:0:
268,268,19521,2,0,P|185:268|200:337,1,135,10|2,0:1|0:0,0:0:0:0:
188,340,19984,2,0,P|259:351|273:306,1,90,8|2,0:0|3:2,0:0:0:0:
268,268,20448,5,10,0:1:0:0:
333,310,20679,2,0,L|418:304,2,45,2|0|10,3:2|0:0|0:0,0:0:0:0:
264,345,21143,1,2,3:2:0:0:
268,268,21374,2,0,P|185:268|200:337,1,135,10|2,0:1|0:0,0:0:0:0:
188,340,21838,2,0,P|119:359|103:306,1,90,8|2,0:0|3:2,0:0:0:0:
50,311,22301,6,0,L|59:132,1,90,10|0,0:1|0:0,0:0:0:0:
119,180,22764,1,10,0:0:0:0:
51,145,22996,1,2,3:2:0:0:
115,103,23228,2,0,P|115:184|61:184,1,90,10|0,0:1|0:0,0:0:0:0:
55,221,23691,2,0,P|131:275|106:319,1,90,10|2,0:0|3:2,0:0:0:0:
130,262,24038,1,0,0:0:0:0:
128,270,24154,5,10,0:1:0:0:
89,336,24386,2,0,L|-66:346,2,90,2|10|2,3:2|0:0|3:2,0:0:0:0:
155,375,25081,1,10,0:1:0:0:
194,309,25312,2,0,L|349:299,2,90,2|10|2,3:2|0:0|3:2,0:0:0:0:
128,270,26007,5,10,0:1:0:0:
155,375,26239,1,2,3:2:0:0:
128,270,26471,2,0,P|190:270|181:195,1,135,10|0,0:0|0:0,0:0:0:0:
168,184,26934,2,0,L|59:191,1,90,10|2,0:1|3:2,0:0:0:0:
74,193,27282,1,8,0:1:0:0:
70,197,27397,1,10,0:0:0:0:
15,144,27629,6,0,P|15:90|98:122,1,135,2|0,3:2|3:0,0:0:0:0:
102,117,28092,1,2,3:2:0:0:
158,65,28324,2,0,P|222:89|248:9,1,90,10|2,3:2|3:2,0:0:0:0:
256,48,28672,1,10,3:2:0:0:
310,102,28903,2,0,L|387:97,2,45,2|2|2,0:0|3:2|0:0,0:0:0:0:
291,135,29251,2,0,P|291:180|322:190,3,45,10|2|2|2,0:0|0:0|3:2|0:0,0:0:0:0:
305,211,29714,5,14,0:1:0:0:
372,173,29946,2,0,P|381:173|381:258,1,90,2|10,3:2|0:0,0:0:0:0:
350,274,30409,1,2,3:2:0:0:
375,346,30641,2,0,B|430:385|430:385|526:330,1,135,10|2,0:1|0:0,0:0:0:0:
507,318,31104,2,0,P|517:295|433:243,1,90,8|0,0:0|3:2,0:0:0:0:
415,233,31567,5,10,0:1:0:0:
350,274,31799,2,0,L|195:284,1,90,2|10,3:2|0:0,0:0:0:0:
196,320,32262,1,2,3:2:0:0:
131,360,32494,2,0,P|99:360|132:285,1,90,10|2,0:1|3:2,0:0:0:0:
138,270,32957,2,0,L|147:91,1,90,10|2,0:0|3:2,0:0:0:0:
138,176,33305,1,0,0:0:0:0:
134,172,33421,5,10,0:1:0:0:
193,124,33652,2,0,P|198:115|169:59,2,45,2|0|10,3:2|0:0|0:0,0:0:0:0:
121,96,34116,1,2,3:2:0:0:
134,172,34347,2,0,B|189:211|189:211|285:156,1,135,10|2,0:1|0:0,0:0:0:0:
267,144,34811,2,0,P|183:136|177:165,1,90,8|2,0:0|3:2,0:0:0:0:
134,172,35274,5,10,0:1:0:0:
121,96,35506,2,0,L|125:8,2,45,2|0|10,3:2|0:0|0:0,0:0:0:0:
62,146,35969,1,2,3:2:0:0:
75,222,36200,2,0,P|150:283|132:301,1,135,10|2,0:1|0:0,0:0:0:0:
142,318,36664,2,0,P|176:370|206:300,1,90,8|2,0:0|3:2,0:0:0:0:
262,331,37127,5,10,0:1:0:0:
229,263,37359,2,0,L|238:84,2,90,2|10|2,3:2|0:0|3:2,0:0:0:0:
262,331,38054,1,10,0:1:0:0:
305,268,38285,2,0,L|314:89,2,90,2|10|2,3:2|0:0|3:2,0:0:0:0:
311,274,38865,1,0,0:0:0:0:
317,280,38980,6,0,P|352:366|385:344,1,135,10|0,0:1|0:0,0:0:0:0:
388,339,39444,1,10,0:0:0:0:
457,371,39675,1,2,3:2:0:0:
451,296,39907,2,0,B|418:236|418:236|476:145,1,135,10|0,0:1|0:0,0:0:0:0:
488,160,40370,1,10,0:0:0:0:
508,88,40602,1,2,3:2:0:0:
443,44,40834,5,10,0:1:0:0:
382,92,41065,2,0,B|331:95|331:95|312:172|312:172|175:180,1,180,2|2,3:2|3:2,0:0:0:0:
196,213,41760,2,0,P|170:217|170:116,1,90,10|2,0:1|3:2,0:0:0:0:
125,167,42108,1,0,0:0:0:0:
127,157,42224,2,0,P|223:157|223:190,1,90,8|0,0:0|3:0,0:0:0:0:
263,175,42687,6,0,B|239:213|239:213|289:309,1,90,10|2,0:1|3:2,0:0:0:0:
263,256,43034,1,8,0:1:0:0:
267,260,43150,1,10,0:0:0:0:
328,215,43382,2,0,P|415:264|394:293,1,135,2|0,3:2|0:0,0:0:0:0:
399,297,43845,1,6,1:3:0:0:
394,373,44077,1,6,1:3:0:0:
463,340,44309,1,8,3:1:0:0:
399,297,44540,5,14,0:1:0:0:
330,330,44772,2,0,P|241:351|225:285,1,90,2|10,3:2|0:0,0:0:0:0:
233,286,45235,1,2,3:2:0:0:
181,342,45467,2,0,L|26:352,1,90,10|0,0:1|3:0,0:0:0:0:
55,360,45814,2,0,P|59:268|114:273,1,135,2|0,0:0|3:0,0:0:0:0:
158,268,46394,5,10,0:1:0:0:
125,199,46625,2,0,L|134:20,1,90,2|10,3:2|0:0,0:0:0:0:
96,40,47089,1,2,3:2:0:0:
165,6,47320,2,0,P|223:56|210:78,1,90,10|0,0:1|3:0,0:0:0:0:
201,83,47668,2,0,B|259:121|259:121|321:80,1,135,2|0,0:0|3:0,0:0:0:0:
363,26,48247,5,10,0:1:0:0:
434,55,48478,2,0,P|441:136|367:136,1,90,2|10,3:2|0:0,0:0:0:0:
380,178,48942,1,2,3:2:0:0:
449,210,49173,2,0,P|401:220|430:297,1,90,10|0,0:1|3:0,0:0:0:0:
398,292,49521,2,0,P|325:356|297:315,1,135,2|0,0:0|3:0,0:0:0:0:
256,303,50100,5,10,0:1:0:0:
218,238,50332,1,2,3:2:0:0:
256,173,50563,1,10,0:0:0:0:
294,238,50795,1,2,3:2:0:0:
256,303,51027,1,10,0:1:0:0:
260,307,51143,2,0,P|171:314|163:261,1,90,8|6,1:3|0:3,0:0:0:0:
163,291,51490,2,0,L|86:296,2,45,8|0|0,0:0|0:0|3:0,0:0:0:0:
218,238,51953,5,10,0:1:0:0:
180,173,52185,2,0,L|25:183,1,90,2|10,3:2|0:0,0:0:0:0:
39,122,52648,1,2,3:2:0:0:
96,71,52880,1,10,0:1:0:0:
93,66,52996,2,0,P|93:33|186:59,1,90,8|6,1:3|0:3,0:0:0:0:
174,5,53343,2,0,P|200:25|131:80,1,90,8|0,0:0|3:0,0:0:0:0:
246,135,53807,5,10,0:1:0:0:
180,173,54038,2,0,L|171:352,1,90,2|10,3:2|0:0,0:0:0:0:
109,301,54502,1,2,3:2:0:0:
171,346,54733,1,10,0:1:0:0:
174,351,54849,2,0,P|256:309|245:283,1,90,8|6,1:3|0:3,0:0:0:0:
243,299,55197,2,0,P|325:257|314:231,1,90,8|0,0:0|3:0,0:0:0:0:
295,213,55660,6,0,B|333:210|333:210|355:265|355:265|405:262,1,135,10|0,0:1|0:0,0:0:0:0:
422,238,56123,2,0,P|432:219|350:219,1,90,10|0,0:0|0:0,0:0:0:0:
329,132,56587,1,10,0:1:0:0:
325,128,56702,2,0,L|334:-51,1,90,8|4,1:3|0:3,0:0:0:0:
306,7,57050,1,10,0:0:0:0:
239,46,57282,6,0,B|201:71|201:71|120:29,1,90,2|8,3:2|3:1,0:0:0:0:
156,45,57629,1,0,3:0:0:0:
151,39,57745,2,0,P|68:71|101:129,1,90,2|8,0:0|3:1,0:0:0:0:
99,128,58208,1,2,0:0:0:0:
48,185,58440,2,0,L|-29:190,2,45,8|0|0,3:1|3:0|3:0,0:0:0:0:
123,201,58903,1,2,0:0:0:0:
99,128,59135,1,2,0:0:0:0:
72,258,59367,6,0,P|156:298|136:331,1,135,14|0,0:1|0:0,0:0:0:0:
135,343,59830,1,10,0:0:0:0:
203,377,60061,1,2,3:2:0:0:
256,321,60293,2,0,P|350:321|356:338,1,90,10|0,0:1|3:0,0:0:0:0:
341,308,60641,1,0,0:0:0:0:
346,315,60756,1,10,0:0:0:0:
403,367,60988,6,0,P|461:307|424:279,1,90,2|8,3:2|0:1,0:0:0:0:
405,270,61451,2,0,L|414:91,1,90,2|8,3:2|0:0,0:0:0:0:
473,138,61915,1,2,3:2:0:0:
421,82,62146,2,0,P|350:128|365:157,1,90,8|0,0:1|3:0,0:0:0:0:
350,122,62494,1,0,0:0:0:0:
353,130,62610,1,10,0:0:0:0:
410,181,62841,1,2,0:0:0:0:
277,125,63073,6,0,B|241:181|241:181|295:279,1,135,14|0,0:1|0:0,0:0:0:0:
311,252,63536,1,10,0:0:0:0:
271,317,63768,1,2,3:2:0:0:
207,275,64000,2,0,L|75:282,1,90,10|0,0:1|3:0,0:0:0:0:
112,284,64347,1,0,0:0:0:0:
107,289,64463,1,10,0:0:0:0:
211,199,64695,6,0,L|79:206,1,90,2|8,3:2|0:1,0:0:0:0:
57,348,65158,2,0,P|77:365|151:283,1,90,2|8,3:2|0:0,0:0:0:0:
107,289,65621,1,2,3:2:0:0:
137,359,65853,2,0,P|157:376|231:294,1,90,8|0,0:1|3:0,0:0:0:0:
224,368,66200,1,0,0:0:0:0:
229,362,66316,1,10,0:0:0:0:
187,300,66548,1,2,0:0:0:0:
305,368,66780,6,0,P|365:368|345:280,1,135,14|0,0:1|0:0,0:0:0:0:
356,273,67243,1,10,0:0:0:0:
283,295,67475,1,2,3:2:0:0:
231,239,67706,2,0,P|225:157|285:160,1,90,10|0,0:1|3:0,0:0:0:0:
226,157,68054,1,0,0:0:0:0:
235,154,68170,1,10,0:0:0:0:
308,176,68401,1,2,3:2:0:0:
360,120,68633,6,0,P|366:38|306:41,1,90,10|0,0:1|3:0,0:0:0:0:
365,38,68980,1,0,0:0:0:0:
356,35,69096,1,8,0:0:0:0:
283,57,69328,1,0,3:0:0:0:
234,5,69560,2,0,L|102:12,1,90,8|0,0:1|3:0,0:0:0:0:
86,57,70023,1,8,3:0:0:0:
86,57,70139,1,0,3:0:0:0:
86,57,70255,1,2,3:2:0:0:
105,131,70486,6,0,P|77:208|114:213,1,90,12|0,0:1|3:0,0:0:0:0:
67,199,70835,1,0,0:0:0:0:
72,205,70950,2,0,L|197:197,1,90,10|0,0:0|3:0,0:0:0:0:
187,272,71413,2,0,L|61:279,1,90,10|0,0:1|3:0,0:0:0:0:
92,284,71760,1,0,0:0:0:0:
89,292,71876,2,0,P|112:371|168:357,1,135,10|0,0:0|0:0,0:0:0:0:
183,349,72339,5,14,0:1:0:0:
260,322,72571,1,2,3:0:0:0:
260,322,72687,1,2,0:3:0:0:
260,322,72803,1,10,0:3:0:0:
407,375,73034,2,0,L|416:196,1,90,6|8,3:1|0:1,0:0:0:0:
335,281,73497,2,0,L|326:460,1,90,2|10,3:2|0:0,0:0:0:0:
407,375,73961,1,2,0:0:0:0:
377,217,74193,6,0,B|322:256|322:256|226:201,1,135,14|0,0:1|0:0,0:0:0:0:
248,187,74656,1,10,0:0:0:0:
302,133,74888,1,2,3:2:0:0:
267,64,75119,2,0,L|141:71,1,90,10|0,0:1|3:0,0:0:0:0:
173,64,75467,1,0,0:0:0:0:
169,60,75583,1,10,0:0:0:0:
105,17,75814,6,0,B|81:55|81:55|131:151,1,90,2|8,3:2|0:1,0:0:0:0:
45,149,76278,2,0,P|73:140|102:240,1,90,2|8,3:2|0:0,0:0:0:0:
67,222,76741,1,2,3:2:0:0:
88,295,76973,2,0,P|110:317|184:244,1,90,8|0,0:1|3:0,0:0:0:0:
172,312,77320,1,0,0:0:0:0:
179,308,77436,1,10,0:0:0:0:
141,243,77667,1,2,0:0:0:0:
217,373,77899,6,0,B|254:371|254:371|270:314|270:314|342:311,1,135,14|0,0:1|0:0,0:0:0:0:
337,338,78363,1,10,0:0:0:0:
381,274,78594,1,2,3:2:0:0:
312,237,78826,2,0,L|320:122,1,90,10|0,0:1|3:0,0:0:0:0:
322,143,79173,1,0,0:0:0:0:
326,139,79289,1,10,0:0:0:0:
235,233,79521,6,0,L|243:118,1,90,2|8,3:2|0:1,0:0:0:0:
325,13,79984,2,0,P|303:104|354:104,1,90,2|8,3:2|0:0,0:0:0:0:
241,143,80448,1,2,3:2:0:0:
176,101,80679,2,0,L|50:108,1,90,8|0,0:1|3:0,0:0:0:0:
82,101,81027,1,0,0:0:0:0:
78,97,81143,1,10,0:0:0:0:
115,30,81374,1,2,0:0:0:0:
41,164,81606,6,0,P|126:210|95:248,1,135,14|0,0:1|0:0,0:0:0:0:
97,245,82069,1,10,0:0:0:0:
43,299,82301,1,2,3:2:0:0:
92,358,82533,2,0,P|173:342|152:274,1,90,10|0,0:1|3:0,0:0:0:0:
174,339,82880,1,0,0:0:0:0:
172,331,82996,1,10,0:0:0:0:
226,277,83228,1,2,3:2:0:0:
275,336,83459,6,0,P|356:320|335:252,1,90,10|0,0:1|3:0,0:0:0:0:
357,317,83806,1,0,0:0:0:0:
355,309,83922,1,10,0:0:0:0:
409,255,84154,1,2,3:2:0:0:
336,236,84386,2,0,L|344:121,1,90,10|0,0:1|3:0,0:0:0:0:
311,76,84849,1,8,3:0:0:0:
307,72,84965,1,0,3:0:0:0:
303,68,85081,1,2,3:2:0:0:
239,109,85312,6,0,B|201:134|201:134|120:92,1,90,14|0,0:1|3:0,0:0:0:0:
157,109,85660,1,0,0:0:0:0:
153,105,85776,2,0,L|162:-74,1,90,10|0,0:0|3:0,0:0:0:0:
81,11,86239,2,0,L|72:190,1,90,10|0,0:1|3:0,0:0:0:0:
14,145,86702,1,10,0:0:0:0:
14,145,86818,1,0,0:0:0:0:
14,145,86934,6,0,P|16:144|51:236,1,90,2|8,3:2|0:1,0:0:0:0:
81,254,87397,2,0,L|207:247,1,90,2|0,0:0|0:0,0:0:0:0:
207,317,87861,2,0,P|283:279|248:238,1,135,2|0,0:0|0:0,0:0:0:0:
244,230,88324,1,2,0:0:0:0:
191,176,88556,2,0,L|200:-3,1,90,2|0,0:0|0:0,0:0:0:0:
142,32,89019,5,2,0:0:0:0:
