osu file format v14

[General]
AudioFilename: audio.mp3
AudioLeadIn: 0
PreviewTime: 179453
Countdown: 1
SampleSet: Normal
StackLeniency: 0.7
Mode: 0
LetterboxInBreaks: 0
WidescreenStoryboard: 0

[Editor]
DistanceSpacing: 1.3
BeatDivisor: 4
GridSize: 8
TimelineZoom: 1.9

[Metadata]
Title:Heart Ni Hi Wo Tsukete
TitleUnicode:ハートに火をつけて
Artist:9mm parabellum bullet
ArtistUnicode:9mm parabellum bullet
Creator:RyShiroku
Version:27
Source:
Tags:9mm parabellum bullet rock metal
BeatmapID:1416938
BeatmapSetID:669895

[Difficulty]
HPDrainRate:4.6
CircleSize:3.4
OverallDifficulty:6
ApproachRate:9.3
SliderMultiplier:1.4
SliderTickRate:1

[Events]
//Background and Video events
0,0,"2c2224b22204413046559a215c34ce89.jpg",0,0
//Break Periods
//Storyboard Layer 0 (Background)
//Storyboard Layer 1 (Fail)
//Storyboard Layer 2 (Pass)
//Storyboard Layer 3 (Foreground)
//Storyboard Sound Samples

[TimingPoints]
332,292.682926829268,4,1,0,100,1,0
11746,-66.6666666666667,4,1,0,100,0,0
19795,-100,4,1,0,100,0,0
22283,-66.6666666666667,4,1,0,100,0,0
23161,-66.6666666666667,4,1,0,100,0,0
23307,-50,4,1,0,100,0,0
23407,-66.6666666666667,4,1,0,100,0,0
23746,-100,4,1,0,100,0,0
25502,-66.6666666666667,4,1,0,100,0,0
26819,-100,4,1,0,100,0,0
42185,-66.6666666666667,4,1,0,100,0,0
66551,-100,4,1,0,100,0,0
69258,-66.6666666666667,4,1,0,100,0,0
75258,-100,4,1,0,100,0,0
98673,-66.6666666666667,4,1,0,100,0,0
99405,-100,4,1,0,100,0,0
108039,-66.6666666666667,4,1,0,100,0,0
110380,-100,4,1,0,100,0,0
118283,-66.6666666666667,4,1,0,100,0,0
121502,-100,4,1,0,100,0,0
139660,-66.6666666666667,4,1,0,100,0,0
155892,-66.6666666666667,4,1,0,100,0,0
177624,-100,4,1,0,100,0,0
181795,-66.6666666666667,4,1,0,100,0,0
185892,-50,4,1,0,100,0,0
188600,-133.333333333333,4,1,0,100,0,0
190868,-66.6666666666667,4,1,0,100,0,0
198185,-100,4,1,0,100,0,0

[Colours]
Combo1 : 255,128,0
Combo2 : 255,0,0
Combo3 : 64,0,0
Combo4 : 0,0,0

[HitObjects]
256,208,332,5,2,0:0:0:0:
216,96,624,2,0,L|144:152,1,70
328,88,917,2,0,L|392:160,1,70
424,56,1210,1,10,0:0:0:0:
384,208,1357,1,0,0:0:0:0:
232,104,1503,1,2,0:0:0:0:
144,168,1795,6,2,L|179:243,1,70
128,48,2088,1,8,0:0:0:0:
266,66,2234,1,0,0:0:0:0:
360,200,2380,1,8,0:0:0:0:
228,158,2527,1,0,0:0:0:0:
415,101,2673,1,2,0:0:0:0:
254,105,2966,5,8,0:0:0:0:
170,63,3112,2,0,P|115:106|114:121,2,70
108,194,3551,1,8,0:0:0:0:
246,315,3697,1,0,0:0:0:0:
320,176,3844,1,2,0:0:0:0:
213,228,3990,1,0,0:0:0:0:
304,88,4136,1,8,0:0:0:0:
200,152,4283,1,0,0:0:0:0:
384,296,4429,2,8,P|480:288|440:216,1,210
256,188,5014,5,2,0:0:0:0:
192,112,5307,1,8,0:0:0:0:
128,240,5453,1,0,0:0:0:0:
248,328,5600,1,0,0:0:0:0:
192,112,5746,1,0,0:0:0:0:
128,240,5892,1,8,0:0:0:0:
248,328,6039,1,0,0:0:0:0:
192,112,6185,1,2,0:0:0:0:
304,72,6478,5,8,0:0:0:0:
384,256,6624,1,0,0:0:0:0:
384,256,6771,1,0,0:0:0:0:
464,120,6917,1,0,0:0:0:0:
256,80,7063,1,8,0:0:0:0:
256,304,7210,1,0,0:0:0:0:
256,80,7356,1,2,0:0:0:0:
312,56,7649,6,8,P|384:96|392:96,1,70
440,128,7941,2,0,P|464:184|456:208,1,70
400,240,8234,2,8,P|384:296|392:320,1,70
296,328,8527,1,2,0:0:0:0:
200,312,8673,1,0,0:0:0:0:
120,256,8819,1,8,0:0:0:0:
72,184,8966,1,0,0:0:0:0:
64,96,9112,1,0,0:0:0:0:
152,24,9258,2,10,P|208:8|232:8,3,70
352,128,10868,6,2,L|352:224,1,70
280,168,11161,2,8,L|280:248,1,70
208,200,11453,2,0,L|208:280,1,70
80,144,11746,2,10,L|128:120,4,52.5000020027161
112,232,12185,5,0,0:0:0:0:
112,232,12331,1,0,0:0:0:0:
208,328,12478,1,0,0:0:0:0:
224,224,12624,1,0,0:0:0:0:
112,232,12771,1,0,0:0:0:0:
88,328,12917,2,8,L|144:352,2,52.5000020027161
160,224,13210,5,2,0:0:0:0:
264,64,13356,1,0,0:0:0:0:
264,64,13502,1,8,0:0:0:0:
240,296,13649,1,0,0:0:0:0:
424,304,13795,2,0,B|352:312|408:248|256:184,1,210.000008010865
216,144,14380,5,2,0:0:0:0:
280,24,14526,1,0,0:0:0:0:
408,88,14673,1,8,0:0:0:0:
368,208,14819,1,0,0:0:0:0:
176,248,14966,1,0,0:0:0:0:
328,296,15112,2,8,L|384:320,2,52.5000020027161
80,80,15405,5,0,0:0:0:0:
16,280,15551,1,2,0:0:0:0:
272,56,15697,1,0,0:0:0:0:
240,296,15844,1,8,0:0:0:0:
160,192,15990,1,0,0:0:0:0:
272,192,16136,2,8,B|344:200|288:136|440:72,1,210.000008010865
144,248,16722,5,2,0:0:0:0:
144,56,16868,1,0,0:0:0:0:
304,248,17015,1,8,0:0:0:0:
296,40,17161,1,0,0:0:0:0:
392,168,17307,2,0,L|448:192,2,52.5000020027161
424,88,17600,5,8,0:0:0:0:
360,296,17745,1,0,0:0:0:0:
288,88,17892,1,2,0:0:0:0:
248,304,18039,1,0,0:0:0:0:
112,96,18184,1,8,0:0:0:0:
112,96,18331,1,0,0:0:0:0:
112,96,18478,2,8,P|64:192|112:192,1,210.000008010865
136,264,19063,5,2,0:0:0:0:
272,80,19210,1,0,0:0:0:0:
248,192,19356,1,8,0:0:0:0:
136,264,19502,1,0,0:0:0:0:
272,80,19649,1,0,0:0:0:0:
288,176,19941,2,8,L|248:200,2,35
136,80,20234,5,2,0:0:0:0:
256,320,20380,1,0,0:0:0:0:
296,112,20527,1,8,0:0:0:0:
72,224,20673,1,0,0:0:0:0:
216,152,20819,1,0,0:0:0:0:
96,80,21112,6,10,L|128:48,4,35
208,64,21551,5,0,0:0:0:0:
320,88,21697,1,8,0:0:0:0:
448,240,21844,1,0,0:0:0:0:
320,88,21990,1,0,0:0:0:0:
448,240,22137,1,0,0:0:0:0:
216,240,22283,2,8,L|272:264,2,52.5000020027161
344,40,22576,5,2,0:0:0:0:
96,120,22722,1,0,0:0:0:0:
280,160,22868,1,8,0:0:0:0:
240,296,23015,1,0,0:0:0:0:
88,224,23161,1,0,0:0:0:0:
88,224,23307,2,8,B|104:384|48:320|128:296,1,140
256,136,23746,6,2,L|328:192,1,70
400,136,24039,1,8,0:0:0:0:
264,56,24185,1,0,0:0:0:0:
400,136,24332,1,0,0:0:0:0:
264,56,24478,2,8,L|208:80,2,52.5000020027161
96,96,24771,5,0,0:0:0:0:
120,200,24917,1,2,0:0:0:0:
208,160,25063,1,0,0:0:0:0:
256,272,25210,1,8,0:0:0:0:
80,328,25356,1,0,0:0:0:0:
80,328,25502,2,8,B|32:352|0:344|192:256,1,210.000008010865
80,176,26088,6,2,L|176:128,1,105.000004005432
256,88,26380,1,8,0:0:0:0:
400,104,26527,1,0,0:0:0:0:
256,184,26673,1,0,0:0:0:0:
312,264,26819,2,8,L|336:296,2,35
176,336,27112,2,2,P|128:288|128:272,1,70
120,200,27405,2,8,P|128:144|120:128,2,70
88,48,27844,2,0,L|56:24,4,35
192,64,28429,6,2,P|264:56|280:64,1,70
368,96,28722,1,8,0:0:0:0:
416,168,28868,2,0,P|408:224|392:240,1,70
328,312,29307,1,8,0:0:0:0:
256,184,29600,5,2,0:0:0:0:
256,184,29746,1,0,0:0:0:0:
256,184,29893,1,8,0:0:0:0:
256,184,30039,1,0,0:0:0:0:
256,184,30185,1,0,0:0:0:0:
360,96,30478,6,10,P|384:160|376:184,1,70
384,264,30771,1,2,0:0:0:0:
232,128,31063,5,8,0:0:0:0:
272,264,31210,1,0,0:0:0:0:
272,264,31356,2,8,P|184:248|160:208,1,140
144,80,31941,1,2,0:0:0:0:
280,72,32234,2,8,P|352:96|352:104,2,70
304,160,32819,6,10,L|336:240,2,70
200,184,33405,2,8,L|240:272,2,70
144,128,34283,5,2,0:0:0:0:
144,128,34356,1,0,0:0:0:0:
144,128,34429,1,0,0:0:0:0:
288,80,34575,1,8,0:0:0:0:
320,240,34722,2,0,L|240:288,1,70
208,120,35453,5,2,0:0:0:0:
368,112,35746,1,8,0:0:0:0:
400,272,36039,1,0,0:0:0:0:
456,176,36331,1,8,0:0:0:0:
112,240,36624,6,2,L|152:168,1,70
200,264,36917,2,8,L|240:192,1,70
280,288,37210,2,0,L|320:224,1,70
352,328,37502,2,8,L|400:264,1,70
104,144,37795,5,2,0:0:0:0:
155,98,37941,1,0,0:0:0:0:
224,96,38087,1,8,0:0:0:0:
128,216,38380,1,0,0:0:0:0:
179,170,38527,1,0,0:0:0:0:
248,168,38673,1,8,0:0:0:0:
160,288,38966,1,2,0:0:0:0:
211,242,39112,1,0,0:0:0:0:
280,240,39258,1,8,0:0:0:0:
256,184,39551,1,0,0:0:0:0:
312,88,39844,5,8,0:0:0:0:
472,32,39990,1,0,0:0:0:0:
312,88,40136,1,2,0:0:0:0:
168,56,40429,2,8,P|160:112|168:152,2,70
136,256,41307,5,2,0:0:0:0:
256,80,41600,1,8,0:0:0:0:
368,128,41746,1,0,0:0:0:0:
408,248,41892,1,0,0:0:0:0:
144,72,42185,6,8,P|112:160|112:192,1,105.000004005432
128,272,42478,1,2,0:0:0:0:
224,64,42771,2,8,P|320:48|368:64,1,105.000004005432
424,80,43063,1,0,0:0:0:0:
128,104,43649,5,2,0:0:0:0:
0,208,43941,1,8,0:0:0:0:
136,320,44088,1,0,0:0:0:0:
248,216,44234,1,0,0:0:0:0:
264,56,44819,6,2,P|328:72|344:120,1,105.000004005432
312,184,45112,2,8,P|336:248|368:256,1,105.000004005432
440,288,45405,2,0,P|488:344|480:384,1,105.000004005432
400,368,45697,2,8,P|312:328|272:328,1,105.000004005432
216,360,45990,2,2,P|120:352|104:320,1,105.000004005432
112,272,46283,2,8,P|80:192|56:184,1,105.000004005432
16,136,46575,2,0,P|32:72|64:56,1,105.000004005432
120,104,46868,2,8,P|208:96|224:72,1,105.000004005432
392,160,47161,5,2,0:0:0:0:
358,144,47234,1,0,0:0:0:0:
328,166,47307,1,0,0:0:0:0:
256,240,47600,1,0,0:0:0:0:
256,240,47746,2,0,P|176:288|248:208,1,315.000012016297
200,72,48331,2,2,L|304:120,2,105.000004005432
96,256,48917,1,8,0:0:0:0:
168,96,49502,5,0,0:0:0:0:
48,168,49941,1,0,0:0:0:0:
160,288,50380,1,8,0:0:0:0:
368,264,50673,1,2,0:0:0:0:
320,72,51112,1,0,0:0:0:0:
496,128,51551,1,8,0:0:0:0:
504,312,51844,1,2,0:0:0:0:
328,176,52283,1,0,0:0:0:0:
192,104,52722,1,8,0:0:0:0:
64,224,52868,5,0,0:0:0:0:
96,320,53014,2,2,L|208:376,1,105.000004005432
280,264,53307,1,8,0:0:0:0:
368,72,53453,1,0,0:0:0:0:
448,240,53600,1,0,0:0:0:0:
368,160,53746,1,0,0:0:0:0:
448,240,53892,1,8,0:0:0:0:
136,168,54185,5,2,0:0:0:0:
248,200,54624,1,0,0:0:0:0:
408,304,55063,1,0,0:0:0:0:
144,304,55429,1,0,0:0:0:0:
80,128,55868,1,0,0:0:0:0:
240,72,56307,1,0,0:0:0:0:
392,144,56600,1,0,0:0:0:0:
328,304,57039,1,0,0:0:0:0:
232,64,57405,1,4,0:0:0:0:
104,232,57551,5,0,0:0:0:0:
320,184,57697,1,2,0:0:0:0:
104,232,57844,1,0,0:0:0:0:
320,184,57990,1,8,0:0:0:0:
96,112,58136,1,0,0:0:0:0:
288,280,58283,1,0,0:0:0:0:
232,80,58429,1,0,0:0:0:0:
232,80,58575,2,8,L|344:144,1,105.000004005432
80,240,58868,5,2,0:0:0:0:
80,240,58941,1,0,0:0:0:0:
80,240,59014,2,8,P|136:328|160:328,1,105.000004005432
208,280,59307,1,0,0:0:0:0:
432,232,59453,1,0,0:0:0:0:
288,96,59600,1,0,0:0:0:0:
416,40,59746,1,8,0:0:0:0:
136,40,59892,1,0,0:0:0:0:
88,136,60039,5,2,0:0:0:0:
89,184,60112,1,0,0:0:0:0:
116,223,60185,1,0,0:0:0:0:
240,288,60331,1,8,0:0:0:0:
304,104,60478,2,0,L|192:160,1,105.000004005432
328,208,60771,1,0,0:0:0:0:
392,104,60917,1,8,0:0:0:0:
432,192,61063,1,0,0:0:0:0:
296,80,61210,1,2,0:0:0:0:
128,112,61356,5,0,0:0:0:0:
128,112,61429,1,0,0:0:0:0:
128,112,61502,2,0,P|112:200|120:248,1,105.000004005432
160,320,61795,5,0,0:0:0:0:
360,224,61941,1,0,0:0:0:0:
232,80,62088,1,8,0:0:0:0:
360,224,62234,1,0,0:0:0:0:
232,80,62380,1,2,0:0:0:0:
128,96,62527,2,8,P|88:168|88:216,1,105.000004005432
112,272,62819,1,0,0:0:0:0:
208,336,62966,1,0,0:0:0:0:
320,336,63112,1,0,0:0:0:0:
416,280,63258,1,8,0:0:0:0:
464,184,63405,1,0,0:0:0:0:
320,48,63551,5,2,0:0:0:0:
320,48,63624,1,0,0:0:0:0:
320,48,63697,1,0,0:0:0:0:
128,96,63844,1,8,0:0:0:0:
184,208,63990,1,4,0:0:0:0:
88,336,64136,1,0,0:0:0:0:
176,272,64283,2,8,L|272:216,1,105.000004005432
296,200,64575,5,0,0:0:0:0:
319,176,64648,1,0,0:0:0:0:
303,142,64721,1,2,0:0:0:0:
274,116,64794,1,0,0:0:0:0:
238,103,64867,1,0,0:0:0:0:
199,105,64940,1,0,0:0:0:0:
164,122,65014,5,8,0:0:0:0:
136,148,65087,1,0,0:0:0:0:
117,182,65160,1,0,0:0:0:0:
112,220,65233,1,0,0:0:0:0:
122,257,65306,1,0,0:0:0:0:
147,287,65379,1,0,0:0:0:0:
180,308,65453,1,0,0:0:0:0:
216,322,65526,1,0,0:0:0:0:
248,336,65600,1,8,0:0:0:0:
272,339,65673,1,0,0:0:0:0:
298,339,65746,1,0,0:0:0:0:
322,335,65819,1,0,0:0:0:0:
346,325,65892,5,2,0:0:0:0:
366,310,65965,1,0,0:0:0:0:
382,291,66039,1,0,0:0:0:0:
394,269,66112,1,0,0:0:0:0:
402,245,66185,1,8,0:0:0:0:
406,220,66258,1,0,0:0:0:0:
409,195,66331,1,0,0:0:0:0:
408,170,66404,1,0,0:0:0:0:
405,145,66478,1,0,0:0:0:0:
392,112,66551,2,0,L|448:120,9,35,0|0|0|8|0|0|0|0|0|0,0:0|0:0|0:0|0:0|0:0|0:0|0:0|0:0|0:0|0:0,0:0:0:0:
128,96,67356,5,8,0:0:0:0:
288,136,67649,1,0,0:0:0:0:
120,240,67795,1,0,0:0:0:0:
296,280,68088,5,0,0:0:0:0:
296,280,68161,1,0,0:0:0:0:
296,280,68234,2,2,L|368:312,1,70
408,176,68527,1,8,0:0:0:0:
208,200,68673,2,0,L|288:152,1,70
256,80,68966,1,0,0:0:0:0:
408,176,69112,1,8,0:0:0:0:
416,280,69258,2,2,P|344:248|320:208,1,105.000004005432
336,120,69551,5,0,0:0:0:0:
176,232,69697,1,8,0:0:0:0:
336,336,69844,1,0,0:0:0:0:
208,72,69990,1,0,0:0:0:0:
304,48,70136,1,0,0:0:0:0:
304,48,70209,1,0,0:0:0:0:
304,48,70282,1,8,0:0:0:0:
392,112,70429,5,0,0:0:0:0:
384,224,70575,1,2,0:0:0:0:
224,264,70722,1,0,0:0:0:0:
240,144,70868,1,8,0:0:0:0:
384,320,71014,1,0,0:0:0:0:
376,120,71161,2,0,L|424:224,1,105.000004005432
298,244,71453,1,8,0:0:0:0:
298,244,71527,1,0,0:0:0:0:
298,244,71600,1,0,0:0:0:0:
128,144,71746,5,2,0:0:0:0:
272,72,71892,1,0,0:0:0:0:
128,144,72039,1,8,0:0:0:0:
272,72,72185,1,0,0:0:0:0:
432,96,72331,1,0,0:0:0:0:
432,96,72405,1,0,0:0:0:0:
432,96,72478,1,0,0:0:0:0:
360,32,72624,2,8,P|352:120|368:152,1,105.000004005432
432,208,72917,1,2,0:0:0:0:
232,72,73063,1,0,0:0:0:0:
128,144,73210,1,8,0:0:0:0:
288,296,73356,5,0,0:0:0:0:
192,208,73502,1,0,0:0:0:0:
344,48,73649,2,8,P|408:64|432:96,1,105.000004005432
360,120,73941,2,2,P|432:192|472:184,1,105.000004005432
512,208,74234,1,0,0:0:0:0:
328,304,74380,1,8,0:0:0:0:
328,304,74453,1,0,0:0:0:0:
328,304,74527,1,0,0:0:0:0:
256,104,74673,2,0,P|200:176|200:192,2,105.000004005432
256,104,75112,1,0,0:0:0:0:
120,80,75258,6,2,L|160:96,1,35
96,136,75405,2,0,L|144:152,1,35
72,184,75551,2,8,L|112:200,1,35
48,232,75697,2,0,L|120:256,1,70
240,312,75990,5,0,0:0:0:0:
488,264,76136,1,8,0:0:0:0:
288,144,76283,1,0,0:0:0:0:
440,112,76429,1,2,0:0:0:0:
436,121,76502,1,0,0:0:0:0:
433,131,76575,1,0,0:0:0:0:
430,140,76648,1,0,0:0:0:0:
427,150,76721,1,8,0:0:0:0:
423,160,76794,1,0,0:0:0:0:
420,169,76868,1,0,0:0:0:0:
384,264,77014,5,0,0:0:0:0:
104,64,77161,1,0,0:0:0:0:
280,192,77307,1,8,0:0:0:0:
280,192,77380,1,0,0:0:0:0:
280,192,77453,1,0,0:0:0:0:
400,72,77600,1,2,0:0:0:0:
136,272,77746,1,0,0:0:0:0:
240,328,77892,1,8,0:0:0:0:
136,272,78039,1,0,0:0:0:0:
136,136,78185,5,0,0:0:0:0:
400,280,78331,1,0,0:0:0:0:
432,152,78478,2,8,P|368:176|360:192,1,70
280,272,78771,1,2,0:0:0:0:
288,152,78917,2,8,P|232:184|224:192,2,70
392,128,79356,1,0,0:0:0:0:
280,40,79502,1,0,0:0:0:0:
245,45,79575,1,0,0:0:0:0:
219,67,79648,1,8,0:0:0:0:
120,144,79795,1,0,0:0:0:0:
144,240,79941,5,2,0:0:0:0:
280,176,80088,1,0,0:0:0:0:
96,64,80234,1,8,0:0:0:0:
216,288,80380,1,0,0:0:0:0:
152,144,80527,1,0,0:0:0:0:
344,264,80673,2,8,B|392:256|360:200|408:232|408:232|424:280|416:200,1,140
464,144,81112,5,2,0:0:0:0:
328,48,81258,1,0,0:0:0:0:
136,104,81405,1,8,0:0:0:0:
448,264,81551,1,0,0:0:0:0:
288,256,81697,1,0,0:0:0:0:
112,176,81844,1,0,0:0:0:0:
320,64,81990,6,8,B|408:104|392:96,1,70
464,160,82283,1,2,0:0:0:0:
432,280,82429,1,0,0:0:0:0:
152,88,82575,1,8,0:0:0:0:
104,232,82722,1,0,0:0:0:0:
200,280,82868,1,0,0:0:0:0:
272,96,83014,2,8,L|328:168,1,70
384,232,83307,5,0,0:0:0:0:
384,232,83380,1,0,0:0:0:0:
384,232,83453,1,2,0:0:0:0:
184,136,83600,2,8,L|248:208,1,70
384,344,83892,5,0,0:0:0:0:
168,344,84039,1,0,0:0:0:0:
384,344,84185,1,0,0:0:0:0:
168,344,84331,1,8,0:0:0:0:
256,152,84478,5,0,0:0:0:0:
256,152,84551,1,0,0:0:0:0:
256,152,84624,1,2,0:0:0:0:
256,56,84771,1,0,0:0:0:0:
408,64,84917,6,8,P|448:104|464:144,1,70
352,160,85210,1,0,0:0:0:0:
160,160,85356,1,0,0:0:0:0:
352,160,85502,1,8,0:0:0:0:
160,160,85649,1,0,0:0:0:0:
352,160,85795,1,0,0:0:0:0:
200,256,85941,2,8,L|296:256,1,70
128,64,86234,5,0,0:0:0:0:
368,256,86380,1,0,0:0:0:0:
280,96,86527,5,0,0:0:0:0:
104,176,86673,1,8,0:0:0:0:
97,210,86746,1,0,0:0:0:0:
102,244,86819,1,0,0:0:0:0:
256,192,86966,5,2,0:0:0:0:
360,48,87112,1,0,0:0:0:0:
448,144,87258,1,8,0:0:0:0:
448,144,87405,1,0,0:0:0:0:
456,256,87551,1,0,0:0:0:0:
456,256,87697,1,0,0:0:0:0:
368,320,87844,1,8,0:0:0:0:
368,320,87990,1,0,0:0:0:0:
368,320,88136,1,2,0:0:0:0:
128,80,88283,5,0,0:0:0:0:
64,224,88429,1,8,0:0:0:0:
280,144,88575,1,0,0:0:0:0:
128,72,88722,1,0,0:0:0:0:
64,224,88868,1,0,0:0:0:0:
280,144,89014,1,8,0:0:0:0:
128,72,89161,1,0,0:0:0:0:
64,224,89307,1,2,0:0:0:0:
280,144,89453,1,0,0:0:0:0:
128,168,89600,6,0,L|216:144,2,70
144,256,90039,2,0,L|240:224,2,70
136,32,90478,5,2,0:0:0:0:
80,128,90624,1,0,0:0:0:0:
80,240,90771,1,8,0:0:0:0:
128,336,90917,1,0,0:0:0:0:
224,384,91063,1,0,0:0:0:0:
336,360,91210,1,0,0:0:0:0:
416,280,91356,1,8,0:0:0:0:
456,184,91502,1,0,0:0:0:0:
448,80,91649,1,2,0:0:0:0:
256,184,91941,5,0,0:0:0:0:
256,184,92088,1,0,0:0:0:0:
256,184,92380,1,0,0:0:0:0:
256,184,92527,1,8,0:0:0:0:
384,64,92819,6,2,L|440:128,1,70
344,128,93112,2,8,L|392:184,1,70
296,200,93405,2,0,L|344:264,1,70
144,112,93697,6,10,L|112:128,4,35
208,224,94136,1,0,0:0:0:0:
432,136,94283,1,8,0:0:0:0:
408,288,94429,1,0,0:0:0:0:
320,168,94575,1,0,0:0:0:0:
248,64,94722,1,0,0:0:0:0:
208,184,94868,6,10,L|176:208,4,35
344,256,95307,1,0,0:0:0:0:
160,328,95453,1,8,0:0:0:0:
312,72,95600,1,0,0:0:0:0:
96,104,95746,1,0,0:0:0:0:
216,152,95892,5,0,0:0:0:0:
216,152,96039,2,8,B|224:240|224:224,1,70
400,296,96331,5,2,0:0:0:0:
344,96,96478,1,0,0:0:0:0:
448,120,96624,2,0,L|424:208,2,70
400,296,97063,2,0,L|456:296,4,35
368,56,97502,5,2,0:0:0:0:
264,152,97649,1,0,0:0:0:0:
176,256,97795,1,8,0:0:0:0:
320,328,97941,1,0,0:0:0:0:
264,152,98088,1,0,0:0:0:0:
408,152,98234,2,10,L|360:208,1,70
120,176,98673,6,2,P|112:112|144:96,1,105.000004005432
224,80,98966,1,8,0:0:0:0:
328,168,99112,1,0,0:0:0:0:
456,256,99258,1,0,0:0:0:0:
400,64,99405,2,0,L|432:80,4,35
264,128,99844,5,2,0:0:0:0:
168,200,99990,1,0,0:0:0:0:
336,240,100136,1,8,0:0:0:0:
360,48,100283,1,0,0:0:0:0:
160,32,100429,2,8,L|112:56,4,35
200,280,101014,5,2,0:0:0:0:
296,64,101161,1,0,0:0:0:0:
416,296,101307,1,8,0:0:0:0:
168,168,101453,1,0,0:0:0:0:
424,152,101600,1,0,0:0:0:0:
208,272,101892,1,0,0:0:0:0:
280,184,102185,5,2,0:0:0:0:
280,184,102331,1,0,0:0:0:0:
280,184,102478,1,8,0:0:0:0:
280,184,102624,1,0,0:0:0:0:
280,184,102771,1,0,0:0:0:0:
432,160,103063,5,8,0:0:0:0:
328,40,103210,1,0,0:0:0:0:
208,80,103356,2,2,L|144:120,1,70
128,208,103649,2,8,L|128:280,1,70
224,192,103941,2,0,L|224:272,1,70
312,176,104234,2,8,L|312:256,1,70
416,128,104527,2,2,L|416:200,1,70
448,296,104819,1,8,0:0:0:0:
328,360,104966,1,0,0:0:0:0:
168,320,105112,1,0,0:0:0:0:
96,176,105258,6,0,L|96:96,1,70
184,192,105551,2,2,L|184:96,1,70
272,208,105844,2,8,L|272:128,1,70
272,48,106136,1,0,0:0:0:0:
424,120,106283,5,0,0:0:0:0:
184,120,106429,2,0,B|136:176|144:176,1,70
384,296,106868,5,2,0:0:0:0:
272,264,107161,1,8,0:0:0:0:
416,168,107307,1,0,0:0:0:0:
304,144,107453,1,0,0:0:0:0:
112,176,108039,6,2,P|136:96|160:112,1,105.000004005432
192,184,108331,2,8,P|216:136|264:168,1,105.000004005432
200,272,108624,2,0,P|256:288|248:336,1,105.000004005432
104,256,108917,2,0,P|96:336|56:320,1,105.000004005432
48,192,109210,2,0,P|0:160|40:128,1,105.000004005432
200,88,109502,1,0,0:0:0:0:
400,104,109649,1,0,0:0:0:0:
272,200,109795,1,0,0:0:0:0:
112,136,109941,1,0,0:0:0:0:
312,48,110088,1,8,0:0:0:0:
360,136,110380,6,2,L|432:168,2,70
376,248,110966,2,8,L|296:184,2,70
240,216,111551,2,0,L|288:280,2,70
256,48,112136,5,0,0:0:0:0:
256,96,112283,1,0,0:0:0:0:
256,136,112429,1,0,0:0:0:0:
152,216,112722,5,2,0:0:0:0:
416,200,113015,1,8,0:0:0:0:
304,232,113161,1,0,0:0:0:0:
368,352,113308,1,0,0:0:0:0:
288,136,113600,2,0,L|216:176,1,70
226,169,113892,1,2,0:0:0:0:
226,169,113966,1,0,0:0:0:0:
226,169,114039,1,0,0:0:0:0:
96,80,114185,5,8,0:0:0:0:
32,224,114331,1,0,0:0:0:0:
96,80,114478,1,0,0:0:0:0:
440,248,114771,5,8,0:0:0:0:
392,72,114917,1,0,0:0:0:0:
440,248,115063,1,2,0:0:0:0:
296,160,115356,2,0,P|248:96|240:96,2,70
152,288,115941,5,8,0:0:0:0:
134,258,116014,1,0,0:0:0:0:
123,224,116087,1,0,0:0:0:0:
119,190,116160,1,0,0:0:0:0:
124,155,116233,1,2,0:0:0:0:
216,64,116527,1,8,0:0:0:0:
288,248,116819,2,0,L|368:208,2,70
136,96,117405,5,2,0:0:0:0:
344,88,117697,1,8,0:0:0:0:
344,88,117844,1,0,0:0:0:0:
168,256,117990,2,0,L|240:216,1,70
112,176,118283,2,8,L|216:120,1,105.000004005432
64,96,118575,2,2,L|184:32,1,105.000004005432
416,216,118868,1,0,0:0:0:0:
304,72,119161,2,0,P|176:72|240:216,1,315.000012016297
352,272,119746,5,2,0:0:0:0:
384,96,120039,1,8,0:0:0:0:
216,216,120185,1,0,0:0:0:0:
240,104,120331,1,0,0:0:0:0:
112,112,120624,1,8,0:0:0:0:
176,288,120771,1,0,0:0:0:0:
224,160,120917,1,2,0:0:0:0:
400,88,121210,5,0,0:0:0:0:
248,56,121356,1,0,0:0:0:0:
248,56,121502,2,0,B|136:152|264:224|512:376|328:32,1,490
256,192,123258,5,2,0:0:0:0:
256,192,123771,1,0,0:0:0:0:
256,192,123844,1,0,0:0:0:0:
256,192,123917,1,0,0:0:0:0:
360,200,124063,5,0,0:0:0:0:
360,200,124136,1,8,0:0:0:0:
360,200,124210,1,0,0:0:0:0:
360,200,124283,1,0,0:0:0:0:
360,200,124356,1,0,0:0:0:0:
256,80,124502,1,0,0:0:0:0:
136,88,124649,6,0,L|112:120,3,35
160,232,125014,1,0,0:0:0:0:
384,240,125161,1,0,0:0:0:0:
216,64,125307,1,0,0:0:0:0:
296,280,125453,1,0,0:0:0:0:
80,192,125600,1,2,0:0:0:0:
400,112,125746,1,0,0:0:0:0:
320,72,125892,2,8,L|248:112,1,70
216,296,126185,5,0,0:0:0:0:
152,112,126331,1,0,0:0:0:0:
344,208,126478,1,8,0:0:0:0:
288,48,126624,1,0,0:0:0:0:
432,112,126917,5,0,0:0:0:0:
432,112,126990,1,0,0:0:0:0:
432,112,127063,1,8,0:0:0:0:
224,88,127210,1,0,0:0:0:0:
392,256,127356,1,0,0:0:0:0:
176,288,127502,1,0,0:0:0:0:
152,120,127649,2,8,L|232:152,1,70
368,72,127941,5,2,0:0:0:0:
448,192,128088,1,0,0:0:0:0:
384,320,128234,1,8,0:0:0:0:
240,248,128380,1,0,0:0:0:0:
256,120,128527,1,0,0:0:0:0:
128,64,128673,2,0,L|64:128,1,70
78,113,128966,1,0,0:0:0:0:
152,240,129258,6,0,L|184:168,1,70
256,160,129551,2,0,L|288:248,1,70
368,216,129844,2,0,L|392:144,1,70
464,144,130136,2,2,L|504:224,1,70
408,64,130429,5,0,0:0:0:0:
208,264,130575,1,8,0:0:0:0:
208,96,130722,1,0,0:0:0:0:
424,232,130868,1,0,0:0:0:0:
288,176,131161,1,0,0:0:0:0:
256,88,131453,5,2,0:0:0:0:
208,224,131600,1,0,0:0:0:0:
344,144,131746,1,8,0:0:0:0:
176,144,131892,1,0,0:0:0:0:
304,224,132039,1,0,0:0:0:0:
256,88,132185,1,0,0:0:0:0:
112,56,132331,2,8,L|184:104,1,70
248,152,132624,5,2,0:0:0:0:
112,208,132771,1,0,0:0:0:0:
168,280,132917,1,8,0:0:0:0:
198,297,132990,1,0,0:0:0:0:
231,307,133063,1,0,0:0:0:0:
256,184,133210,1,0,0:0:0:0:
112,96,133795,5,2,0:0:0:0:
112,96,133868,1,0,0:0:0:0:
112,96,133941,2,0,B|88:200|96:168,1,70
224,48,134234,1,0,0:0:0:0:
360,64,134380,1,0,0:0:0:0:
448,160,134527,1,0,0:0:0:0:
192,216,134673,2,0,L|272:168,1,70
368,120,134966,2,2,L|416:96,2,35
384,280,135258,5,8,0:0:0:0:
256,120,135405,1,0,0:0:0:0:
112,128,135551,1,0,0:0:0:0:
168,256,135844,5,0,0:0:0:0:
344,96,135990,1,0,0:0:0:0:
432,200,136136,1,2,0:0:0:0:
272,240,136283,2,8,L|224:160,1,70
128,144,136575,2,0,L|200:96,1,70
272,56,136868,1,0,0:0:0:0:
272,56,137014,1,0,0:0:0:0:
456,240,137161,6,2,L|400:176,1,70
344,96,137453,1,0,0:0:0:0:
112,224,137600,1,8,0:0:0:0:
256,96,137746,1,0,0:0:0:0:
112,224,137892,1,0,0:0:0:0:
288,216,138039,2,0,L|240:288,2,70
352,80,138624,5,0,0:0:0:0:
376,184,138771,1,8,0:0:0:0:
408,312,138917,1,0,0:0:0:0:
280,272,139063,1,0,0:0:0:0:
376,184,139210,1,0,0:0:0:0:
240,128,139356,1,8,0:0:0:0:
344,56,139502,1,0,0:0:0:0:
184,200,139649,6,2,P|128:232|136:256,1,70
184,288,139941,1,8,0:0:0:0:
320,248,140088,1,0,0:0:0:0:
432,160,140234,1,0,0:0:0:0:
208,168,140527,5,8,0:0:0:0:
296,80,140673,1,0,0:0:0:0:
448,80,140819,1,2,0:0:0:0:
304,240,141112,1,0,0:0:0:0:
344,160,141258,1,0,0:0:0:0:
440,176,141405,1,0,0:0:0:0:
408,272,141698,5,0,0:0:0:0:
408,272,141844,1,0,0:0:0:0:
408,272,141991,1,2,0:0:0:0:
408,272,142136,1,0,0:0:0:0:
408,272,142283,1,8,0:0:0:0:
408,272,142429,1,0,0:0:0:0:
408,272,142575,1,0,0:0:0:0:
160,104,142868,5,8,0:0:0:0:
296,80,143161,1,2,0:0:0:0:
440,216,143600,1,0,0:0:0:0:
432,56,144039,1,8,0:0:0:0:
496,176,144332,1,2,0:0:0:0:
168,80,144771,1,0,0:0:0:0:
136,200,145210,1,8,0:0:0:0:
224,296,145503,1,2,0:0:0:0:
336,176,145942,1,0,0:0:0:0:
336,176,146381,5,8,0:0:0:0:
440,256,146527,1,0,0:0:0:0:
512,72,146673,2,2,L|400:128,1,105.000004005432
104,136,146966,1,8,0:0:0:0:
248,72,147112,1,0,0:0:0:0:
104,136,147259,1,0,0:0:0:0:
368,160,147405,1,0,0:0:0:0:
368,160,147551,1,8,0:0:0:0:
456,40,147844,5,2,0:0:0:0:
368,48,148283,1,0,0:0:0:0:
208,136,148722,1,0,0:0:0:0:
352,192,149088,1,0,0:0:0:0:
304,320,149527,1,0,0:0:0:0:
304,320,149966,1,0,0:0:0:0:
416,88,150259,1,0,0:0:0:0:
440,240,150698,1,0,0:0:0:0:
256,176,151064,1,8,0:0:0:0:
248,56,151210,5,0,0:0:0:0:
120,280,151356,1,2,0:0:0:0:
248,56,151503,1,0,0:0:0:0:
368,272,151649,1,0,0:0:0:0:
248,48,151795,1,0,0:0:0:0:
128,280,151942,1,0,0:0:0:0:
304,328,152088,1,0,0:0:0:0:
304,328,152234,2,8,L|192:392,1,105.000004005432
88,72,152527,5,2,0:0:0:0:
116,56,152600,1,0,0:0:0:0:
146,48,152673,1,0,0:0:0:0:
178,48,152746,1,0,0:0:0:0:
209,55,152819,1,8,0:0:0:0:
408,104,152966,1,0,0:0:0:0:
144,248,153112,1,0,0:0:0:0:
424,272,153258,1,0,0:0:0:0:
160,160,153405,2,8,L|272:120,1,105.000004005432
384,80,153697,5,2,0:0:0:0:
448,272,153844,1,0,0:0:0:0:
384,80,153990,1,8,0:0:0:0:
448,272,154136,1,0,0:0:0:0:
384,80,154283,1,0,0:0:0:0:
288,112,154429,1,0,0:0:0:0:
292,136,154502,1,0,0:0:0:0:
297,161,154575,1,8,0:0:0:0:
304,288,154722,1,0,0:0:0:0:
160,96,154868,1,2,0:0:0:0:
112,216,155015,5,0,0:0:0:0:
112,216,155088,1,0,0:0:0:0:
112,216,155161,2,8,P|160:280|176:264,1,105.000004005432
232,192,155453,2,0,L|312:120,1,105.000004005432
296,288,155746,1,8,0:0:0:0:
144,104,155892,1,0,0:0:0:0:
144,104,156039,2,2,L|224:72,1,70
392,200,156331,5,8,0:0:0:0:
176,280,156478,1,0,0:0:0:0:
360,336,156624,1,0,0:0:0:0:
448,88,156771,1,0,0:0:0:0:
176,168,156917,1,8,0:0:0:0:
288,200,157063,1,0,0:0:0:0:
448,216,157210,6,2,L|408:280,1,70
232,272,157502,1,8,0:0:0:0:
352,96,157649,1,0,0:0:0:0:
136,240,157795,1,0,0:0:0:0:
64,56,157941,1,0,0:0:0:0:
344,232,158088,1,8,0:0:0:0:
232,56,158234,1,0,0:0:0:0:
152,152,158380,2,2,L|240:144,1,70
336,128,158673,1,8,0:0:0:0:
168,280,158819,5,0,0:0:0:0:
448,248,158966,1,0,0:0:0:0:
232,160,159112,1,0,0:0:0:0:
360,88,159258,1,8,0:0:0:0:
320,192,159405,1,0,0:0:0:0:
319,195,159478,1,0,0:0:0:0:
318,198,159551,1,2,0:0:0:0:
317,202,159624,1,0,0:0:0:0:
316,205,159697,1,0,0:0:0:0:
315,208,159770,1,0,0:0:0:0:
314,212,159844,1,8,0:0:0:0:
313,215,159917,1,0,0:0:0:0:
312,219,159990,1,0,0:0:0:0:
311,222,160063,1,0,0:0:0:0:
310,225,160136,1,0,0:0:0:0:
309,229,160209,1,0,0:0:0:0:
308,232,160283,1,0,0:0:0:0:
308,235,160356,1,0,0:0:0:0:
307,239,160429,1,8,0:0:0:0:
306,242,160502,1,0,0:0:0:0:
305,246,160575,1,0,0:0:0:0:
184,176,160868,6,0,L|224:96,6,70
256,184,161892,5,2,0:0:0:0:
256,184,161966,1,0,0:0:0:0:
256,184,162039,1,0,0:0:0:0:
256,24,162185,5,8,0:0:0:0:
256,112,162478,1,0,0:0:0:0:
256,112,162624,1,0,0:0:0:0:
400,184,162917,1,0,0:0:0:0:
400,184,162990,1,0,0:0:0:0:
400,184,163063,2,2,L|352:264,1,70
128,128,163356,1,8,0:0:0:0:
232,288,163502,1,0,0:0:0:0:
288,80,163649,1,0,0:0:0:0:
328,272,163795,1,0,0:0:0:0:
416,96,163941,5,8,0:0:0:0:
152,136,164088,1,0,0:0:0:0:
416,232,164234,2,2,L|328:176,1,70
136,232,164527,1,0,0:0:0:0:
200,144,164673,1,0,0:0:0:0:
264,48,164819,2,0,L|336:80,1,70
400,120,165112,1,8,0:0:0:0:
419,149,165185,1,0,0:0:0:0:
431,181,165258,1,0,0:0:0:0:
436,216,165331,1,0,0:0:0:0:
432,251,165404,1,2,0:0:0:0:
168,64,165551,5,0,0:0:0:0:
336,216,165697,1,8,0:0:0:0:
176,248,165844,1,0,0:0:0:0:
288,112,165990,1,0,0:0:0:0:
400,72,166136,1,0,0:0:0:0:
400,72,166210,1,0,0:0:0:0:
400,72,166283,1,8,0:0:0:0:
440,192,166429,1,0,0:0:0:0:
328,216,166575,6,2,L|256:160,1,70
256,296,166868,2,8,L|200:224,1,70
440,104,167161,5,0,0:0:0:0:
280,40,167307,1,0,0:0:0:0:
408,208,167453,5,8,0:0:0:0:
232,136,167600,1,0,0:0:0:0:
328,320,167746,5,2,0:0:0:0:
176,224,167892,1,0,0:0:0:0:
152,56,168039,2,8,L|88:104,1,70
304,80,168331,1,0,0:0:0:0:
408,152,168478,1,0,0:0:0:0:
427,181,168551,1,0,0:0:0:0:
432,215,168624,1,8,0:0:0:0:
240,192,168771,2,0,L|320:264,1,105.000004005432
384,328,169063,1,0,0:0:0:0:
224,320,169210,1,0,0:0:0:0:
112,256,169356,1,0,0:0:0:0:
72,144,169502,1,0,0:0:0:0:
128,40,169649,1,0,0:0:0:0:
240,80,169795,5,0,0:0:0:0:
241,85,169868,1,0,0:0:0:0:
243,90,169941,1,0,0:0:0:0:
245,95,170014,1,0,0:0:0:0:
247,101,170087,1,0,0:0:0:0:
248,106,170160,1,0,0:0:0:0:
250,111,170234,1,0,0:0:0:0:
252,117,170307,1,0,0:0:0:0:
254,122,170380,1,0,0:0:0:0:
256,192,170527,12,0,171624,0:0:0:0:
208,64,171844,5,0,0:0:0:0:
112,224,171990,1,0,0:0:0:0:
352,120,172136,2,8,L|312:192,1,70
264,288,172429,1,2,0:0:0:0:
424,272,172575,1,0,0:0:0:0:
232,168,172722,1,8,0:0:0:0:
464,184,172868,5,0,0:0:0:0:
288,64,173014,1,0,0:0:0:0:
424,48,173161,1,0,0:0:0:0:
336,176,173307,1,8,0:0:0:0:
336,176,173380,1,0,0:0:0:0:
336,176,173453,1,0,0:0:0:0:
208,272,173600,1,2,0:0:0:0:
112,152,173746,1,0,0:0:0:0:
64,24,173892,1,8,0:0:0:0:
208,64,174039,2,0,L|288:144,1,105.000004005432
328,168,174331,1,0,0:0:0:0:
208,240,174478,5,0,0:0:0:0:
230,266,174551,1,0,0:0:0:0:
261,283,174624,1,0,0:0:0:0:
295,287,174697,1,0,0:0:0:0:
329,280,174770,1,2,0:0:0:0:
424,208,174917,1,0,0:0:0:0:
256,48,175063,2,8,L|360:72,2,105.000004005432
152,16,175502,1,0,0:0:0:0:
88,192,175649,5,8,0:0:0:0:
192,120,175795,1,0,0:0:0:0:
128,288,175941,5,2,0:0:0:0:
240,208,176088,1,0,0:0:0:0:
216,368,176234,5,8,0:0:0:0:
320,304,176380,1,0,0:0:0:0:
408,384,176527,5,0,0:0:0:0:
488,312,176673,1,0,0:0:0:0:
424,64,176819,2,8,L|368:160,2,105.000004005432
224,56,177258,1,0,0:0:0:0:
296,232,177405,1,0,0:0:0:0:
136,152,177551,1,0,0:0:0:0:
336,88,177697,2,0,L|384:160,1,70
416,256,177990,1,4,0:0:0:0:
192,216,178136,1,0,0:0:0:0:
416,256,178283,1,2,0:0:0:0:
184,72,178429,5,0,0:0:0:0:
360,56,178575,1,8,0:0:0:0:
360,56,178649,1,0,0:0:0:0:
360,56,178722,1,0,0:0:0:0:
128,160,178868,2,0,L|152:256,1,70
256,136,179161,2,8,L|256:224,1,70
384,144,179453,2,2,L|376:232,1,70
176,296,179746,5,8,0:0:0:0:
120,104,179892,1,0,0:0:0:0:
312,160,180039,1,0,0:0:0:0:
264,40,180185,1,0,0:0:0:0:
416,120,180331,2,10,L|392:200,2,70
448,32,180771,1,0,0:0:0:0:
128,208,180917,5,8,0:0:0:0:
240,72,181063,1,0,0:0:0:0:
344,208,181210,2,8,L|296:256,2,35
96,80,181502,5,0,0:0:0:0:
416,72,181649,1,0,0:0:0:0:
352,296,181795,2,2,B|240:208|336:144|224:120|160:288|344:72|128:240|80:184|288:40,1,420.000016021729
344,232,182527,1,0,0:0:0:0:
344,232,182673,1,0,0:0:0:0:
344,232,182819,1,0,0:0:0:0:
344,232,182966,1,2,0:0:0:0:
344,232,183112,1,0,0:0:0:0:
344,232,183258,1,8,0:0:0:0:
160,112,183405,5,0,0:0:0:0:
96,240,183551,1,0,0:0:0:0:
160,112,183697,1,0,0:0:0:0:
264,80,183844,2,8,L|368:56,1,105.000004005432
272,160,184136,2,2,L|384:128,1,105.000004005432
104,144,184429,1,8,0:0:0:0:
104,144,184575,2,0,B|96:224|152:200|152:200|160:240|120:256|112:288|200:280,1,210
280,288,185014,1,0,0:0:0:0:
352,64,185161,2,0,B|208:168|424:80|376:160|384:184|392:208,1,210
120,192,185746,2,0,P|128:112|304:176,1,315.000012016297
320,112,186478,5,2,0:0:0:0:
208,184,186771,1,8,0:0:0:0:
208,184,186917,2,0,B|192:256|336:256|376:208|104:312|96:304,1,280
128,136,187502,5,0,0:0:0:0:
164,113,187575,1,0,0:0:0:0:
204,99,187648,1,0,0:0:0:0:
246,96,187721,1,0,0:0:0:0:
289,102,187794,1,0,0:0:0:0:
328,118,187867,1,0,0:0:0:0:
363,142,187941,1,0,0:0:0:0:
320,208,188088,2,0,B|216:224|224:296|176:288,3,140
104,192,188819,2,0,L|232:176,5,105.000004005432
432,168,190575,5,0,0:0:0:0:
56,224,190722,1,0,0:0:0:0:
56,80,191014,5,0,0:0:0:0:
56,80,191087,1,0,0:0:0:0:
56,80,191160,2,2,L|128:112,1,52.5000020027161
320,80,191453,1,8,0:0:0:0:
224,56,191599,2,0,L|128:0,1,105.000004005432
272,328,191892,1,0,0:0:0:0:
88,264,192038,1,0,0:0:0:0:
88,272,192184,2,2,P|160:240|184:200,1,105.000004005432
336,120,192477,5,0,0:0:0:0:
240,48,192623,1,8,0:0:0:0:
336,336,192770,1,0,0:0:0:0:
224,176,192916,1,0,0:0:0:0:
344,232,193062,1,0,0:0:0:0:
344,232,193135,1,0,0:0:0:0:
344,232,193208,1,8,0:0:0:0:
416,48,193355,5,0,0:0:0:0:
312,96,193502,2,0,L|400:176,1,105.000004005432
352,224,193794,1,0,0:0:0:0:
176,216,193940,1,0,0:0:0:0:
176,216,194087,2,0,L|224:320,1,105.000004005432
220,311,194379,1,8,0:0:0:0:
220,311,194453,1,0,0:0:0:0:
220,311,194526,1,0,0:0:0:0:
104,64,194672,5,2,0:0:0:0:
168,160,194819,2,8,L|80:240,1,105.000004005432
272,72,195111,1,0,0:0:0:0:
232,200,195257,1,0,0:0:0:0:
232,200,195331,1,0,0:0:0:0:
232,200,195404,1,0,0:0:0:0:
288,296,195551,1,8,0:0:0:0:
432,336,195697,1,0,0:0:0:0:
432,208,195843,5,2,0:0:0:0:
232,72,195989,1,0,0:0:0:0:
128,144,196136,1,8,0:0:0:0:
288,296,196282,5,0,0:0:0:0:
192,208,196428,1,0,0:0:0:0:
272,64,196575,1,0,0:0:0:0:
104,216,196722,1,8,0:0:0:0:
360,120,196867,2,2,P|432:192|472:184,1,105.000004005432
512,208,197160,1,0,0:0:0:0:
328,304,197306,1,8,0:0:0:0:
328,304,197379,1,0,0:0:0:0:
328,304,197453,1,0,0:0:0:0:
192,256,197599,2,0,P|136:328|136:344,2,105.000004005432
256,104,198038,1,0,0:0:0:0:
120,80,198184,6,2,L|160:96,12,35
240,312,198916,5,0,0:0:0:0:
488,264,199062,1,0,0:0:0:0:
280,144,199136,1,0,0:0:0:0:
247,130,199209,1,0,0:0:0:0:
213,127,199282,1,0,0:0:0:0:
179,135,199355,1,2,0:0:0:0:
149,154,199428,1,0,0:0:0:0:
127,181,199501,1,0,0:0:0:0:
115,213,199575,1,0,0:0:0:0:
113,248,199648,1,8,0:0:0:0:
123,282,199721,1,0,0:0:0:0:
142,311,199794,1,0,0:0:0:0:
240,40,199940,5,0,0:0:0:0:
96,80,200087,1,0,0:0:0:0:
384,200,200233,1,8,0:0:0:0:
384,200,200306,1,0,0:0:0:0:
384,200,200379,1,0,0:0:0:0:
400,72,200526,1,2,0:0:0:0:
144,240,200672,1,0,0:0:0:0:
240,328,200818,1,0,0:0:0:0:
272,208,200965,1,0,0:0:0:0:
240,64,201112,6,0,L|160:128,1,70
432,152,201404,2,8,P|368:176|360:192,1,70
280,272,201697,1,2,0:0:0:0:
288,152,201843,2,0,P|232:184|224:192,2,70
392,128,202282,1,0,0:0:0:0:
184,48,202428,1,0,0:0:0:0:
192,56,202501,1,0,0:0:0:0:
192,56,202574,1,8,0:0:0:0:
376,40,202721,1,0,0:0:0:0:
144,240,202867,5,2,0:0:0:0:
144,240,203014,1,0,0:0:0:0:
144,240,203160,1,8,0:0:0:0:
144,240,203306,1,0,0:0:0:0:
144,240,203453,1,0,0:0:0:0:
216,288,203600,2,8,B|256:288|296:232|240:184|320:224,1,140
360,72,204038,5,2,0:0:0:0:
208,32,204184,1,0,0:0:0:0:
88,96,204331,1,8,0:0:0:0:
64,232,204477,1,0,0:0:0:0:
288,256,204623,1,0,0:0:0:0:
288,256,204770,1,0,0:0:0:0:
320,64,204916,6,8,B|408:104|392:96,1,70
320,64,205209,1,2,0:0:0:0:
152,88,205501,5,8,0:0:0:0:
152,88,205648,1,0,0:0:0:0:
200,280,205794,1,0,0:0:0:0:
272,96,205940,2,8,L|328:168,1,70
328,272,206233,5,0,0:0:0:0:
296,296,206306,1,0,0:0:0:0:
264,304,206379,1,2,0:0:0:0:
184,136,206526,2,0,L|248:208,1,70
56,160,206818,5,0,0:0:0:0:
136,296,206965,1,8,0:0:0:0:
344,200,207111,1,0,0:0:0:0:
272,320,207257,1,8,0:0:0:0:
256,152,207404,5,0,0:0:0:0:
256,152,207477,1,0,0:0:0:0:
256,152,207550,1,2,0:0:0:0:
72,192,207697,1,0,0:0:0:0:
72,192,207843,2,2,P|32:232|16:272,1,70
376,216,208136,5,8,0:0:0:0:
264,64,208282,1,0,0:0:0:0:
296,264,208428,5,0,0:0:0:0:
152,128,208575,1,0,0:0:0:0:
352,160,208721,5,2,0:0:0:0:
464,160,208867,2,0,L|440:80,1,70
224,264,209160,5,0,0:0:0:0:
376,216,209306,1,0,0:0:0:0:
344,104,209892,5,2,0:0:0:0:
232,112,210185,1,8,0:0:0:0:
296,192,210331,1,0,0:0:0:0:
112,112,210478,1,0,0:0:0:0:
280,280,210624,1,0,0:0:0:0:
160,176,210771,2,10,L|208:248,2,70
344,80,211356,6,0,L|392:168,6,70
96,192,212527,5,8,0:0:0:0:
144,32,212673,1,0,0:0:0:0:
304,136,212819,1,0,0:0:0:0:
16,104,212966,1,0,0:0:0:0:
304,40,213112,1,8,0:0:0:0:
208,208,213258,1,0,0:0:0:0:
64,296,213405,6,2,P|120:320|152:320,1,70
232,328,213697,2,0,P|304:304|320:288,1,70
384,248,213990,2,0,P|424:192|424:168,1,70
360,40,214283,2,0,L|424:88,2,70
176,136,214868,5,0,0:0:0:0:
224,232,215014,1,0,0:0:0:0:
280,104,215307,5,0,0:0:0:0:
328,192,215453,1,0,0:0:0:0:
248,24,215746,5,0,0:0:0:0:
120,312,216039,1,0,0:0:0:0:
456,216,216331,1,0,0:0:0:0:
240,120,216624,6,0,L|216:152,6,35
384,128,217210,1,0,0:0:0:0:
376,288,217356,1,0,0:0:0:0:
176,296,217502,1,0,0:0:0:0:
104,152,217649,2,0,L|80:104,4,35
200,64,218088,5,2,0:0:0:0:
240,152,218234,1,0,0:0:0:0:
280,240,218380,1,8,0:0:0:0:
320,328,218527,1,0,0:0:0:0:
416,184,218673,2,8,L|400:224,4,35
192,64,219258,5,2,0:0:0:0:
312,112,219405,1,0,0:0:0:0:
208,184,219551,1,8,0:0:0:0:
328,240,219697,1,0,0:0:0:0:
208,296,219844,2,0,L|160:320,4,35
296,56,220429,6,2,L|360:104,1,70
336,264,220722,2,8,L|272:200,1,70
208,128,221014,1,0,0:0:0:0:
208,128,221088,1,0,0:0:0:0:
208,128,221161,1,0,0:0:0:0:
208,128,221234,1,0,0:0:0:0:
208,128,221307,1,8,0:0:0:0:
424,136,221600,6,2,L|384:208,4,70
328,88,222478,1,0,0:0:0:0:
294,79,222551,1,0,0:0:0:0:
259,79,222624,1,0,0:0:0:0:
225,89,222697,1,0,0:0:0:0:
196,108,222770,1,2,0:0:0:0:
112,176,222917,5,0,0:0:0:0:
136,304,223063,1,8,0:0:0:0:
216,160,223210,1,0,0:0:0:0:
256,288,223356,1,0,0:0:0:0:
352,168,223502,2,8,L|392:160,4,35
136,104,223941,5,8,0:0:0:0:
136,104,224088,1,0,0:0:0:0:
112,256,224234,1,0,0:0:0:0:
296,328,224380,1,0,0:0:0:0:
272,80,224527,1,0,0:0:0:0:
216,240,224819,1,8,0:0:0:0:
384,232,225112,5,2,0:0:0:0:
216,128,225258,1,0,0:0:0:0:
384,232,225405,1,8,0:0:0:0:
216,128,225551,1,0,0:0:0:0:
376,112,225697,1,0,0:0:0:0:
372,121,225770,1,0,0:0:0:0:
368,130,225843,1,0,0:0:0:0:
364,140,225916,1,0,0:0:0:0:
360,149,225989,1,8,0:0:0:0:
357,159,226062,1,0,0:0:0:0:
353,168,226136,1,0,0:0:0:0:
192,256,226283,5,2,0:0:0:0:
104,80,226429,1,0,0:0:0:0:
352,272,226575,1,8,0:0:0:0:
264,112,226722,1,0,0:0:0:0:
80,216,226868,1,0,0:0:0:0:
248,240,227014,2,8,L|216:264,4,35
368,40,227453,5,2,0:0:0:0:
432,192,227600,1,0,0:0:0:0:
368,336,227746,1,8,0:0:0:0:
320,120,227892,1,0,0:0:0:0:
216,224,228039,2,0,L|256:248,4,35
80,128,228624,5,2,0:0:0:0:
192,80,228771,1,0,0:0:0:0:
312,80,228917,1,8,0:0:0:0:
448,112,229063,1,0,0:0:0:0:
360,216,229210,1,0,0:0:0:0:
350,220,229283,1,0,0:0:0:0:
341,225,229356,1,0,0:0:0:0:
332,229,229429,1,0,0:0:0:0:
323,234,229502,1,8,0:0:0:0:
314,238,229575,1,0,0:0:0:0:
305,243,229649,1,0,0:0:0:0:
248,112,229795,6,2,L|176:176,4,70
104,208,230527,2,0,L|144:248,4,35
352,96,230966,5,2,0:0:0:0:
432,224,231112,1,0,0:0:0:0:
208,248,231258,1,8,0:0:0:0:
240,80,231405,1,0,0:0:0:0:
432,152,231551,1,0,0:0:0:0:
336,256,231844,2,10,L|352:304,4,35
272,64,232283,5,0,0:0:0:0:
237,65,232356,1,0,0:0:0:0:
206,81,232429,1,0,0:0:0:0:
184,108,232502,1,0,0:0:0:0:
175,141,232575,1,0,0:0:0:0:
176,264,232722,1,0,0:0:0:0:
352,152,232868,2,8,L|328:192,4,35
144,56,233307,5,2,0:0:0:0:
136,200,233453,1,0,0:0:0:0:
200,352,233600,1,8,0:0:0:0:
136,200,233746,1,0,0:0:0:0:
264,168,233892,1,0,0:0:0:0:
408,184,234185,1,8,0:0:0:0:
368,40,234478,5,2,0:0:0:0:
408,184,234624,1,0,0:0:0:0:
360,336,234771,1,8,0:0:0:0:
240,176,234917,1,0,0:0:0:0:
296,40,235063,1,0,0:0:0:0:
136,88,235356,6,0,B|96:128|176:128|80:152|248:144|144:152|144:160|144:216,1,140
216,296,235795,1,0,0:0:0:0:
320,80,235941,1,0,0:0:0:0:
480,192,236088,1,0,0:0:0:0:
192,176,236234,1,0,0:0:0:0:
424,280,236527,1,0,0:0:0:0:
312,168,236819,2,0,L|288:208,4,35
56,192,237405,5,4,0:0:0:0:
368,56,237551,1,0,0:0:0:0:
56,192,237697,1,0,0:0:0:0:
384,288,237844,1,0,0:0:0:0:
56,192,237990,1,4,0:0:0:0:
