osu file format v14

[General]
AudioFilename: audio.mp3
AudioLeadIn: 0
PreviewTime: -1
Countdown: 1
SampleSet: None
StackLeniency: 0.7
Mode: 0
LetterboxInBreaks: 0
WidescreenStoryboard: 1

[Editor]
Bookmarks: 145481
DistanceSpacing: 1.2
BeatDivisor: 4
GridSize: 4
TimelineZoom: 3.599999

[Metadata]
Title:Taiyou Ga Hoshiidake
TitleUnicode:Taiyou Ga Hoshiidake
Artist:9mm Parabellum Bullet
ArtistUnicode:9mm Parabellum Bullet
Creator:-Levi-
Version:kek strum
Source:
Tags:Metal
BeatmapID:1830913
BeatmapSetID:538802

[Difficulty]
HPDrainRate:5
CircleSize:4
OverallDifficulty:9
ApproachRate:9.6
SliderMultiplier:1.4
SliderTickRate:1

[Events]
//Background and Video events
0,0,"Berserk-Wallpaper-by-Yoroiookami.png",0,0
//Break Periods
//Storyboard Layer 0 (Background)
//Storyboard Layer 1 (Fail)
//Storyboard Layer 2 (Pass)
//Storyboard Layer 3 (Foreground)
//Storyboard Sound Samples

[TimingPoints]
-42,307.660752743308,4,1,0,100,1,0
573,-100,4,2,0,75,0,0
1803,-100,4,3,0,70,0,0
2111,-100,4,3,0,60,0,0
2419,-100,4,3,0,50,0,0
2726,-100,4,3,0,50,0,0
3034,-100,4,3,0,60,0,0
3342,-100,4,3,0,65,0,0
3649,-100,4,3,0,70,0,0
3957,-100,4,3,0,75,0,0
4880,-100,4,3,0,70,0,0
5188,-100,4,3,0,60,0,0
5495,-100,4,3,0,50,0,0
5803,-100,4,3,0,60,0,0
6111,-100,4,3,0,65,0,0
6418,-100,4,3,0,75,0,0
6726,-66.6666666666667,4,1,0,80,0,0
6880,-66.6666666666667,4,3,0,80,0,0
7034,-66.6666666666667,4,1,0,80,0,0
7188,-66.6666666666667,4,3,0,80,0,0
7341,-66.6666666666667,4,1,0,80,0,0
7495,-66.6666666666667,4,3,0,80,0,0
7649,-66.6666666666667,4,1,0,80,0,0
7803,-66.6666666666667,4,3,0,80,0,0
9187,-66.6666666666667,4,1,0,80,0,0
10418,-57.1428571428571,4,1,0,80,0,0
11033,-200,4,1,0,80,0,0
11341,-66.6666666666667,4,1,0,80,0,1
19032,-66.6666666666667,4,1,0,80,0,0
21494,-133.333333333333,4,2,0,80,0,0
30108,-100,4,1,0,80,0,0
31647,-100,4,2,0,80,0,0
40569,-83.3333333333333,4,1,0,80,0,0
48568,-66.6666666666667,4,1,0,80,0,1
50414,-66.6666666666667,4,1,0,30,0,1
50722,-66.6666666666667,4,1,0,75,0,1
51029,-55.5555555555556,4,1,0,80,0,0
60567,-55.5555555555556,4,1,0,80,0,1
62720,-55.5555555555556,4,1,0,80,0,0
70719,-133.333333333333,4,1,0,80,0,0
74411,-133.333333333333,4,1,0,80,0,0
75642,-133.333333333333,4,2,0,80,0,0
85487,-100,4,3,0,100,0,1
85718,-100,4,1,0,5,0,1
85795,-100,4,3,0,100,0,1
86026,-100,4,1,0,5,0,1
86103,-100,4,3,0,100,0,1
86333,-100,4,1,0,5,0,1
86410,-100,4,3,0,100,0,1
86641,-100,4,1,0,5,0,1
86718,-100,4,3,0,100,0,1
86949,-100,4,1,0,5,0,1
87025,-100,4,3,0,100,0,1
87256,-100,4,1,0,5,0,1
87333,-100,4,3,0,100,0,1
87564,-100,4,1,0,5,0,1
87641,-100,4,3,0,100,0,1
87872,-100,4,1,0,5,0,1
87948,-111.111111111111,4,2,0,100,0,0
90410,-100,4,3,0,100,0,1
92333,-100,4,1,0,5,0,1
92410,-100,4,1,0,80,0,1
92871,-111.111111111111,4,2,0,80,0,0
95332,-90.9090909090909,4,1,0,80,0,0
102716,-66.6666666666667,4,1,0,80,0,1
105177,-125,4,1,0,80,0,0
110098,-100,4,1,0,80,0,0
113177,-66.6666666666667,4,1,0,80,0,0
115023,-83.3333333333333,4,1,0,75,0,0
115330,-83.3333333333333,4,1,0,70,0,0
115638,-83.3333333333333,4,1,0,60,0,0
115946,-83.3333333333333,4,1,0,50,0,0
116253,-83.3333333333333,4,1,0,50,0,0
116561,-83.3333333333333,4,1,0,60,0,0
116869,-83.3333333333333,4,1,0,65,0,0
117176,-83.3333333333333,4,1,0,70,0,0
119945,-71.4285714285714,4,1,0,80,0,0
123791,-71.4285714285714,4,1,0,70,0,0
124406,-71.4285714285714,4,1,0,55,0,0
125022,-71.4285714285714,4,1,0,80,0,0
127329,-55.5555555555556,4,1,0,80,0,0
133482,-100,4,1,0,80,0,0
134713,-71.4285714285714,4,1,0,80,0,0
135328,-62.5,4,1,0,80,0,0
140251,-58.8235294117647,4,1,0,80,0,0
147946,-55.5555555555556,4,1,0,80,0,1
151942,-50,4,1,0,80,0,0
153173,-52.6315789473684,4,1,0,80,0,1
157787,-55.5555555555556,4,1,0,80,0,0
163018,-55.5555555555556,4,1,0,80,0,1
165479,-55.5555555555556,4,1,0,80,0,0
167633,-200,4,1,0,80,0,0

[HitObjects]
320,132,145789,6,2,B|380:144|380:144|408:180|444:192|444:192|460:228|456:264|456:264|440:312,1,238.00000453949
192,132,146404,2,2,B|132:144|132:144|104:180|68:192|68:192|52:228|56:264|56:264|72:312,1,238.00000453949
256,268,147019,5,8,0:0:0:0:
256,220,147096,1,0,0:0:0:0:
256,172,147173,1,8,0:0:0:0:
304,140,147250,5,0,0:0:0:0:
304,76,147327,1,0,0:0:0:0:
304,12,147404,1,0,0:0:0:0:
256,56,147481,5,0,0:0:0:0:
208,112,147558,1,0,0:0:0:0:
156,164,147635,2,0,L|88:228,1,59.5000011348725
292,320,147942,5,8,0:0:0:0:
320,308,148019,5,8,0:0:0:0:
368,268,148096,5,8,0:0:0:0:
408,184,148173,5,8,0:0:0:0:
364,68,148250,6,4,L|308:12,1,62.9999980773926
192,36,148404,5,8,0:0:0:0:
140,68,148481,1,0,0:0:0:0:
104,120,148558,1,8,0:0:0:0:
108,184,148635,1,0,0:0:0:0:
165,193,148711,5,8,0:0:0:0:
217,233,148788,1,2,0:0:0:0:
269,269,148865,2,4,L|337:321,1,62.9999980773926
464,104,149019,5,0,0:0:0:0:
428,52,149096,1,0,0:0:0:0:
372,24,149173,1,0,0:0:0:0:
308,24,149250,1,0,0:0:0:0:
268,76,149327,5,0,0:0:0:0:
216,112,149404,1,0,0:0:0:0:
164,148,149481,2,0,L|96:192,1,62.9999980773926
340,328,149634,5,8,0:0:0:0:
405,319,149711,1,0,0:0:0:0:
458,282,149788,1,8,0:0:0:0:
478,223,149865,1,0,0:0:0:0:
424,180,149942,5,0,0:0:0:0:
364,200,150019,1,0,0:0:0:0:
304,224,150096,2,0,L|220:252,1,62.9999980773926
164,180,150250,5,8,0:0:0:0:
99,171,150327,1,0,0:0:0:0:
46,134,150404,1,8,0:0:0:0:
26,75,150481,1,0,0:0:0:0:
80,32,150558,5,0,0:0:0:0:
140,52,150635,1,0,0:0:0:0:
200,76,150712,2,0,L|284:104,1,62.9999980773926
376,216,150865,5,8,0:0:0:0:
436,200,150942,1,0,0:0:0:0:
464,144,151019,1,8,0:0:0:0:
432,88,151096,1,0,0:0:0:0:
384,128,151173,5,0,0:0:0:0:
336,172,151250,1,0,0:0:0:0:
288,212,151327,2,0,L|224:268,1,62.9999980773926
264,348,151480,5,8,0:0:0:0:
328,336,151557,1,0,0:0:0:0:
384,308,151634,1,0,0:0:0:0:
424,260,151711,1,0,0:0:0:0:
456,208,151788,2,2,P|476:164|472:132,1,62.9999980773926
196,28,151942,5,0,0:0:0:0:
140,68,152019,1,0,0:0:0:0:
112,132,152096,1,0,0:0:0:0:
124,200,152173,1,0,0:0:0:0:
204,220,152250,5,0,0:0:0:0:
284,200,152326,1,0,0:0:0:0:
364,176,152403,1,0,0:0:0:0:
444,152,152480,1,0,0:0:0:0:
464,56,152557,5,0,0:0:0:0:
368,44,152634,1,0,0:0:0:0:
288,100,152711,1,0,0:0:0:0:
284,200,152788,1,0,0:0:0:0:
276,312,152865,5,0,0:0:0:0:
172,356,152942,1,0,0:0:0:0:
72,300,153019,1,0,0:0:0:0:
72,188,153096,1,0,0:0:0:0:
132,92,153173,2,0,L|188:44,1,66.4999982242585
436,48,153326,5,0,0:0:0:0:
356,92,153403,1,0,0:0:0:0:
272,132,153480,2,0,L|208:168,1,66.4999982242585
72,168,153634,5,0,0:0:0:0:
140,208,153711,1,0,0:0:0:0:
212,244,153788,2,0,L|276:280,1,66.4999982242585
408,144,153942,5,0,0:0:0:0:
376,84,154019,1,0,0:0:0:0:
320,48,154096,2,0,L|248:28,1,66.4999982242585
104,240,154249,5,0,0:0:0:0:
136,300,154326,1,0,0:0:0:0:
192,336,154403,2,0,L|256:353,1,66.4999982242585
468,172,154557,5,0,0:0:0:0:
428,120,154634,1,0,0:0:0:0:
368,92,154711,1,0,0:0:0:0:
300,92,154788,1,0,0:0:0:0:
272,152,154865,5,0,0:0:0:0:
204,148,154942,1,0,0:0:0:0:
136,144,155019,2,0,L|60:136,1,66.4999982242585
256,240,155172,5,8,0:0:0:0:
304,276,155249,1,0,0:0:0:0:
356,308,155326,2,4,L|424:352,1,66.4999982242585
252,136,155480,5,8,0:0:0:0:
204,100,155557,1,0,0:0:0:0:
152,68,155634,2,4,L|76:20,1,66.4999982242585
320,264,155788,5,8,0:0:0:0:
379,271,155865,1,0,0:0:0:0:
440,272,155942,2,4,L|529:275,1,66.4999982242585
188,152,156095,5,8,0:0:0:0:
128,144,156172,1,0,0:0:0:0:
67,143,156249,2,4,L|-22:139,1,66.4999982242585
256,328,156403,5,0,0:0:0:0:
320,308,156480,1,8,0:0:0:0:
372,264,156557,1,0,0:0:0:0:
408,208,156634,1,8,0:0:0:0:
428,144,156711,2,0,L|444:72,1,66.4999982242585
136,60,156864,5,2,0:0:0:0:
148,112,156941,1,2,0:0:0:0:
168,160,157018,1,2,0:0:0:0:
204,192,157095,1,2,0:0:0:0:
232,240,157172,5,2,0:0:0:0:
224,292,157249,1,2,0:0:0:0:
176,320,157326,1,2,0:0:0:0:
132,300,157403,1,2,0:0:0:0:
112,252,157480,5,2,0:0:0:0:
128,200,157557,1,2,0:0:0:0:
168,164,157634,1,2,0:0:0:0:
220,160,157711,1,2,0:0:0:0:
284,156,157787,6,4,P|348:144|400:88,1,125.999996154785
404,256,158095,5,8,0:0:0:0:
404,256,158172,1,0,0:0:0:0:
404,256,158249,1,8,0:0:0:0:
404,256,158326,1,0,0:0:0:0:
404,256,158403,1,8,0:0:0:0:
260,200,158557,5,8,0:0:0:0:
260,200,158634,1,8,0:0:0:0:
260,200,158710,1,4,0:0:0:0:
188,332,158864,1,2,0:0:0:0:
352,112,159018,1,8,0:0:0:0:
352,112,159095,1,8,0:0:0:0:
352,112,159172,1,4,0:0:0:0:
104,156,159326,5,8,0:0:0:0:
104,156,159403,1,0,0:0:0:0:
104,156,159480,1,8,0:0:0:0:
104,156,159557,1,0,0:0:0:0:
104,156,159633,1,8,0:0:0:0:
256,36,159787,5,2,0:0:0:0:
256,36,159864,1,8,0:0:0:0:
256,36,159941,1,8,0:0:0:0:
256,196,160095,1,4,0:0:0:0:
264,368,160249,1,2,0:0:0:0:
264,368,160326,1,2,0:0:0:0:
264,368,160403,1,0,0:0:0:0:
408,88,160556,5,8,0:0:0:0:
408,88,160633,1,8,0:0:0:0:
408,88,160710,1,4,0:0:0:0:
408,88,160787,1,0,0:0:0:0:
408,88,160864,1,2,0:0:0:0:
152,92,161018,5,8,0:0:0:0:
152,92,161095,1,0,0:0:0:0:
152,92,161172,1,8,0:0:0:0:
256,240,161326,1,8,0:0:0:0:
32,204,161479,1,2,0:0:0:0:
32,204,161556,1,0,0:0:0:0:
32,204,161633,1,2,0:0:0:0:
176,268,161787,5,8,0:0:0:0:
224,260,161864,1,0,0:0:0:0:
272,252,161941,1,8,0:0:0:0:
320,244,162018,1,0,0:0:0:0:
368,236,162095,1,8,0:0:0:0:
328,148,162249,5,8,0:0:0:0:
376,132,162325,1,8,0:0:0:0:
424,116,162402,1,4,0:0:0:0:
256,32,162556,1,2,0:0:0:0:
184,148,162710,1,8,0:0:0:0:
136,132,162786,1,8,0:0:0:0:
88,116,162863,1,4,0:0:0:0:
104,296,163018,5,8,0:0:0:0:
152,312,163095,1,0,0:0:0:0:
204,312,163172,1,8,0:0:0:0:
252,296,163248,1,0,0:0:0:0:
296,276,163325,2,4,L|392:236,1,62.9999980773926
424,196,163479,5,8,0:0:0:0:
384,164,163556,1,0,0:0:0:0:
376,116,163633,1,0,0:0:0:0:
396,72,163710,1,0,0:0:0:0:
336,56,163787,5,8,0:0:0:0:
280,84,163864,1,0,0:0:0:0:
224,112,163941,1,8,0:0:0:0:
168,140,164018,1,0,0:0:0:0:
148,200,164095,5,8,0:0:0:0:
112,232,164171,1,0,0:0:0:0:
72,264,164248,2,4,L|0:312,1,62.9999980773926
256,320,164402,5,8,0:0:0:0:
304,328,164479,1,0,0:0:0:0:
352,336,164556,2,4,L|444:348,1,62.9999980773926
256,176,164710,5,8,0:0:0:0:
208,188,164787,1,0,0:0:0:0:
160,200,164864,2,4,L|84:216,1,62.9999980773926
312,56,165017,1,8,0:0:0:0:
360,72,165094,1,0,0:0:0:0:
408,88,165171,2,0,L|484:112,1,62.9999980773926
196,286,165325,2,0,L|136:268,1,62.9999980773926
408,88,165479,6,0,L|408:25,1,62.9999980773926
160,200,165633,2,0,L|160:137,1,62.9999980773926
352,336,165787,2,0,L|352:273,1,62.9999980773926
168,84,166094,5,0,0:0:0:0:
168,148,166171,1,0,0:0:0:0:
168,212,166248,1,0,0:0:0:0:
168,276,166325,1,0,0:0:0:0:
168,340,166402,1,0,0:0:0:0:
364,36,166709,5,0,0:0:0:0:
364,100,166786,1,0,0:0:0:0:
364,164,166863,1,0,0:0:0:0:
364,228,166940,1,0,0:0:0:0:
364,292,167017,1,0,0:0:0:0:
312,328,167094,5,0,0:0:0:0:
260,292,167171,1,0,0:0:0:0:
252,228,167248,1,0,0:0:0:0:
280,172,167325,1,0,0:0:0:0:
