osu file format v14

[General]
AudioFilename: audio.mp3
AudioLeadIn: 0
PreviewTime: -1
Countdown: 1
SampleSet: Normal
StackLeniency: 0.7
Mode: 0
LetterboxInBreaks: 0
WidescreenStoryboard: 1

[Editor]
Bookmarks: 145481
DistanceSpacing: 2.2
BeatDivisor: 4
GridSize: 4
TimelineZoom: 3.099999

[Metadata]
Title:Taiyou Ga Hoshiidake
TitleUnicode:Taiyou Ga Hoshiidake
Artist:9mm Parabellum Bullet
ArtistUnicode:9mm Parabellum Bullet
Creator:-Levi-
Version:How to 8*
Source:
Tags:Metal
BeatmapID:1830912
BeatmapSetID:538802

[Difficulty]
HPDrainRate:5
CircleSize:4
OverallDifficulty:9.5
ApproachRate:9.5
SliderMultiplier:1.4
SliderTickRate:1

[Events]
//Background and Video events
0,0,"Berserk-Wallpaper-by-Yoroiookami.png",0,0
//Break Periods
2,70919,73886
//Storyboard Layer 0 (Background)
//Storyboard Layer 1 (Fail)
//Storyboard Layer 2 (Pass)
//Storyboard Layer 3 (Foreground)
//Storyboard Sound Samples

[TimingPoints]
-42,307.660752743308,4,1,0,100,1,0
573,-100,4,2,0,75,0,0
1803,-100,4,3,0,70,0,0
2111,-100,4,3,0,60,0,0
2419,-100,4,3,0,50,0,0
2726,-100,4,3,0,50,0,0
3034,-100,4,3,0,60,0,0
3342,-100,4,3,0,65,0,0
3649,-100,4,3,0,70,0,0
3957,-100,4,3,0,75,0,0
4880,-100,4,3,0,70,0,0
5188,-100,4,3,0,60,0,0
5495,-100,4,3,0,50,0,0
5803,-100,4,3,0,60,0,0
6111,-100,4,3,0,65,0,0
6418,-100,4,3,0,75,0,0
6726,-66.6666666666667,4,1,0,80,0,0
6880,-66.6666666666667,4,3,0,80,0,0
7034,-66.6666666666667,4,1,0,80,0,0
7188,-66.6666666666667,4,3,0,80,0,0
7341,-66.6666666666667,4,1,0,80,0,0
7495,-66.6666666666667,4,3,0,80,0,0
7649,-66.6666666666667,4,1,0,80,0,0
7803,-66.6666666666667,4,3,0,80,0,0
9187,-66.6666666666667,4,1,0,80,0,0
10418,-57.1428571428571,4,1,0,80,0,0
11033,-200,4,1,0,80,0,0
11341,-66.6666666666667,4,1,0,80,0,1
19032,-66.6666666666667,4,1,0,80,0,0
21494,-133.333333333333,4,2,0,80,0,0
30108,-100,4,1,0,80,0,0
31647,-100,4,2,0,80,0,0
40569,-83.3333333333333,4,1,0,80,0,0
48568,-66.6666666666667,4,1,0,80,0,1
50414,-66.6666666666667,4,1,0,30,0,1
50722,-66.6666666666667,4,1,0,75,0,1
51029,-55.5555555555556,4,1,0,80,0,0
60567,-55.5555555555556,4,1,0,80,0,1
62720,-55.5555555555556,4,1,0,80,0,0
70719,-133.333333333333,4,1,0,80,0,0
74411,-133.333333333333,4,1,0,80,0,0
75642,-133.333333333333,4,2,0,80,0,0
85487,-100,4,3,0,100,0,1
85718,-100,4,1,0,5,0,1
85795,-100,4,3,0,100,0,1
86026,-100,4,1,0,5,0,1
86103,-100,4,3,0,100,0,1
86333,-100,4,1,0,5,0,1
86410,-100,4,3,0,100,0,1
86641,-100,4,1,0,5,0,1
86718,-100,4,3,0,100,0,1
86949,-100,4,1,0,5,0,1
87025,-100,4,3,0,100,0,1
87256,-100,4,1,0,5,0,1
87333,-100,4,3,0,100,0,1
87564,-100,4,1,0,5,0,1
87641,-100,4,3,0,100,0,1
87872,-100,4,1,0,5,0,1
87948,-111.111111111111,4,2,0,100,0,0
90410,-100,4,3,0,100,0,1
92333,-100,4,1,0,5,0,1
92410,-100,4,1,0,80,0,1
92871,-111.111111111111,4,2,0,80,0,0
95332,-90.9090909090909,4,1,0,80,0,0
102716,-66.6666666666667,4,1,0,80,0,1
105177,-125,4,1,0,80,0,0
110098,-100,4,1,0,80,0,0
113177,-66.6666666666667,4,1,0,80,0,0
115023,-83.3333333333333,4,1,0,75,0,0
115330,-83.3333333333333,4,1,0,70,0,0
115638,-83.3333333333333,4,1,0,60,0,0
115946,-83.3333333333333,4,1,0,50,0,0
116253,-83.3333333333333,4,1,0,50,0,0
116561,-83.3333333333333,4,1,0,60,0,0
116869,-83.3333333333333,4,1,0,65,0,0
117176,-83.3333333333333,4,1,0,70,0,0
119945,-71.4285714285714,4,1,0,80,0,0
123791,-71.4285714285714,4,1,0,70,0,0
124406,-71.4285714285714,4,1,0,55,0,0
125022,-71.4285714285714,4,1,0,80,0,0
127329,-55.5555555555556,4,1,0,80,0,0
133482,-100,4,1,0,80,0,0
134713,-71.4285714285714,4,1,0,80,0,0
135328,-62.5,4,1,0,80,0,0
140251,-58.8235294117647,4,1,0,80,0,0
147946,-55.5555555555556,4,1,0,80,0,1
151942,-50,4,1,0,80,0,0
153173,-52.6315789473684,4,1,0,80,0,1
157787,-55.5555555555556,4,1,0,80,0,0
163018,-55.5555555555556,4,1,0,80,0,1
165479,-55.5555555555556,4,1,0,80,0,0
167633,-200,4,1,0,80,0,0

[HitObjects]
152,64,573,5,4,0:0:0:0:
152,300,880,1,4,0:0:0:0:
328,104,1188,1,4,0:0:0:0:
120,152,1496,1,4,0:0:0:0:
224,256,1650,1,4,0:0:0:0:
305,314,1803,1,0,0:0:0:0:
319,323,1880,1,0,0:0:0:0:
335,327,1957,1,0,0:0:0:0:
352,326,2034,1,0,0:0:0:0:
369,309,2111,5,0,0:0:0:0:
353,289,2188,1,0,0:0:0:0:
347,265,2265,1,0,0:0:0:0:
352,241,2342,1,0,0:0:0:0:
372,212,2419,5,0,0:0:0:0:
381,178,2496,1,0,0:0:0:0:
372,143,2573,1,0,0:0:0:0:
351,114,2650,1,0,0:0:0:0:
321,95,2726,6,0,L|264:72,3,35
278,226,3034,2,0,L|310:239,3,35
141,304,3342,5,0,0:0:0:0:
136,269,3419,1,0,0:0:0:0:
120,238,3496,1,0,0:0:0:0:
86,217,3573,1,0,0:0:0:0:
71,185,3649,5,0,0:0:0:0:
90,155,3726,1,0,0:0:0:0:
118,134,3803,1,0,0:0:0:0:
152,126,3880,1,0,0:0:0:0:
184,138,3957,5,0,0:0:0:0:
218,130,4034,1,0,0:0:0:0:
248,113,4111,1,0,0:0:0:0:
260,80,4188,1,0,0:0:0:0:
247,47,4265,6,0,L|206:-7,3,35,2|0|2|0,0:0|0:0|0:0|0:0,0:0:0:0:
284,233,4572,2,0,L|325:287,3,35,2|0|2|0,0:0|0:0|0:0|0:0,0:0:0:0:
49,49,4880,5,0,0:0:0:0:
46,87,4957,1,0,0:0:0:0:
55,124,5034,1,0,0:0:0:0:
79,153,5111,1,0,0:0:0:0:
110,175,5188,5,0,0:0:0:0:
133,205,5265,1,0,0:0:0:0:
147,240,5342,1,0,0:0:0:0:
149,277,5418,1,0,0:0:0:0:
133,312,5495,5,0,0:0:0:0:
105,284,5572,1,0,0:0:0:0:
91,247,5649,1,0,0:0:0:0:
103,210,5726,1,0,0:0:0:0:
131,183,5803,5,0,0:0:0:0:
168,175,5880,1,0,0:0:0:0:
206,180,5957,1,0,0:0:0:0:
238,201,6034,1,0,0:0:0:0:
267,226,6111,5,0,0:0:0:0:
304,235,6188,1,0,0:0:0:0:
339,220,6265,1,0,0:0:0:0:
358,187,6341,1,0,0:0:0:0:
354,148,6418,5,0,0:0:0:0:
326,121,6495,1,0,0:0:0:0:
291,123,6572,2,0,L|242:143,1,35
39,115,6726,5,0,0:0:0:0:
39,115,6803,1,0,0:0:0:0:
39,115,6880,2,0,L|65:191,1,52.5000020027161
174,235,7034,1,0,0:0:0:0:
174,235,7111,1,0,0:0:0:0:
174,235,7188,2,0,L|200:311,1,52.5000020027161
473,115,7341,5,0,0:0:0:0:
473,115,7418,1,0,0:0:0:0:
473,115,7495,2,0,L|447:191,1,52.5000020027161
338,235,7649,1,0,0:0:0:0:
338,235,7726,1,0,0:0:0:0:
338,235,7803,2,0,L|312:311,1,52.5000020027161
118,306,7957,5,0,0:0:0:0:
83,281,8034,1,0,0:0:0:0:
72,240,8111,1,0,0:0:0:0:
90,202,8187,1,0,0:0:0:0:
125,211,8264,5,0,0:0:0:0:
160,221,8341,1,0,0:0:0:0:
194,232,8418,1,0,0:0:0:0:
229,242,8495,1,0,0:0:0:0:
281,235,8572,5,0,0:0:0:0:
319,199,8649,1,0,0:0:0:0:
319,146,8726,1,0,0:0:0:0:
282,108,8803,1,0,0:0:0:0:
231,123,8880,5,0,0:0:0:0:
180,106,8957,1,0,0:0:0:0:
146,66,9033,2,0,L|127:-1,1,52.5000020027161
343,252,9187,5,8,0:0:0:0:
343,252,9264,1,0,0:0:0:0:
343,252,9341,2,4,L|395:304,1,52.5000020027161
183,101,9495,1,8,0:0:0:0:
183,101,9572,1,0,0:0:0:0:
183,101,9649,2,4,L|131:49,1,52.5000020027161
351,88,9803,1,8,0:0:0:0:
351,88,9880,1,0,0:0:0:0:
351,88,9957,2,4,L|403:36,1,52.5000020027161
182,268,10110,1,8,0:0:0:0:
182,268,10187,1,0,0:0:0:0:
182,268,10264,2,4,L|144:305,1,52.5000020027161
396,296,10418,5,8,0:0:0:0:
124,296,10572,1,8,0:0:0:0:
360,128,10726,1,8,0:0:0:0:
256,384,10879,1,8,0:0:0:0:
164,128,11033,2,2,L|136:48,1,70,4|2,0:0|0:0,0:0:0:0:
61,86,11649,5,0,0:0:0:0:
191,326,11802,1,0,0:0:0:0:
252,56,11956,1,0,0:0:0:0:
252,56,12033,1,8,0:0:0:0:
252,56,12110,1,0,0:0:0:0:
418,305,12264,2,0,L|303:215,1,105.000004005432
133,78,12572,1,0,0:0:0:0:
298,302,12725,1,8,0:0:0:0:
301,107,12879,5,0,0:0:0:0:
115,275,13033,1,8,0:0:0:0:
218,90,13187,1,0,0:0:0:0:
218,90,13264,1,0,0:0:0:0:
218,90,13341,1,0,0:0:0:0:
368,306,13495,2,0,P|446:319|511:292,1,105.000004005432
334,93,13802,1,0,0:0:0:0:
141,301,13956,1,0,0:0:0:0:
68,109,14110,5,8,0:0:0:0:
373,195,14264,1,0,0:0:0:0:
67,188,14418,1,8,0:0:0:0:
67,188,14494,1,0,0:0:0:0:
67,188,14571,1,0,0:0:0:0:
308,37,14725,2,2,B|316:78|316:78|288:152,1,105.000004005432,2|0,0:0|0:0,0:0:0:0:
167,342,15033,1,0,0:0:0:0:
72,39,15187,1,8,0:0:0:0:
144,252,15341,5,8,0:0:0:0:
168,288,15417,1,0,0:0:0:0:
196,320,15494,1,0,0:0:0:0:
240,348,15571,1,8,0:0:0:0:
292,356,15648,5,0,0:0:0:0:
344,352,15725,1,0,0:0:0:0:
400,324,15802,1,8,0:0:0:0:
444,280,15879,1,0,0:0:0:0:
476,226,15956,5,0,0:0:0:0:
415,208,16033,1,0,0:0:0:0:
352,202,16110,1,0,0:0:0:0:
290,215,16187,1,0,0:0:0:0:
231,239,16264,6,0,L|160:274,1,52.5000020027161
408,128,16417,2,0,L|479:93,1,52.5000020027161
134,170,16571,6,2,P|87:121|100:57,1,105.000004005432
308,136,16879,1,0,0:0:0:0:
308,136,16956,1,0,0:0:0:0:
308,136,17033,1,8,0:0:0:0:
311,326,17187,2,0,L|196:367,1,105.000004005432
24,200,17494,1,0,0:0:0:0:
252,53,17648,1,0,0:0:0:0:
180,337,17802,5,0,0:0:0:0:
35,97,17956,1,0,0:0:0:0:
296,200,18109,1,0,0:0:0:0:
296,200,18186,1,8,0:0:0:0:
296,200,18263,1,8,0:0:0:0:
104,48,18417,1,4,0:0:0:0:
96,344,18571,1,0,0:0:0:0:
144,128,18725,5,0,0:0:0:0:
320,296,18879,1,0,0:0:0:0:
396,168,19032,5,8,0:0:0:0:
412,124,19109,1,0,0:0:0:0:
400,76,19186,1,8,0:0:0:0:
364,44,19263,1,0,0:0:0:0:
320,28,19340,6,8,L|228:0,3,52.5000020027161,10|8|10|8,0:0|0:0|0:0|0:0,0:0:0:0:
264,233,19648,2,0,L|270:302,3,52.5000020027161,2|0|2|0,0:0|0:0|0:0|0:0,0:0:0:0:
97,56,19955,2,0,L|47:31,3,52.5000020027161,2|0|2|0,0:0|0:0|0:0|0:0,0:0:0:0:
248,108,20263,5,8,0:0:0:0:
309,137,20340,1,0,0:0:0:0:
376,129,20417,1,0,0:0:0:0:
432,91,20494,1,0,0:0:0:0:
485,124,20571,5,8,0:0:0:0:
486,187,20648,1,0,0:0:0:0:
434,223,20725,1,0,0:0:0:0:
378,193,20802,1,0,0:0:0:0:
329,211,20878,5,8,0:0:0:0:
287,243,20955,1,0,0:0:0:0:
287,295,21032,1,8,0:0:0:0:
324,331,21109,1,0,0:0:0:0:
380,340,21186,5,0,0:0:0:0:
400,324,21263,1,0,0:0:0:0:
420,308,21340,1,0,0:0:0:0:
440,292,21417,1,0,0:0:0:0:
460,276,21494,2,0,L|512:232,1,52.5000020027161
384,148,21801,5,0,0:0:0:0:
384,148,21955,1,0,0:0:0:0:
384,148,22109,2,0,L|332:192,1,52.5000020027161
208,192,22417,5,0,0:0:0:0:
120,152,22571,1,0,0:0:0:0:
92,56,22724,2,2,L|108:0,1,52.5000020027161
224,112,23032,2,2,L|240:56,1,52.5000020027161
336,88,23340,5,0,0:0:0:0:
380,232,23494,1,0,0:0:0:0:
408,144,23647,5,0,0:0:0:0:
288,284,23801,1,0,0:0:0:0:
280,140,23955,6,2,L|304:200,1,52.5000020027161
396,352,24263,2,2,L|372:292,1,52.5000020027161
220,176,24570,5,0,0:0:0:0:
188,328,24724,1,0,0:0:0:0:
72,188,24878,2,2,L|38:147,1,52.5000020027161
216,240,25186,5,2,0:0:0:0:
284,160,25339,1,0,0:0:0:0:
388,164,25493,1,2,0:0:0:0:
444,252,25646,1,0,0:0:0:0:
384,340,25801,1,2,0:0:0:0:
280,340,25955,1,0,0:0:0:0:
228,248,26109,1,2,0:0:0:0:
228,248,26262,1,0,0:0:0:0:
228,248,26416,2,2,L|248:200,1,52.5000020027161
116,248,26724,5,2,0:0:0:0:
160,176,26878,1,0,0:0:0:0:
208,92,27032,2,2,L|236:40,1,52.5000020027161
280,96,27339,5,0,0:0:0:0:
394,149,27493,1,0,0:0:0:0:
325,256,27647,2,0,L|292:307,1,52.5000020027161
154,292,27955,2,0,L|187:234,1,52.5000020027161
118,57,28262,5,0,0:0:0:0:
227,142,28416,1,0,0:0:0:0:
316,47,28570,1,0,0:0:0:0:
368,179,28724,1,0,0:0:0:0:
242,281,28878,2,2,L|167:283,1,52.5000020027161
32,168,29185,5,0,0:0:0:0:
88,256,29339,1,0,0:0:0:0:
184,292,29493,1,0,0:0:0:0:
284,260,29647,1,0,0:0:0:0:
328,164,29801,2,2,L|304:108,1,52.5000020027161
188,44,30108,1,0,0:0:0:0:
60,104,30262,5,0,0:0:0:0:
140,216,30416,1,0,0:0:0:0:
264,280,30570,1,0,0:0:0:0:
264,280,30647,1,0,0:0:0:0:
264,280,30724,2,4,L|312:304,1,35
352,324,30877,1,0,0:0:0:0:
203,247,31031,5,0,0:0:0:0:
107,112,31185,1,0,0:0:0:0:
296,147,31339,2,0,L|384:171,1,70
192,160,31647,5,0,0:0:0:0:
68,252,31800,1,0,0:0:0:0:
204,316,31954,1,0,0:0:0:0:
324,80,32108,5,0,0:0:0:0:
460,144,32262,1,0,0:0:0:0:
336,236,32415,1,0,0:0:0:0:
91,340,32570,6,2,L|160:336,1,70
405,239,32877,2,2,L|335:235,1,70
83,200,33185,2,2,L|153:200,1,70
168,36,33493,5,0,0:0:0:0:
328,76,33646,1,0,0:0:0:0:
196,176,33800,5,0,0:0:0:0:
364,224,33954,1,0,0:0:0:0:
160,276,34108,6,2,L|232:300,1,70
352,340,34416,2,2,L|440:372,1,70
124,76,34723,5,2,0:0:0:0:
256,184,34877,1,0,0:0:0:0:
380,76,35031,1,2,0:0:0:0:
256,212,35185,1,0,0:0:0:0:
124,108,35338,5,2,0:0:0:0:
256,240,35492,1,0,0:0:0:0:
376,112,35646,1,2,0:0:0:0:
256,272,35800,1,0,0:0:0:0:
128,352,35954,6,2,B|92:372|92:372|56:348,1,70
72,60,36261,5,2,0:0:0:0:
136,208,36415,1,0,0:0:0:0:
232,64,36569,1,2,0:0:0:0:
48,208,36723,5,2,0:0:0:0:
232,208,36877,1,0,0:0:0:0:
140,64,37031,1,2,0:0:0:0:
136,260,37184,2,2,P|128:300|144:344,1,70
368,328,37492,2,2,P|372:292|360:240,1,70
284,352,37800,5,0,0:0:0:0:
204,76,37954,1,2,0:0:0:0:
304,272,38107,1,0,0:0:0:0:
232,12,38261,1,2,0:0:0:0:
148,288,38415,2,2,L|112:368,1,70
364,96,38723,2,2,L|400:16,1,70
116,111,39030,6,2,L|88:48,1,70
395,272,39338,2,2,L|424:336,1,70
204,84,39646,6,2,L|175:20,2,70
364,292,40107,1,2,0:0:0:0:
128,176,40261,1,0,0:0:0:0:
373,127,40415,1,2,0:0:0:0:
204,320,40569,1,8,0:0:0:0:
204,320,40646,1,0,0:0:0:0:
204,320,40723,1,8,0:0:0:0:
204,320,40799,1,0,0:0:0:0:
204,320,40876,2,4,L|260:388,1,83.9999974365235
439,76,41184,6,0,L|359:139,1,83.9999974365235
207,199,41492,1,0,0:0:0:0:
247,55,41645,1,0,0:0:0:0:
356,218,41799,1,0,0:0:0:0:
201,318,41953,1,0,0:0:0:0:
91,132,42107,5,8,0:0:0:0:
91,132,42184,1,8,0:0:0:0:
91,132,42261,1,4,0:0:0:0:
247,55,42415,2,2,P|299:31|355:31,1,83.9999974365235
185,162,42722,2,2,P|149:190|97:190,1,83.9999974365235
32,156,43030,5,0,0:0:0:0:
68,312,43184,1,0,0:0:0:0:
236,276,43338,1,0,0:0:0:0:
196,112,43491,1,0,0:0:0:0:
360,72,43645,2,2,P|416:124|428:160,1,83.9999974365235
384,297,43953,5,0,0:0:0:0:
271,158,44107,1,0,0:0:0:0:
200,316,44261,1,0,0:0:0:0:
373,195,44414,1,0,0:0:0:0:
113,237,44568,1,0,0:0:0:0:
113,237,44645,1,0,0:0:0:0:
113,237,44722,1,0,0:0:0:0:
236,165,44876,2,0,L|345:127,1,83.9999974365235
101,297,45184,2,0,L|-8:259,1,83.9999974365235
282,316,45491,5,0,0:0:0:0:
411,306,45645,1,0,0:0:0:0:
207,251,45799,1,0,0:0:0:0:
448,193,45953,1,0,0:0:0:0:
125,194,46107,2,0,L|51:108,1,83.9999974365235
248,316,46414,5,0,0:0:0:0:
248,148,46568,1,0,0:0:0:0:
188,304,46722,1,0,0:0:0:0:
308,140,46876,1,0,0:0:0:0:
140,268,47030,1,0,0:0:0:0:
360,168,47183,1,0,0:0:0:0:
120,116,47337,5,0,0:0:0:0:
368,320,47491,2,2,L|449:387,2,83.9999974365235
132,136,48106,5,0,0:0:0:0:
32,320,48260,1,0,0:0:0:0:
28,108,48414,1,0,0:0:0:0:
188,292,48568,2,2,P|232:324|240:296,1,105.000004005432
320,108,48876,5,8,0:0:0:0:
144,296,49029,1,8,0:0:0:0:
284,56,49183,1,8,0:0:0:0:
216,336,49337,1,8,0:0:0:0:
224,40,49491,1,8,0:0:0:0:
296,352,49645,1,8,0:0:0:0:
144,52,49799,5,8,0:0:0:0:
432,184,49952,1,4,0:0:0:0:
64,232,50106,1,4,0:0:0:0:
376,72,50260,1,4,0:0:0:0:
0,195,50414,1,0,0:0:0:0:
71,54,51029,6,0,L|202:110,1,125.999996154785
454,126,51337,2,0,L|309:187,1,125.999996154785
34,198,51645,2,0,L|190:268,1,125.999996154785
425,339,51952,5,0,0:0:0:0:
304,103,52106,1,0,0:0:0:0:
202,321,52260,1,0,0:0:0:0:
202,321,52337,1,0,0:0:0:0:
202,321,52414,1,0,0:0:0:0:
396,177,52567,2,0,B|456:146|456:146|486:80,1,125.999996154785
136,118,52875,1,0,0:0:0:0:
412,333,53029,1,0,0:0:0:0:
345,121,53183,5,0,0:0:0:0:
84,253,53337,1,0,0:0:0:0:
156,47,53490,1,0,0:0:0:0:
156,47,53567,1,0,0:0:0:0:
156,47,53644,1,0,0:0:0:0:
296,293,53798,2,0,P|348:339|419:342,1,125.999996154785
449,141,54106,1,0,0:0:0:0:
153,269,54260,1,0,0:0:0:0:
81,134,54413,5,0,0:0:0:0:
416,262,54567,1,0,0:0:0:0:
211,63,54721,2,0,B|84:37|64:57|64:57|120:96,1,188.999994232178
123,117,55029,1,0,0:0:0:0:
246,210,55182,1,0,0:0:0:0:
296,248,55259,1,0,0:0:0:0:
350,286,55336,2,0,L|439:308,1,62.9999980773926
103,239,55490,2,0,L|14:217,1,62.9999980773926
208,328,55644,5,8,0:0:0:0:
258,338,55721,1,0,0:0:0:0:
310,321,55798,1,8,0:0:0:0:
350,286,55875,1,0,0:0:0:0:
383,232,55952,2,4,B|385:185|385:185|357:156|357:156|356:107,1,125.999996154785
57,282,56259,6,0,L|180:181,1,125.999996154785
389,55,56567,2,0,L|266:156,1,125.999996154785
123,329,56875,2,0,L|246:228,1,125.999996154785
350,122,57182,5,0,0:0:0:0:
381,297,57336,1,0,0:0:0:0:
191,172,57490,1,0,0:0:0:0:
465,49,57644,1,0,0:0:0:0:
162,247,57798,2,0,L|44:333,1,125.999996154785
254,288,58106,5,8,0:0:0:0:
290,88,58260,1,0,0:0:0:0:
165,342,58414,1,8,0:0:0:0:
384,39,58568,5,0,0:0:0:0:
352,304,58721,1,8,0:0:0:0:
310,25,58875,1,8,0:0:0:0:
165,342,59028,5,8,0:0:0:0:
140,60,59182,1,4,0:0:0:0:
352,304,59336,2,2,L|396:356,1,62.9999980773926
276,80,59490,2,2,L|235:31,1,62.9999980773926
428,200,59644,5,8,0:0:0:0:
416,261,59721,1,0,0:0:0:0:
376,310,59798,1,8,0:0:0:0:
314,320,59874,1,0,0:0:0:0:
266,278,59951,5,8,0:0:0:0:
202,278,60028,1,0,0:0:0:0:
147,310,60105,1,8,0:0:0:0:
109,360,60182,1,0,0:0:0:0:
57,324,60259,5,8,0:0:0:0:
43,262,60336,1,0,0:0:0:0:
65,202,60413,1,8,0:0:0:0:
112,160,60490,1,0,0:0:0:0:
175,160,60567,5,0,0:0:0:0:
215,111,60644,1,0,0:0:0:0:
238,53,60720,2,0,L|251:-9,1,62.9999980773926
229,268,60874,5,8,0:0:0:0:
229,268,60951,1,0,0:0:0:0:
229,268,61028,2,0,L|194:323,1,62.9999980773926
392,81,61182,5,8,0:0:0:0:
392,81,61259,1,0,0:0:0:0:
392,81,61336,2,0,L|442:42,1,62.9999980773926
137,177,61490,5,8,0:0:0:0:
137,177,61567,1,0,0:0:0:0:
137,177,61644,2,4,L|60:177,1,62.9999980773926
442,156,61797,1,2,0:0:0:0:
152,252,61951,1,4,0:0:0:0:
368,324,62105,5,8,0:0:0:0:
416,296,62182,1,0,0:0:0:0:
440,244,62259,1,8,0:0:0:0:
420,192,62336,1,0,0:0:0:0:
372,164,62413,5,8,0:0:0:0:
316,168,62490,1,0,0:0:0:0:
280,212,62566,1,8,0:0:0:0:
224,220,62643,1,0,0:0:0:0:
172,192,62720,1,4,0:0:0:0:
189,56,63028,6,2,B|127:49|127:49|71:81,1,125.999996154785
314,314,63336,2,2,B|375:320|375:320|431:288,1,125.999996154785
30,112,63643,1,0,0:0:0:0:
234,344,63797,1,0,0:0:0:0:
42,272,63951,1,0,0:0:0:0:
358,187,64105,1,0,0:0:0:0:
110,173,64259,2,2,L|42:174,1,62.9999980773926
308,63,64412,2,2,L|359:26,1,62.9999980773926
110,279,64566,5,0,0:0:0:0:
110,279,64643,1,0,0:0:0:0:
110,279,64720,2,2,L|60:317,1,62.9999980773926
389,137,64874,5,0,0:0:0:0:
389,137,64951,1,0,0:0:0:0:
389,137,65028,2,2,L|425:55,1,62.9999980773926
332,284,65182,5,0,0:0:0:0:
276,312,65258,1,0,0:0:0:0:
220,340,65335,1,0,0:0:0:0:
160,364,65412,1,0,0:0:0:0:
104,336,65489,5,0,0:0:0:0:
70,284,65565,1,0,0:0:0:0:
76,222,65642,1,0,0:0:0:0:
119,177,65719,1,0,0:0:0:0:
182,174,65797,6,0,B|233:173|233:173|277:192|277:192|338:188,1,125.999996154785
432,41,66105,6,0,L|362:185,1,125.999996154785
80,343,66412,2,0,L|150:199,1,125.999996154785
481,162,66720,2,0,L|311:192,1,125.999996154785
88,154,67028,5,8,0:0:0:0:
364,332,67181,1,8,0:0:0:0:
258,46,67335,1,8,0:0:0:0:
157,332,67489,1,8,0:0:0:0:
408,129,67643,1,4,0:0:0:0:
160,244,67797,5,0,0:0:0:0:
160,244,67874,1,0,0:0:0:0:
160,244,67951,2,0,L|96:292,1,62.9999980773926
428,152,68104,1,0,0:0:0:0:
428,152,68181,1,0,0:0:0:0:
428,152,68258,2,0,L|492:104,1,62.9999980773926
88,123,68412,5,0,0:0:0:0:
389,249,68566,1,0,0:0:0:0:
152,70,68720,1,0,0:0:0:0:
326,319,68874,1,0,0:0:0:0:
231,34,69027,1,0,0:0:0:0:
432,180,69181,5,0,0:0:0:0:
216,320,69335,1,0,0:0:0:0:
187,46,69489,1,0,0:0:0:0:
234,63,69566,1,0,0:0:0:0:
275,92,69643,1,0,0:0:0:0:
300,135,69720,1,0,0:0:0:0:
314,182,69796,5,0,0:0:0:0:
265,196,69873,1,0,0:0:0:0:
223,225,69950,1,0,0:0:0:0:
193,265,70027,1,0,0:0:0:0:
178,313,70104,5,0,0:0:0:0:
227,321,70181,1,0,0:0:0:0:
271,297,70258,1,0,0:0:0:0:
309,264,70335,1,0,0:0:0:0:
344,227,70412,2,0,B|408:196|475:237|475:237|464:155|406:134,1,251.999992309571
104,60,74411,5,2,0:0:0:0:
148,124,74565,1,8,0:0:0:0:
164,144,74642,1,0,0:0:0:0:
180,164,74719,1,8,0:0:0:0:
172,188,74796,1,0,0:0:0:0:
188,208,74873,1,8,0:0:0:0:
204,228,74950,1,0,0:0:0:0:
228,236,75027,2,4,L|264:284,1,52.5000020027161
392,232,75642,5,0,0:0:0:0:
288,112,75796,1,0,0:0:0:0:
288,288,75950,5,0,0:0:0:0:
184,180,76104,1,0,0:0:0:0:
180,340,76257,6,2,L|136:288,1,52.5000020027161
88,236,76565,2,2,L|40:176,1,52.5000020027161
160,44,76873,5,0,0:0:0:0:
264,64,77027,1,0,0:0:0:0:
164,128,77180,5,0,0:0:0:0:
248,188,77334,1,0,0:0:0:0:
144,192,77488,5,0,0:0:0:0:
228,132,77642,1,0,0:0:0:0:
376,180,77796,5,0,0:0:0:0:
296,248,77950,1,0,0:0:0:0:
124,152,78103,6,2,L|124:224,1,52.5000020027161
176,296,78411,2,2,L|176:236,1,52.5000020027161
404,148,78719,6,2,L|404:200,1,52.5000020027161
336,288,79026,2,2,L|336:235,1,52.5000020027161
424,40,79334,5,2,0:0:0:0:
424,196,79488,1,0,0:0:0:0:
336,128,79642,5,2,0:0:0:0:
336,288,79795,1,0,0:0:0:0:
424,196,79949,5,2,0:0:0:0:
425,349,80103,1,0,0:0:0:0:
41,263,80257,6,0,L|113:261,1,52.5000020027161
286,210,80565,2,0,L|228:214,1,52.5000020027161
168,356,80872,1,2,0:0:0:0:
88,308,81026,5,2,0:0:0:0:
258,262,81180,1,2,0:0:0:0:
344,108,81334,5,2,0:0:0:0:
344,272,81488,1,2,0:0:0:0:
416,144,81642,5,2,0:0:0:0:
246,190,81796,1,2,0:0:0:0:
304,32,81949,1,2,0:0:0:0:
80,64,82103,5,2,0:0:0:0:
256,196,82257,1,2,0:0:0:0:
432,192,82411,5,2,0:0:0:0:
256,320,82564,1,2,0:0:0:0:
80,320,82718,5,2,0:0:0:0:
256,192,82872,1,2,0:0:0:0:
80,64,83026,2,4,L|36:32,1,52.5000020027161
252,264,83334,6,2,L|308:264,1,52.5000020027161
56,168,83641,2,2,L|0:168,1,52.5000020027161
180,120,83949,5,4,0:0:0:0:
312,212,84103,2,2,L|481:212,1,157.500006008148
468,328,84718,5,8,0:0:0:0:
308,328,84872,1,0,0:0:0:0:
464,72,85026,5,8,0:0:0:0:
296,76,85180,1,0,0:0:0:0:
176,192,85333,5,8,0:0:0:0:
24,76,85487,2,0,L|132:76,1,105
24,192,85795,2,0,L|140:192,1,105
20,320,86103,2,0,L|152:320,1,105
200,72,86410,2,0,L|316:72,1,105
196,192,86718,2,0,L|304:192,1,105
192,320,87025,2,0,L|304:320,1,105
360,24,87333,2,0,L|360:140,1,105
360,240,87641,2,0,L|360:352,1,105
136,80,87948,5,0,0:0:0:0:
132,256,88102,1,0,0:0:0:0:
280,172,88256,1,0,0:0:0:0:
64,176,88410,1,0,0:0:0:0:
256,80,88564,1,0,0:0:0:0:
228,272,88718,1,0,0:0:0:0:
89,37,88871,6,2,L|112:96,1,62.9999980773926
184,332,89179,2,2,L|152:264,1,62.9999980773926
188,20,89487,2,2,L|216:76,1,62.9999980773926
308,276,89794,2,2,L|268:216,1,62.9999980773926
316,104,90102,6,2,L|400:68,1,62.9999980773926
28,72,90410,6,0,L|152:72,1,105,0|4,0:0|0:0,0:0:0:0:
32,192,90717,5,0,0:0:0:0:
136,192,90871,1,4,0:0:0:0:
136,320,91179,5,0,0:0:0:0:
28,320,91333,1,4,0:0:0:0:
200,72,91640,5,0,0:0:0:0:
305,72,91794,1,4,0:0:0:0:
204,192,92102,6,0,L|308:192,1,105,0|4,0:0|0:0,0:0:0:0:
312,324,92410,5,0,0:0:0:0:
204,324,92563,1,4,0:0:0:0:
428,192,92871,5,0,0:0:0:0:
300,72,93025,1,0,0:0:0:0:
288,288,93179,1,0,0:0:0:0:
404,76,93333,1,0,0:0:0:0:
436,272,93486,1,0,0:0:0:0:
228,88,93640,1,0,0:0:0:0:
360,288,93794,2,2,P|388:316|424:344,1,62.9999980773926
136,96,94102,5,0,0:0:0:0:
148,124,94179,1,0,0:0:0:0:
160,152,94256,1,0,0:0:0:0:
172,180,94332,1,0,0:0:0:0:
184,208,94409,1,0,0:0:0:0:
280,192,94563,5,0,0:0:0:0:
256,112,94639,1,0,0:0:0:0:
186,68,94716,1,0,0:0:0:0:
104,82,94793,1,0,0:0:0:0:
52,148,94870,1,0,0:0:0:0:
58,231,94947,1,0,0:0:0:0:
116,308,95025,2,4,L|160:356,1,62.9999980773926
440,276,95332,6,4,L|397:229,1,62.9999980773926
304,112,95640,1,0,0:0:0:0:
364,352,95794,1,0,0:0:0:0:
196,264,95948,1,0,0:0:0:0:
432,176,96101,2,2,L|504:140,1,77.0000023498536
272,24,96409,5,0,0:0:0:0:
56,124,96563,1,0,0:0:0:0:
272,140,96717,1,0,0:0:0:0:
64,204,96871,1,0,0:0:0:0:
204,272,97024,2,2,B|144:296|144:296|108:264|44:264|8:344,1,231.000007049561
280,328,97794,5,0,0:0:0:0:
404,132,97948,1,0,0:0:0:0:
280,252,98101,5,0,0:0:0:0:
152,124,98255,1,0,0:0:0:0:
276,8,98409,1,0,0:0:0:0:
404,132,98563,1,0,0:0:0:0:
280,252,98717,2,2,L|224:316,1,77.0000023498536
148,216,99024,2,2,L|52:264,1,77.0000023498536
104,100,99332,2,4,L|180:60,1,77.0000023498536
300,80,99640,5,0,0:0:0:0:
288,240,99793,1,0,0:0:0:0:
400,152,99947,1,0,0:0:0:0:
404,308,100101,1,0,0:0:0:0:
296,136,100255,2,2,L|244:48,2,77.0000023498536
404,308,100716,5,0,0:0:0:0:
216,232,100870,1,0,0:0:0:0:
416,228,101024,1,0,0:0:0:0:
224,320,101178,1,0,0:0:0:0:
376,156,101332,1,0,0:0:0:0:
176,272,101486,2,2,L|96:300,2,77.0000023498536
404,200,101947,5,0,0:0:0:0:
204,344,102101,1,0,0:0:0:0:
292,112,102255,1,0,0:0:0:0:
264,336,102409,1,0,0:0:0:0:
344,68,102562,1,0,0:0:0:0:
99,293,102716,5,8,0:0:0:0:
256,32,102870,1,8,0:0:0:0:
324,316,103024,1,8,0:0:0:0:
316,51,103178,5,8,0:0:0:0:
197,323,103332,1,8,0:0:0:0:
423,140,103485,1,8,0:0:0:0:
94,208,103639,5,8,0:0:0:0:
404,346,103793,1,8,0:0:0:0:
256,32,103947,2,2,P|212:64|232:72,1,105.000004005432
430,288,104254,5,4,0:0:0:0:
34,207,104408,1,4,0:0:0:0:
447,79,104562,1,4,0:0:0:0:
304,320,105177,6,2,B|264:292|264:292|236:296|236:296|220:276|220:276|188:280|188:280|172:256|172:256|140:264|120:232,1,224
176,116,106408,6,2,B|195:146|227:138|227:138|243:162|243:162|275:158|275:158|291:178|291:178|319:174|319:174|359:202,1,224
360,80,107639,2,2,B|392:108|392:108|416:136|416:136|416:192|392:196|392:196|376:248|376:248|344:280,1,224
436,304,108562,6,8,L|392:348,1,56
248,328,108869,2,2,B|187:352|187:352|115:335|115:335|76:281,1,196
69,269,109485,6,0,P|57:215|62:198,1,56
144,173,109792,1,0,0:0:0:0:
79,80,109946,1,8,0:0:0:0:
196,72,110100,2,0,L|284:48,1,70
312,124,110408,2,0,L|396:108,1,70
512,160,110715,6,0,L|420:188,1,70
416,280,111023,2,0,L|324:312,1,70
244,344,111331,2,0,L|148:336,1,70
104,268,111638,5,0,0:0:0:0:
84,172,111792,1,0,0:0:0:0:
128,84,111946,1,0,0:0:0:0:
224,60,112100,1,0,0:0:0:0:
324,56,112254,2,2,L|412:68,1,70
316,176,112561,2,2,L|388:196,1,70
508,232,112869,5,0,0:0:0:0:
428,344,113023,1,0,0:0:0:0:
262,296,113177,1,0,0:0:0:0:
226,272,113254,1,0,0:0:0:0:
184,266,113330,1,0,0:0:0:0:
142,272,113407,1,0,0:0:0:0:
104,235,113484,5,0,0:0:0:0:
149,208,113561,1,0,0:0:0:0:
201,207,113638,1,0,0:0:0:0:
251,218,113715,1,0,0:0:0:0:
297,175,113792,5,0,0:0:0:0:
238,152,113869,1,0,0:0:0:0:
175,146,113946,1,0,0:0:0:0:
112,151,114023,1,0,0:0:0:0:
59,185,114100,6,0,L|30:228,3,52.5000020027161
329,116,114407,2,0,L|358:73,3,52.5000020027161
348,205,114715,5,2,0:0:0:0:
434,331,114869,1,2,0:0:0:0:
296,340,115023,1,0,0:0:0:0:
278,301,115100,1,0,0:0:0:0:
245,275,115176,1,0,0:0:0:0:
203,266,115253,1,0,0:0:0:0:
173,267,115330,5,0,0:0:0:0:
148,249,115407,1,0,0:0:0:0:
124,231,115484,1,0,0:0:0:0:
100,213,115561,1,0,0:0:0:0:
70,182,115638,5,0,0:0:0:0:
70,139,115715,1,0,0:0:0:0:
87,100,115792,1,0,0:0:0:0:
121,76,115869,1,0,0:0:0:0:
171,73,115946,5,0,0:0:0:0:
213,99,116023,1,0,0:0:0:0:
224,147,116099,1,0,0:0:0:0:
204,193,116176,1,0,0:0:0:0:
182,219,116253,5,0,0:0:0:0:
194,250,116330,1,0,0:0:0:0:
208,280,116407,1,0,0:0:0:0:
222,310,116484,1,0,0:0:0:0:
250,350,116561,5,0,0:0:0:0:
298,335,116638,1,0,0:0:0:0:
330,296,116715,1,0,0:0:0:0:
331,245,116792,1,0,0:0:0:0:
298,206,116869,5,0,0:0:0:0:
271,163,116946,1,0,0:0:0:0:
261,114,117022,1,0,0:0:0:0:
284,69,117099,1,0,0:0:0:0:
311,111,117176,5,0,0:0:0:0:
315,161,117253,1,0,0:0:0:0:
286,202,117330,1,0,0:0:0:0:
238,218,117407,1,0,0:0:0:0:
189,231,117484,6,0,L|157:267,3,41.9999987182618,2|0|2|0,0:0|0:0|0:0|0:0,0:0:0:0:
144,88,117792,2,0,L|116:56,3,41.9999987182618,2|0|2|0,0:0|0:0|0:0|0:0,0:0:0:0:
340,56,118099,1,0,0:0:0:0:
363,90,118176,1,0,0:0:0:0:
384,125,118253,1,0,0:0:0:0:
403,162,118330,1,0,0:0:0:0:
395,216,118407,5,0,0:0:0:0:
352,250,118484,1,0,0:0:0:0:
297,246,118561,1,0,0:0:0:0:
256,209,118638,1,0,0:0:0:0:
237,171,118715,5,0,0:0:0:0:
197,157,118791,1,0,0:0:0:0:
157,141,118868,1,0,0:0:0:0:
117,126,118945,1,0,0:0:0:0:
61,145,119022,5,0,0:0:0:0:
67,203,119099,1,0,0:0:0:0:
100,251,119176,1,0,0:0:0:0:
148,283,119253,1,0,0:0:0:0:
189,279,119330,5,0,0:0:0:0:
229,290,119407,1,0,0:0:0:0:
269,301,119484,1,0,0:0:0:0:
308,315,119561,1,0,0:0:0:0:
368,297,119638,5,0,0:0:0:0:
417,259,119714,1,0,0:0:0:0:
462,221,119791,2,0,L|496:158,1,41.9999987182618
271,53,119945,5,0,0:0:0:0:
271,53,120022,1,0,0:0:0:0:
271,53,120099,2,4,L|223:41,1,48.9999985046387,12|4,0:0|0:0,0:0:0:0:
80,108,120253,5,0,0:0:0:0:
80,108,120330,1,0,0:0:0:0:
80,108,120407,2,4,L|127:119,1,48.9999985046387,12|4,0:0|0:0,0:0:0:0:
341,341,120560,5,0,0:0:0:0:
341,341,120637,1,0,0:0:0:0:
341,341,120714,2,4,L|294:329,1,48.9999985046387,12|4,0:0|0:0,0:0:0:0:
37,289,120868,5,0,0:0:0:0:
37,289,120945,1,0,0:0:0:0:
37,289,121022,2,4,L|84:277,1,48.9999985046387,12|4,0:0|0:0,0:0:0:0:
331,199,121176,2,4,L|284:187,1,48.9999985046387,12|4,0:0|0:0,0:0:0:0:
128,48,121330,5,0,0:0:0:0:
176,60,121407,1,0,0:0:0:0:
212,96,121483,1,0,0:0:0:0:
232,140,121560,1,0,0:0:0:0:
239,213,121637,5,0,0:0:0:0:
287,213,121714,1,0,0:0:0:0:
327,189,121791,1,0,0:0:0:0:
359,153,121868,1,0,0:0:0:0:
397,90,121945,5,0,0:0:0:0:
445,102,122022,1,0,0:0:0:0:
481,138,122099,1,0,0:0:0:0:
497,186,122176,1,0,0:0:0:0:
453,245,122253,6,0,L|406:278,1,48.9999985046387
140,336,122407,5,0,0:0:0:0:
140,336,122484,1,0,0:0:0:0:
140,336,122561,2,4,L|88:320,1,48.9999985046387,12|4,0:0|0:0,0:0:0:0:
304,160,122715,5,0,0:0:0:0:
304,160,122792,1,0,0:0:0:0:
304,160,122869,2,4,L|372:136,1,48.9999985046387,12|4,0:0|0:0,0:0:0:0:
124,108,123023,5,0,0:0:0:0:
124,108,123100,1,0,0:0:0:0:
124,108,123176,2,4,L|56:84,1,48.9999985046387,12|4,0:0|0:0,0:0:0:0:
282,314,123329,5,0,0:0:0:0:
282,314,123406,1,0,0:0:0:0:
282,314,123482,2,4,L|350:338,1,48.9999985046387,12|4,0:0|0:0,0:0:0:0:
220,48,123637,1,0,0:0:0:0:
344,224,123791,5,0,0:0:0:0:
168,312,123945,1,0,0:0:0:0:
376,296,124099,1,0,0:0:0:0:
204,384,124252,1,0,0:0:0:0:
364,152,124406,5,0,0:0:0:0:
408,76,124560,1,0,0:0:0:0:
432,188,124714,1,0,0:0:0:0:
480,104,124868,1,0,0:0:0:0:
356,320,125022,5,0,0:0:0:0:
192,92,125175,1,0,0:0:0:0:
288,344,125329,1,0,0:0:0:0:
268,80,125483,1,0,0:0:0:0:
104,68,126098,6,2,B|140:100|140:100|120:136|120:136|140:164|140:164|128:232|128:232|144:264,1,195.999994018555
408,68,126714,2,2,B|372:100|372:100|392:136|392:136|372:164|372:164|384:232|384:232|368:264,1,195.999994018555
256,308,127329,5,8,0:0:0:0:
312,340,127406,1,0,0:0:0:0:
376,340,127483,1,0,0:0:0:0:
432,312,127560,1,0,0:0:0:0:
458,254,127637,5,0,0:0:0:0:
396,268,127714,1,0,0:0:0:0:
333,272,127791,1,0,0:0:0:0:
280,239,127867,1,0,0:0:0:0:
247,185,127944,5,0,0:0:0:0:
220,40,128252,5,0,0:0:0:0:
368,72,128406,1,0,0:0:0:0:
256,172,128560,1,8,0:0:0:0:
256,172,128637,1,8,0:0:0:0:
256,172,128714,1,4,0:0:0:0:
200,320,128867,5,8,0:0:0:0:
200,320,128944,1,8,0:0:0:0:
200,320,129021,1,4,0:0:0:0:
76,120,129175,5,8,0:0:0:0:
76,120,129252,1,8,0:0:0:0:
76,120,129329,1,4,0:0:0:0:
80,244,129483,5,0,0:0:0:0:
212,104,129637,1,0,0:0:0:0:
200,320,129790,1,0,0:0:0:0:
272,336,129867,1,0,0:0:0:0:
348,332,129944,1,0,0:0:0:0:
420,304,130021,1,0,0:0:0:0:
456,240,130098,5,0,0:0:0:0:
398,213,130175,1,0,0:0:0:0:
334,212,130252,1,0,0:0:0:0:
276,238,130329,1,0,0:0:0:0:
227,224,130406,5,0,0:0:0:0:
212,175,130483,1,0,0:0:0:0:
225,127,130559,1,0,0:0:0:0:
265,97,130636,1,0,0:0:0:0:
315,91,130713,2,0,B|371:15|371:15|303:31,1,125.999996154785
76,32,131021,5,0,0:0:0:0:
204,168,131329,1,0,0:0:0:0:
344,288,131636,1,8,0:0:0:0:
344,288,131713,1,8,0:0:0:0:
344,288,131790,1,4,0:0:0:0:
116,128,131944,1,0,0:0:0:0:
232,332,132098,1,0,0:0:0:0:
248,128,132252,5,0,0:0:0:0:
224,96,132329,1,0,0:0:0:0:
199,67,132406,2,4,L|157:10,1,62.9999980773926
360,152,132559,5,0,0:0:0:0:
396,168,132636,1,0,0:0:0:0:
432,180,132713,2,4,L|496:208,1,62.9999980773926
152,208,132867,5,0,0:0:0:0:
116,192,132944,1,0,0:0:0:0:
80,180,133021,2,4,L|16:152,1,62.9999980773926
288,256,133175,5,0,0:0:0:0:
312,288,133252,1,0,0:0:0:0:
337,317,133329,2,4,L|378:373,1,62.9999980773926
374,367,133482,1,4,0:0:0:0:
256,4,134098,5,2,0:0:0:0:
256,192,134405,1,2,0:0:0:0:
256,276,134713,5,0,0:0:0:0:
205,245,134790,1,0,0:0:0:0:
173,195,134867,1,0,0:0:0:0:
201,143,134944,1,0,0:0:0:0:
254,119,135021,1,0,0:0:0:0:
305,145,135097,1,0,0:0:0:0:
334,195,135174,1,0,0:0:0:0:
306,246,135251,1,0,0:0:0:0:
256,291,135328,5,4,0:0:0:0:
80,344,135944,5,0,0:0:0:0:
216,144,136097,1,0,0:0:0:0:
248,336,136251,1,0,0:0:0:0:
60,184,136405,1,0,0:0:0:0:
320,240,136559,2,2,P|388:236|432:224,1,112
260,80,136867,5,0,0:0:0:0:
396,352,137020,1,0,0:0:0:0:
192,212,137174,1,0,0:0:0:0:
192,212,137251,1,0,0:0:0:0:
192,212,137328,1,0,0:0:0:0:
432,192,137482,1,0,0:0:0:0:
60,112,137636,5,0,0:0:0:0:
232,288,137790,1,0,0:0:0:0:
300,64,137943,1,0,0:0:0:0:
256,348,138097,5,0,0:0:0:0:
32,156,138251,1,0,0:0:0:0:
320,176,138405,1,0,0:0:0:0:
128,352,138559,1,0,0:0:0:0:
112,80,138712,2,0,B|171:50|171:50|240:64,1,112
280,228,139020,5,0,0:0:0:0:
84,372,139174,1,0,0:0:0:0:
28,144,139328,1,0,0:0:0:0:
228,376,139482,1,0,0:0:0:0:
340,120,139635,1,8,0:0:0:0:
340,120,139712,1,0,0:0:0:0:
340,120,139789,1,8,0:0:0:0:
340,120,139866,1,0,0:0:0:0:
340,120,139943,1,8,0:0:0:0:
168,176,140097,5,4,0:0:0:0:
484,220,140251,1,8,1:0:0:0:
471,281,140328,1,0,1:0:0:0:
433,331,140405,1,0,1:0:0:0:
375,356,140482,1,0,1:0:0:0:
317,358,140558,2,2,L|268:324,1,59.5000011348725
117,177,140712,2,2,L|165:210,1,59.5000011348725
343,334,140866,2,0,P|398:354|457:357,1,119.000002269745,0|0,1:0|1:0,1:0:0:0:
157,62,141174,2,0,P|101:41|42:39,1,119.000002269745,0|0,1:0|1:0,1:0:0:0:
256,350,141481,5,0,0:0:0:0:
256,38,141635,1,0,0:0:0:0:
168,342,141789,5,0,0:0:0:0:
340,45,141943,1,0,0:0:0:0:
50,266,142097,5,0,0:0:0:0:
454,118,142251,1,0,0:0:0:0:
41,153,142404,5,0,0:0:0:0:
463,228,142558,1,0,0:0:0:0:
63,350,142712,2,0,B|-12:369|-12:369|25:319,1,119.000002269745
284,57,143020,5,0,0:0:0:0:
428,292,143174,1,0,0:0:0:0:
126,278,143327,1,0,0:0:0:0:
376,47,143481,5,0,0:0:0:0:
383,363,143635,1,0,0:0:0:0:
90,176,143788,1,0,0:0:0:0:
457,110,143943,5,0,0:0:0:0:
131,355,144097,1,0,0:0:0:0:
179,71,144250,5,0,0:0:0:0:
467,326,144404,1,0,0:0:0:0:
80,232,144558,1,8,0:0:0:0:
44,184,144635,1,0,0:0:0:0:
24,128,144712,1,8,0:0:0:0:
28,68,144789,1,0,0:0:0:0:
98,43,144866,5,8,0:0:0:0:
134,91,144943,1,0,0:0:0:0:
154,147,145020,1,8,0:0:0:0:
150,207,145097,1,0,0:0:0:0:
138,274,145173,6,2,L|173:340,1,59.5000011348725
368,312,145327,5,8,0:0:0:0:
368,312,145404,1,8,0:0:0:0:
368,312,145481,2,2,L|396:372,1,59.5000011348725
320,132,145789,6,2,B|380:144|380:144|408:180|444:192|444:192|460:228|456:264|456:264|440:312,1,238.00000453949
192,132,146404,2,2,B|132:144|132:144|104:180|68:192|68:192|52:228|56:264|56:264|72:312,1,238.00000453949
257,333,147019,1,0,0:0:0:0:
310,306,147096,1,0,0:0:0:0:
340,254,147173,1,0,0:0:0:0:
345,194,147250,1,0,0:0:0:0:
305,149,147327,5,0,0:0:0:0:
279,202,147404,1,0,0:0:0:0:
238,245,147481,1,0,0:0:0:0:
180,258,147558,1,0,0:0:0:0:
129,226,147635,2,0,L|171:148,1,59.5000011348725
292,320,147942,5,8,0:0:0:0:
321,309,148019,5,8,0:0:0:0:
368,268,148096,5,8,0:0:0:0:
404,180,148173,5,8,0:0:0:0:
360,61,148250,6,4,L|304:5,1,62.9999980773926
192,36,148404,5,8,0:0:0:0:
128,77,148481,1,0,0:0:0:0:
86,140,148558,1,8,0:0:0:0:
89,215,148635,1,0,0:0:0:0:
136,273,148711,1,8,0:0:0:0:
200,311,148788,1,2,0:0:0:0:
270,339,148865,2,4,L|384:379,1,62.9999980773926
464,104,149019,5,0,0:0:0:0:
412,48,149096,1,0,0:0:0:0:
340,22,149173,1,0,0:0:0:0:
265,34,149250,1,0,0:0:0:0:
212,88,149327,1,0,0:0:0:0:
202,163,149404,1,0,0:0:0:0:
236,230,149481,2,0,L|303:295,1,62.9999980773926
307,133,149634,5,8,0:0:0:0:
380,149,149711,1,0,0:0:0:0:
429,205,149788,1,8,0:0:0:0:
438,280,149865,1,0,0:0:0:0:
395,342,149942,1,0,0:0:0:0:
321,358,150019,1,0,0:0:0:0:
261,311,150096,2,0,L|196:251,1,62.9999980773926
164,180,150250,5,8,0:0:0:0:
82,168,150327,1,0,0:0:0:0:
65,87,150404,1,8,0:0:0:0:
131,39,150481,1,0,0:0:0:0:
193,91,150558,1,0,0:0:0:0:
169,167,150635,1,0,0:0:0:0:
114,228,150712,2,0,L|50:273,1,62.9999980773926
376,216,150865,5,8,0:0:0:0:
452,186,150942,1,0,0:0:0:0:
452,104,151019,1,8,0:0:0:0:
384,58,151096,1,0,0:0:0:0:
312,99,151173,1,0,0:0:0:0:
314,180,151250,1,0,0:0:0:0:
383,223,151327,2,0,L|452:274,1,62.9999980773926
264,348,151480,5,8,0:0:0:0:
348,322,151557,1,0,0:0:0:0:
415,265,151634,1,0,0:0:0:0:
452,186,151711,1,0,0:0:0:0:
472,100,151788,2,2,P|478:47|466:21,1,62.9999980773926
196,28,151942,5,0,0:0:0:0:
102,89,152019,1,0,0:0:0:0:
55,190,152096,1,0,0:0:0:0:
99,292,152173,1,0,0:0:0:0:
211,349,152250,5,0,0:0:0:0:
326,303,152326,1,0,0:0:0:0:
374,186,152403,1,0,0:0:0:0:
333,66,152480,1,0,0:0:0:0:
193,58,152557,5,0,0:0:0:0:
161,194,152634,1,0,0:0:0:0:
229,316,152711,1,0,0:0:0:0:
360,363,152788,1,0,0:0:0:0:
414,218,152865,5,0,0:0:0:0:
352,76,152942,1,0,0:0:0:0:
204,30,153019,1,0,0:0:0:0:
79,120,153096,1,0,0:0:0:0:
62,265,153173,2,0,L|108:357,1,66.4999982242585
438,166,153326,5,0,0:0:0:0:
355,270,153403,1,0,0:0:0:0:
231,320,153480,2,0,L|147:350,1,66.4999982242585
89,172,153634,5,0,0:0:0:0:
155,72,153711,1,0,0:0:0:0:
272,46,153788,2,0,L|350:30,1,66.4999982242585
299,293,153942,5,0,0:0:0:0:
194,272,154019,1,0,0:0:0:0:
104,213,154096,2,0,L|50:161,1,66.4999982242585
204,56,154249,5,0,0:0:0:0:
295,73,154326,1,0,0:0:0:0:
379,113,154403,2,0,L|433:165,1,66.4999982242585
468,212,154557,5,0,0:0:0:0:
415,280,154634,1,0,0:0:0:0:
332,307,154711,1,0,0:0:0:0:
249,281,154788,1,0,0:0:0:0:
172,241,154865,1,0,0:0:0:0:
122,169,154942,1,0,0:0:0:0:
97,85,155019,2,0,L|95:10,1,66.4999982242585
256,240,155172,5,8,0:0:0:0:
321,286,155249,1,0,0:0:0:0:
386,331,155326,2,4,L|454:375,1,66.4999982242585
252,136,155480,5,8,0:0:0:0:
191,94,155557,1,0,0:0:0:0:
129,53,155634,2,4,L|53:5,1,66.4999982242585
320,264,155788,5,8,0:0:0:0:
383,284,155865,1,0,0:0:0:0:
445,307,155942,2,4,L|530:343,1,66.4999982242585
188,152,156095,5,8,0:0:0:0:
128,148,156172,1,0,0:0:0:0:
68,143,156249,2,4,L|-21:139,1,66.4999982242585
256,328,156403,5,0,0:0:0:0:
320,308,156480,1,8,0:0:0:0:
372,264,156557,1,0,0:0:0:0:
408,208,156634,1,8,0:0:0:0:
428,144,156711,2,0,L|444:72,1,66.4999982242585
136,60,156864,5,2,0:0:0:0:
148,112,156941,1,2,0:0:0:0:
168,160,157018,1,2,0:0:0:0:
204,192,157095,1,2,0:0:0:0:
232,240,157172,5,2,0:0:0:0:
224,292,157249,1,2,0:0:0:0:
176,320,157326,1,2,0:0:0:0:
132,300,157403,1,2,0:0:0:0:
112,252,157480,5,2,0:0:0:0:
128,200,157557,1,2,0:0:0:0:
168,164,157634,1,2,0:0:0:0:
220,160,157711,1,2,0:0:0:0:
284,156,157787,6,4,P|348:144|400:88,1,125.999996154785
404,256,158095,5,8,0:0:0:0:
404,256,158172,1,0,0:0:0:0:
404,256,158249,1,8,0:0:0:0:
404,256,158326,1,0,0:0:0:0:
404,256,158403,1,8,0:0:0:0:
260,200,158557,5,8,0:0:0:0:
260,200,158634,1,8,0:0:0:0:
260,200,158710,1,4,0:0:0:0:
188,332,158864,1,2,0:0:0:0:
352,112,159018,1,8,0:0:0:0:
352,112,159095,1,8,0:0:0:0:
352,112,159172,1,4,0:0:0:0:
104,156,159326,5,8,0:0:0:0:
104,156,159403,1,0,0:0:0:0:
104,156,159480,1,8,0:0:0:0:
104,156,159557,1,0,0:0:0:0:
104,156,159633,1,8,0:0:0:0:
256,36,159787,5,2,0:0:0:0:
256,36,159864,1,8,0:0:0:0:
256,36,159941,1,8,0:0:0:0:
256,196,160095,1,4,0:0:0:0:
264,368,160249,1,2,0:0:0:0:
264,368,160326,1,2,0:0:0:0:
264,368,160403,1,0,0:0:0:0:
408,88,160556,5,8,0:0:0:0:
408,88,160633,1,8,0:0:0:0:
408,88,160710,1,4,0:0:0:0:
408,88,160787,1,0,0:0:0:0:
408,88,160864,1,2,0:0:0:0:
152,92,161018,5,8,0:0:0:0:
152,92,161095,1,0,0:0:0:0:
152,92,161172,1,8,0:0:0:0:
256,240,161326,1,8,0:0:0:0:
32,204,161479,1,2,0:0:0:0:
32,204,161556,1,0,0:0:0:0:
32,204,161633,1,2,0:0:0:0:
176,268,161787,5,8,0:0:0:0:
224,260,161864,1,0,0:0:0:0:
272,252,161941,1,8,0:0:0:0:
320,244,162018,1,0,0:0:0:0:
368,236,162095,1,8,0:0:0:0:
328,148,162249,5,8,0:0:0:0:
376,132,162325,1,8,0:0:0:0:
424,116,162402,1,4,0:0:0:0:
256,32,162556,1,2,0:0:0:0:
184,148,162710,1,8,0:0:0:0:
136,132,162786,1,8,0:0:0:0:
88,116,162863,1,4,0:0:0:0:
104,296,163018,5,8,0:0:0:0:
152,312,163095,1,0,0:0:0:0:
204,312,163172,1,8,0:0:0:0:
252,296,163248,1,0,0:0:0:0:
296,276,163325,2,4,L|392:236,1,62.9999980773926
424,196,163479,5,8,0:0:0:0:
384,164,163556,1,0,0:0:0:0:
376,116,163633,1,0,0:0:0:0:
396,72,163710,1,0,0:0:0:0:
448,37,163787,1,8,0:0:0:0:
432,98,163864,1,0,0:0:0:0:
376,116,163941,1,8,0:0:0:0:
312,115,164018,1,0,0:0:0:0:
253,92,164095,5,8,0:0:0:0:
201,118,164171,1,0,0:0:0:0:
158,164,164248,2,4,P|140:209|138:253,1,62.9999980773926
256,320,164402,5,8,0:0:0:0:
304,328,164479,1,0,0:0:0:0:
352,336,164556,2,4,L|444:348,1,62.9999980773926
256,176,164710,5,8,0:0:0:0:
208,188,164787,1,0,0:0:0:0:
160,200,164864,2,4,L|84:216,1,62.9999980773926
312,56,165017,1,8,0:0:0:0:
360,72,165094,1,0,0:0:0:0:
408,88,165171,2,0,L|484:112,1,62.9999980773926
196,286,165325,2,0,L|136:268,1,62.9999980773926
408,88,165479,6,0,L|408:25,1,62.9999980773926
160,200,165633,2,0,L|160:137,1,62.9999980773926
352,336,165787,2,0,L|352:273,1,62.9999980773926
168,84,166094,5,0,0:0:0:0:
168,148,166171,1,0,0:0:0:0:
168,212,166248,1,0,0:0:0:0:
168,276,166325,1,0,0:0:0:0:
168,340,166402,1,0,0:0:0:0:
364,36,166709,5,0,0:0:0:0:
364,100,166786,1,0,0:0:0:0:
364,164,166863,1,0,0:0:0:0:
364,228,166940,1,0,0:0:0:0:
364,292,167017,1,0,0:0:0:0:
312,328,167094,5,0,0:0:0:0:
260,292,167171,1,0,0:0:0:0:
252,228,167248,1,0,0:0:0:0:
280,172,167325,1,0,0:0:0:0:
