osu file format v14

[General]
AudioFilename: audio.mp3
AudioLeadIn: 0
PreviewTime: -1
Countdown: 1
SampleSet: Normal
StackLeniency: 0.7
Mode: 0
LetterboxInBreaks: 0
WidescreenStoryboard: 0

[Editor]
DistanceSpacing: 1.3
BeatDivisor: 4
GridSize: 4
TimelineZoom: 3.599999

[Metadata]
Title:Taiyou Ga Hoshiidake
TitleUnicode:Taiyou Ga Hoshiidake
Artist:9mm Parabellum Bullet
ArtistUnicode:9mm Parabellum Bullet
Creator:-Levi-
Version:High Impact Bullet
Source:
Tags:
BeatmapID:1141188
BeatmapSetID:538802

[Difficulty]
HPDrainRate:5.2
CircleSize:4
OverallDifficulty:8.7
ApproachRate:9.6
SliderMultiplier:1.4
SliderTickRate:1

[Events]
//Background and Video events
0,0,"Berserk-Wallpaper-by-Yoroiookami.png",0,0
//Break Periods
2,70919,73886
//Storyboard Layer 0 (Background)
//Storyboard Layer 1 (Fail)
//Storyboard Layer 2 (Pass)
//Storyboard Layer 3 (Foreground)
//Storyboard Sound Samples

[TimingPoints]
-42,307.660752743308,4,1,0,100,1,0
573,-100,4,2,0,75,0,0
1803,-100,4,3,0,70,0,0
2111,-100,4,3,0,60,0,0
2419,-100,4,3,0,50,0,0
2726,-100,4,3,0,50,0,0
3034,-100,4,3,0,60,0,0
3342,-100,4,3,0,65,0,0
3649,-100,4,3,0,70,0,0
3957,-100,4,3,0,75,0,0
4880,-100,4,3,0,70,0,0
5188,-100,4,3,0,60,0,0
5495,-100,4,3,0,50,0,0
5803,-100,4,3,0,60,0,0
6111,-100,4,3,0,65,0,0
6418,-100,4,3,0,75,0,0
6726,-66.6666666666667,4,1,0,80,0,0
6880,-66.6666666666667,4,3,0,80,0,0
7034,-66.6666666666667,4,1,0,80,0,0
7188,-66.6666666666667,4,3,0,80,0,0
7341,-66.6666666666667,4,1,0,80,0,0
7495,-66.6666666666667,4,3,0,80,0,0
7649,-66.6666666666667,4,1,0,80,0,0
7803,-66.6666666666667,4,3,0,80,0,0
9187,-66.6666666666667,4,1,0,80,0,0
10418,-57.1428571428571,4,1,0,80,0,0
11033,-200,4,1,0,80,0,0
11341,-66.6666666666667,4,1,0,80,0,1
19032,-66.6666666666667,4,1,0,80,0,0
21494,-133.333333333333,4,2,0,80,0,0
30108,-100,4,1,0,80,0,0
31647,-100,4,2,0,80,0,0
40569,-83.3333333333333,4,1,0,80,0,0
48568,-66.6666666666667,4,1,0,80,0,1
50414,-66.6666666666667,4,1,0,30,0,1
50722,-66.6666666666667,4,1,0,75,0,1
51029,-55.5555555555556,4,1,0,80,0,0
60567,-55.5555555555556,4,1,0,80,0,1
62720,-55.5555555555556,4,1,0,80,0,0
70719,-133.333333333333,4,1,0,80,0,0
74411,-133.333333333333,4,1,0,80,0,0
75642,-133.333333333333,4,2,0,80,0,0
85487,-100,4,3,0,100,0,1
85718,-100,4,1,0,5,0,1
85795,-100,4,3,0,100,0,1
86026,-100,4,1,0,5,0,1
86103,-100,4,3,0,100,0,1
86333,-100,4,1,0,5,0,1
86410,-100,4,3,0,100,0,1
86641,-100,4,1,0,5,0,1
86718,-100,4,3,0,100,0,1
86949,-100,4,1,0,5,0,1
87025,-100,4,3,0,100,0,1
87256,-100,4,1,0,5,0,1
87333,-100,4,3,0,100,0,1
87564,-100,4,1,0,5,0,1
87641,-100,4,3,0,100,0,1
87872,-100,4,1,0,5,0,1
87948,-111.111111111111,4,2,0,100,0,0
90410,-100,4,3,0,100,0,1
92333,-100,4,1,0,5,0,1
92410,-100,4,1,0,80,0,1
92871,-111.111111111111,4,2,0,80,0,0
95332,-90.9090909090909,4,1,0,80,0,0
102716,-66.6666666666667,4,1,0,80,0,1
105177,-125,4,1,0,80,0,0
110098,-100,4,1,0,80,0,0
113177,-66.6666666666667,4,1,0,80,0,0
115023,-83.3333333333333,4,1,0,75,0,0
115330,-83.3333333333333,4,1,0,70,0,0
115638,-83.3333333333333,4,1,0,60,0,0
115946,-83.3333333333333,4,1,0,50,0,0
116253,-83.3333333333333,4,1,0,50,0,0
116561,-83.3333333333333,4,1,0,60,0,0
116869,-83.3333333333333,4,1,0,65,0,0
117176,-83.3333333333333,4,1,0,70,0,0
119945,-71.4285714285714,4,1,0,80,0,0
123791,-71.4285714285714,4,1,0,70,0,0
124406,-71.4285714285714,4,1,0,55,0,0
125022,-71.4285714285714,4,1,0,80,0,0
127329,-55.5555555555556,4,1,0,80,0,0
133482,-100,4,1,0,80,0,0
134713,-71.4285714285714,4,1,0,80,0,0
135328,-62.5,4,1,0,80,0,0
140251,-58.8235294117647,4,1,0,80,0,0
147946,-55.5555555555556,4,1,0,80,0,1
151942,-50,4,1,0,80,0,0
153173,-52.6315789473684,4,1,0,80,0,1
157787,-55.5555555555556,4,1,0,80,0,0
163018,-55.5555555555556,4,1,0,80,0,1
165479,-55.5555555555556,4,1,0,80,0,0
167633,-200,4,1,0,80,0,0

[HitObjects]
152,64,573,5,4,0:0:0:0:
152,300,880,1,4,0:0:0:0:
328,104,1188,1,4,0:0:0:0:
120,152,1496,1,4,0:0:0:0:
224,256,1650,1,4,0:0:0:0:
320,352,1803,1,2,0:0:0:0:
360,332,1880,1,0,0:0:0:0:
388,308,1957,1,2,0:0:0:0:
404,276,2034,1,0,0:0:0:0:
404,248,2111,5,2,0:0:0:0:
396,220,2188,1,0,0:0:0:0:
384,192,2265,1,2,0:0:0:0:
368,168,2342,1,0,0:0:0:0:
352,152,2419,5,2,0:0:0:0:
336,136,2496,1,0,0:0:0:0:
320,120,2573,1,2,0:0:0:0:
304,104,2650,1,0,0:0:0:0:
292,76,2726,5,2,0:0:0:0:
292,44,2803,1,0,0:0:0:0:
316,24,2880,1,2,0:0:0:0:
348,28,2957,1,0,0:0:0:0:
368,60,3034,5,2,0:0:0:0:
360,96,3111,1,0,0:0:0:0:
336,128,3188,1,2,0:0:0:0:
304,148,3265,1,0,0:0:0:0:
268,152,3342,5,2,0:0:0:0:
232,144,3419,1,0,0:0:0:0:
200,132,3496,1,2,0:0:0:0:
168,120,3573,1,0,0:0:0:0:
128,120,3649,5,2,0:0:0:0:
92,132,3726,1,0,0:0:0:0:
72,164,3803,1,2,0:0:0:0:
76,204,3880,1,0,0:0:0:0:
96,240,3957,5,2,0:0:0:0:
132,264,4034,1,0,0:0:0:0:
172,272,4111,1,2,0:0:0:0:
212,260,4188,1,0,0:0:0:0:
252,264,4265,6,0,L|296:280,3,35,2|0|2|0,0:0|0:0|0:0|0:0,0:0:0:0:
232,136,4572,2,0,L|252:88,3,35,2|0|2|0,0:0|0:0|0:0|0:0,0:0:0:0:
352,56,4880,1,2,0:0:0:0:
384,72,4957,1,0,0:0:0:0:
396,104,5034,1,2,0:0:0:0:
388,140,5111,1,0,0:0:0:0:
368,176,5188,5,2,0:0:0:0:
384,216,5265,1,0,0:0:0:0:
388,256,5342,1,2,0:0:0:0:
376,296,5418,1,0,0:0:0:0:
336,324,5495,5,2,0:0:0:0:
288,320,5572,1,0,0:0:0:0:
252,288,5649,1,2,0:0:0:0:
220,252,5726,1,0,0:0:0:0:
216,200,5803,5,2,0:0:0:0:
232,152,5880,1,0,0:0:0:0:
212,100,5957,1,2,0:0:0:0:
160,88,6034,1,0,0:0:0:0:
116,124,6111,5,2,0:0:0:0:
116,180,6188,1,0,0:0:0:0:
164,208,6265,1,2,0:0:0:0:
212,204,6341,1,0,0:0:0:0:
260,188,6418,5,2,0:0:0:0:
304,164,6495,1,2,0:0:0:0:
336,128,6572,1,2,0:0:0:0:
356,84,6649,1,2,0:0:0:0:
376,44,6726,2,4,L|432:12,1,52.5000020027161
440,148,6880,1,8,0:0:0:0:
440,148,6957,1,0,0:0:0:0:
440,148,7034,6,8,L|504:128,1,52.5000020027161,4|8,0:0|0:0,0:0:0:0:
388,264,7188,1,8,0:0:0:0:
388,264,7264,1,0,0:0:0:0:
388,264,7341,2,4,L|448:288,1,52.5000020027161
272,356,7495,1,8,0:0:0:0:
272,356,7572,1,0,0:0:0:0:
272,356,7649,6,4,L|340:364,1,52.5000020027161
184,308,7803,1,0,0:0:0:0:
144,276,7880,1,0,0:0:0:0:
120,228,7957,1,0,0:0:0:0:
108,176,8034,1,0,0:0:0:0:
116,124,8111,1,0,0:0:0:0:
156,88,8187,1,0,0:0:0:0:
204,68,8264,2,0,L|248:16,3,52.5000020027161
316,164,8572,6,0,L|352:116,2,52.5000020027161
288,208,8803,1,0,0:0:0:0:
256,248,8880,1,0,0:0:0:0:
208,272,8957,1,0,0:0:0:0:
156,284,9033,1,0,0:0:0:0:
104,272,9110,1,0,0:0:0:0:
60,240,9187,6,4,L|12:192,1,52.5000020027161
148,144,9341,1,8,0:0:0:0:
148,144,9418,1,0,0:0:0:0:
148,144,9495,2,4,L|96:92,1,52.5000020027161
272,88,9649,1,8,0:0:0:0:
272,88,9726,1,0,0:0:0:0:
272,88,9803,6,4,L|240:36,1,52.5000020027161
400,64,9956,1,8,0:0:0:0:
400,64,10033,1,0,0:0:0:0:
400,64,10110,2,4,L|400:-4,2,52.5000020027161
400,268,10418,1,8,0:0:0:0:
148,340,10572,1,8,0:0:0:0:
344,152,10726,1,8,0:0:0:0:
256,384,10879,1,8,0:0:0:0:
256,100,11033,2,2,L|256:24,1,70,4|2,0:0|0:0,0:0:0:0:
76,76,11649,5,8,0:0:0:0:
116,292,11802,2,0,P|148:328|184:276,1,105.000004005432,0|8,0:0|0:0,0:0:0:0:
320,72,12110,1,0,0:0:0:0:
320,72,12187,1,8,0:0:0:0:
320,72,12264,1,0,0:0:0:0:
344,288,12418,2,0,L|268:368,1,105.000004005432,8|0,0:0|0:0,0:0:0:0:
48,196,12725,1,8,0:0:0:0:
228,88,12879,1,0,0:0:0:0:
216,300,13033,1,8,0:0:0:0:
48,124,13187,6,0,L|132:116,1,52.5000020027161
260,152,13341,2,2,L|320:116,1,52.5000020027161
376,32,13495,1,4,0:0:0:0:
392,228,13648,1,8,0:0:0:0:
168,112,13802,2,0,L|96:76,2,52.5000020027161,8|8|0,0:0|0:0|0:0,0:0:0:0:
348,208,14110,1,8,0:0:0:0:
84,148,14264,1,0,0:0:0:0:
248,312,14418,1,8,0:0:0:0:
144,40,14571,1,0,0:0:0:0:
192,328,14725,6,2,B|216:352|244:348|256:316|248:296|220:288,1,105.000004005432,2|0,0:0|0:0,0:0:0:0:
8,148,15033,1,8,0:0:0:0:
8,384,15187,1,0,0:0:0:0:
132,152,15341,1,8,0:0:0:0:
156,116,15417,1,0,0:0:0:0:
184,84,15494,1,0,0:0:0:0:
228,56,15571,5,8,0:0:0:0:
280,48,15648,1,0,0:0:0:0:
332,52,15725,1,0,0:0:0:0:
388,80,15802,5,8,0:0:0:0:
432,124,15879,1,0,0:0:0:0:
468,176,15956,6,2,P|476:240|436:280,1,105.000004005432
264,376,16264,1,8,0:0:0:0:
212,340,16340,1,0,0:0:0:0:
168,292,16417,1,8,0:0:0:0:
136,236,16494,1,0,0:0:0:0:
112,176,16571,6,8,L|92:100,1,52.5000020027161,8|0,0:0|0:0,0:0:0:0:
72,20,16725,1,4,0:0:0:0:
292,128,16879,1,0,0:0:0:0:
112,248,17033,1,8,0:0:0:0:
216,32,17187,1,0,0:0:0:0:
252,304,17340,1,8,0:0:0:0:
36,212,17494,1,0,0:0:0:0:
276,48,17648,2,2,L|260:116,1,52.5000020027161,2|0,0:0|0:0,0:0:0:0:
172,264,17802,2,2,L|200:184,1,52.5000020027161,2|0,0:0|0:0,0:0:0:0:
276,48,17956,5,4,0:0:0:0:
272,296,18109,1,0,0:0:0:0:
136,72,18263,1,8,0:0:0:0:
136,72,18340,1,8,0:0:0:0:
136,72,18417,1,4,0:0:0:0:
96,328,18571,1,0,0:0:0:0:
188,168,18725,1,0,0:0:0:0:
320,296,18879,1,0,0:0:0:0:
396,168,19032,5,8,0:0:0:0:
412,124,19109,1,0,0:0:0:0:
400,76,19186,1,8,0:0:0:0:
364,44,19263,1,0,0:0:0:0:
320,28,19340,2,8,L|228:0,3,52.5000020027161,10|8|10|8,0:0|0:0|0:0|0:0,0:0:0:0:
240,216,19648,2,0,L|196:188,3,52.5000020027161,2|0|2|0,0:0|0:0|0:0|0:0,0:0:0:0:
84,316,19955,2,8,P|104:340|132:340,3,52.5000020027161,10|8|10|8,0:0|0:0|0:0|0:0,0:0:0:0:
172,352,20263,5,8,0:0:0:0:
232,328,20340,1,0,0:0:0:0:
296,336,20417,1,0,0:0:0:0:
356,356,20494,1,0,0:0:0:0:
412,336,20571,5,8,0:0:0:0:
416,280,20648,1,0,0:0:0:0:
372,240,20725,1,0,0:0:0:0:
316,252,20802,1,0,0:0:0:0:
264,252,20878,5,8,0:0:0:0:
216,232,20955,1,0,0:0:0:0:
188,188,21032,1,8,0:0:0:0:
196,136,21109,1,0,0:0:0:0:
176,100,21186,5,8,0:0:0:0:
136,96,21263,1,8,0:0:0:0:
108,128,21340,1,8,0:0:0:0:
128,164,21417,1,8,0:0:0:0:
144,180,21494,6,4,L|108:244,1,52.5000020027161,4|0,0:0|0:0,0:0:0:0:
192,264,21801,1,0,0:0:0:0:
192,264,21955,1,0,0:0:0:0:
192,264,22109,2,0,L|164:324,1,52.5000020027161
208,192,22417,5,0,0:0:0:0:
120,152,22571,1,0,0:0:0:0:
92,56,22724,2,2,L|160:40,1,52.5000020027161
208,120,23032,2,2,L|272:104,1,52.5000020027161
356,60,23340,5,0,0:0:0:0:
444,120,23494,1,0,0:0:0:0:
372,196,23647,5,0,0:0:0:0:
436,280,23801,1,0,0:0:0:0:
332,296,23955,6,2,L|356:356,1,52.5000020027161
232,232,24263,2,2,L|252:288,1,52.5000020027161
152,324,24570,5,0,0:0:0:0:
64,268,24724,1,0,0:0:0:0:
132,188,24878,6,2,L|168:144,1,52.5000020027161
216,240,25186,5,2,0:0:0:0:
284,160,25339,1,0,0:0:0:0:
388,164,25493,1,2,0:0:0:0:
444,252,25646,1,0,0:0:0:0:
384,340,25801,1,2,0:0:0:0:
280,340,25955,1,0,0:0:0:0:
228,248,26109,1,2,0:0:0:0:
228,248,26262,1,0,0:0:0:0:
228,248,26416,2,2,L|248:200,1,52.5000020027161
156,148,26724,5,2,0:0:0:0:
156,148,26878,1,0,0:0:0:0:
156,148,27032,2,2,L|208:132,1,52.5000020027161
136,56,27339,5,0,0:0:0:0:
240,72,27493,1,0,0:0:0:0:
372,192,27647,5,0,0:0:0:0:
272,164,27801,1,0,0:0:0:0:
156,252,27955,5,0,0:0:0:0:
276,328,28108,1,0,0:0:0:0:
176,348,28262,1,0,0:0:0:0:
252,236,28416,1,0,0:0:0:0:
152,156,28570,2,2,L|172:88,1,52.5000020027161
152,156,28878,2,2,L|120:108,1,52.5000020027161
32,168,29185,5,0,0:0:0:0:
88,256,29339,1,0,0:0:0:0:
184,292,29493,1,0,0:0:0:0:
284,260,29647,1,0,0:0:0:0:
328,164,29801,2,2,L|304:108,1,52.5000020027161
188,44,30108,1,0,0:0:0:0:
60,104,30262,5,0,0:0:0:0:
140,216,30416,1,0,0:0:0:0:
264,280,30570,1,0,0:0:0:0:
264,280,30647,1,0,0:0:0:0:
264,280,30724,2,4,L|312:304,1,35
264,360,30877,1,0,0:0:0:0:
140,304,31031,1,0,0:0:0:0:
72,164,31185,1,0,0:0:0:0:
204,64,31339,2,2,L|280:24,1,70
444,136,31647,5,0,0:0:0:0:
320,228,31800,1,0,0:0:0:0:
456,292,31954,1,0,0:0:0:0:
320,228,32108,5,0,0:0:0:0:
200,104,32262,1,0,0:0:0:0:
152,256,32416,1,0,0:0:0:0:
68,332,32570,2,2,L|140:328,1,70
268,256,32877,2,2,L|356:252,1,70
144,180,33185,2,2,L|56:180,1,70
168,36,33493,5,0,0:0:0:0:
328,76,33646,1,0,0:0:0:0:
196,176,33800,5,0,0:0:0:0:
364,224,33954,1,0,0:0:0:0:
236,308,34108,2,2,L|308:332,1,70
48,236,34416,2,2,L|132:264,1,70
124,76,34723,5,2,0:0:0:0:
256,184,34877,1,0,0:0:0:0:
380,76,35031,1,2,0:0:0:0:
256,212,35185,1,0,0:0:0:0:
124,108,35338,1,2,0:0:0:0:
256,240,35492,1,0,0:0:0:0:
376,112,35646,1,2,0:0:0:0:
256,272,35800,1,0,0:0:0:0:
128,352,35954,2,2,B|96:380|96:380|56:348,1,70
72,60,36261,5,2,0:0:0:0:
136,208,36415,1,0,0:0:0:0:
232,64,36569,1,2,0:0:0:0:
48,208,36723,5,2,0:0:0:0:
232,208,36877,1,0,0:0:0:0:
140,64,37031,1,2,0:0:0:0:
136,260,37184,2,2,P|128:300|144:344,1,70
368,328,37492,2,2,P|372:292|360:240,1,70
256,304,37800,1,0,0:0:0:0:
256,84,37954,1,2,0:0:0:0:
256,216,38107,1,0,0:0:0:0:
256,16,38261,1,2,0:0:0:0:
144,136,38415,6,2,L|92:196,1,70
364,288,38723,2,2,L|420:360,1,70
344,136,39030,6,2,L|404:216,1,70
140,280,39338,2,2,L|92:356,1,70
216,100,39646,2,0,B|164:28,2,70,0|2|0,0:0|0:0|0:0,0:0:0:0:
376,260,40107,1,2,0:0:0:0:
152,208,40261,1,0,0:0:0:0:
356,132,40415,1,2,0:0:0:0:
240,312,40569,1,8,0:0:0:0:
240,312,40646,1,0,0:0:0:0:
240,312,40723,1,8,0:0:0:0:
240,312,40799,1,0,0:0:0:0:
240,312,40876,2,4,L|296:380,1,83.9999974365235
404,152,41184,5,0,0:0:0:0:
276,32,41338,1,0,0:0:0:0:
316,248,41492,5,0,0:0:0:0:
172,112,41645,1,0,0:0:0:0:
312,120,41799,1,0,0:0:0:0:
176,240,41953,1,0,0:0:0:0:
32,156,42107,5,8,0:0:0:0:
32,156,42184,1,8,0:0:0:0:
32,156,42261,1,4,0:0:0:0:
156,56,42415,2,2,P|208:32|264:32,1,83.9999974365235
292,156,42722,2,2,P|256:184|204:184,1,83.9999974365235
32,156,43030,1,0,0:0:0:0:
68,312,43184,1,0,0:0:0:0:
236,276,43338,1,0,0:0:0:0:
196,112,43491,1,0,0:0:0:0:
360,72,43645,2,2,P|416:124|428:160,1,83.9999974365235
420,300,43953,2,2,P|368:356|332:368,1,83.9999974365235
216,276,44261,5,0,0:0:0:0:
48,280,44414,1,0,0:0:0:0:
212,244,44568,5,0,0:0:0:0:
84,136,44722,1,0,0:0:0:0:
232,216,44876,5,0,0:0:0:0:
184,56,45030,1,0,0:0:0:0:
260,208,45184,2,2,L|348:168,1,83.9999974365235
372,336,45491,2,0,L|332:240,1,83.9999974365235
196,264,45799,2,0,L|236:352,1,83.9999974365235
52,276,46107,2,2,L|92:368,1,83.9999974365235
248,316,46414,5,0,0:0:0:0:
248,148,46568,1,0,0:0:0:0:
188,304,46722,1,0,0:0:0:0:
308,140,46876,1,0,0:0:0:0:
140,268,47030,1,0,0:0:0:0:
360,168,47183,1,0,0:0:0:0:
144,64,47337,2,2,L|56:8,2,83.9999974365235
312,192,47799,5,0,0:0:0:0:
164,344,47953,1,0,0:0:0:0:
132,136,48106,5,0,0:0:0:0:
32,320,48260,1,0,0:0:0:0:
28,108,48414,1,0,0:0:0:0:
188,292,48568,2,2,P|232:324|240:296,1,105.000004005432
320,108,48876,5,8,0:0:0:0:
144,296,49029,1,8,0:0:0:0:
284,56,49183,1,8,0:0:0:0:
216,336,49337,1,8,0:0:0:0:
224,40,49491,1,8,0:0:0:0:
296,352,49645,1,8,0:0:0:0:
144,52,49799,5,8,0:0:0:0:
432,184,49952,1,4,0:0:0:0:
64,232,50106,1,4,0:0:0:0:
348,96,50260,1,4,0:0:0:0:
136,352,50414,5,8,0:0:0:0:
136,352,50568,1,8,0:0:0:0:
316,212,50722,2,2,L|420:144,1,105.000004005432
124,52,51029,1,8,0:0:0:0:
144,220,51183,1,0,0:0:0:0:
280,284,51337,1,8,0:0:0:0:
72,44,51491,5,0,0:0:0:0:
100,256,51645,1,8,0:0:0:0:
280,340,51798,1,0,0:0:0:0:
268,112,51952,2,8,L|344:224,1,125.999996154785
100,256,52260,2,0,B|156:232|156:232|156:244|156:244|236:216,1,125.999996154785
324,204,52567,5,8,0:0:0:0:
364,332,52721,5,0,0:0:0:0:
192,180,52875,1,8,0:0:0:0:
416,100,53029,1,0,0:0:0:0:
396,336,53183,5,8,0:0:0:0:
224,144,53337,1,0,0:0:0:0:
424,168,53491,1,8,0:0:0:0:
156,160,53644,1,0,0:0:0:0:
352,256,53798,6,8,L|280:236,1,62.9999980773926
94,171,53952,2,0,L|158:159,1,62.9999980773926
360,120,54106,1,4,0:0:0:0:
128,244,54260,1,8,0:0:0:0:
164,92,54413,5,8,0:0:0:0:
272,324,54567,1,8,0:0:0:0:
216,44,54721,5,8,0:0:0:0:
184,324,54875,1,0,0:0:0:0:
148,44,55029,1,8,0:0:0:0:
256,316,55183,1,0,0:0:0:0:
72,136,55336,1,8,0:0:0:0:
72,136,55413,1,0,0:0:0:0:
72,136,55490,1,4,0:0:0:0:
180,264,55644,5,8,0:0:0:0:
216,272,55721,1,0,0:0:0:0:
252,260,55798,1,8,0:0:0:0:
280,236,55875,1,0,0:0:0:0:
300,204,55952,6,4,L|320:140,1,62.9999980773926
336,76,56106,1,0,0:0:0:0:
336,312,56259,1,0,0:0:0:0:
204,128,56413,1,8,0:0:0:0:
420,196,56567,1,0,0:0:0:0:
196,264,56721,1,8,0:0:0:0:
56,192,56875,5,0,0:0:0:0:
256,192,57029,1,8,0:0:0:0:
68,76,57182,2,0,B|128:52|128:52|176:96,1,125.999996154785
444,308,57490,2,4,B|384:332|384:332|336:288,1,125.999996154785
256,196,57798,1,8,0:0:0:0:
173,93,57952,5,0,0:0:0:0:
338,290,58106,1,8,0:0:0:0:
344,88,58259,1,0,0:0:0:0:
172,288,58413,1,8,0:0:0:0:
256,40,58567,1,0,0:0:0:0:
256,344,58721,1,8,0:0:0:0:
320,24,58875,5,8,0:0:0:0:
188,352,59028,1,8,0:0:0:0:
140,60,59182,1,4,0:0:0:0:
352,304,59336,2,2,L|396:356,1,62.9999980773926
344,104,59490,2,0,L|388:156,1,62.9999980773926
428,200,59644,1,8,0:0:0:0:
432,264,59721,1,0,0:0:0:0:
392,312,59798,1,8,0:0:0:0:
328,312,59874,1,0,0:0:0:0:
276,276,59951,5,8,0:0:0:0:
212,280,60028,1,0,0:0:0:0:
172,328,60105,1,8,0:0:0:0:
116,352,60182,1,0,0:0:0:0:
60,324,60259,5,8,0:0:0:0:
48,260,60336,1,0,0:0:0:0:
80,208,60413,1,8,0:0:0:0:
140,188,60490,1,0,0:0:0:0:
188,148,60567,5,8,0:0:0:0:
212,88,60644,1,0,0:0:0:0:
212,88,60720,2,4,L|244:20,1,62.9999980773926
324,188,60874,5,8,0:0:0:0:
324,188,60951,1,0,0:0:0:0:
324,188,61028,2,4,L|352:128,1,62.9999980773926
96,328,61182,5,8,0:0:0:0:
96,328,61259,1,0,0:0:0:0:
96,328,61336,2,4,L|128:260,1,62.9999980773926
396,312,61490,5,8,0:0:0:0:
396,312,61567,1,0,0:0:0:0:
396,312,61644,2,4,L|432:244,1,62.9999980773926
376,72,61797,1,4,0:0:0:0:
260,332,61951,1,2,0:0:0:0:
176,80,62105,5,8,0:0:0:0:
128,108,62182,1,0,0:0:0:0:
104,160,62259,1,8,0:0:0:0:
124,212,62336,1,0,0:0:0:0:
172,240,62413,5,8,0:0:0:0:
228,236,62490,1,0,0:0:0:0:
264,192,62566,1,8,0:0:0:0:
320,184,62643,1,0,0:0:0:0:
372,212,62720,5,4,0:0:0:0:
280,48,63028,2,2,B|336:80|336:80|408:72,1,125.999996154785
252,264,63336,2,2,B|316:256|316:256|376:316,1,125.999996154785
396,368,63643,1,0,0:0:0:0:
308,136,63797,1,0,0:0:0:0:
192,344,63951,1,0,0:0:0:0:
420,212,64105,1,0,0:0:0:0:
156,304,64259,2,2,L|216:260,1,62.9999980773926
360,156,64412,2,2,L|420:112,1,62.9999980773926
352,44,64566,5,8,0:0:0:0:
312,64,64643,1,0,0:0:0:0:
292,116,64720,1,8,0:0:0:0:
328,160,64797,1,0,0:0:0:0:
336,216,64874,1,8,0:0:0:0:
296,256,64951,1,0,0:0:0:0:
240,252,65028,1,8,0:0:0:0:
196,220,65105,1,0,0:0:0:0:
176,168,65182,2,4,L|136:100,1,62.9999980773926
112,340,65335,5,8,0:0:0:0:
68,296,65412,1,0,0:0:0:0:
44,236,65489,1,8,0:0:0:0:
40,172,65566,1,0,0:0:0:0:
56,112,65643,1,4,0:0:0:0:
212,56,65797,5,0,0:0:0:0:
296,256,65951,1,0,0:0:0:0:
372,108,66105,1,0,0:0:0:0:
452,324,66258,1,0,0:0:0:0:
256,164,66412,2,2,L|152:72,1,125.999996154785
344,336,66720,2,2,L|208:220,1,125.999996154785
161,80,67028,5,8,0:0:0:0:
364,332,67181,1,8,0:0:0:0:
308,40,67335,1,8,0:0:0:0:
184,348,67489,1,8,0:0:0:0:
412,60,67643,5,4,0:0:0:0:
284,208,67797,1,0,0:0:0:0:
224,232,67874,1,0,0:0:0:0:
164,216,67951,1,0,0:0:0:0:
120,172,68027,1,8,0:0:0:0:
184,144,68104,5,8,0:0:0:0:
212,80,68181,1,0,0:0:0:0:
196,12,68258,1,4,0:0:0:0:
100,236,68412,5,0,0:0:0:0:
288,40,68566,1,0,0:0:0:0:
128,304,68720,1,0,0:0:0:0:
336,92,68874,1,0,0:0:0:0:
80,168,69027,1,0,0:0:0:0:
384,148,69181,5,0,0:0:0:0:
256,336,69335,1,0,0:0:0:0:
92,96,69489,1,8,0:0:0:0:
124,56,69566,1,0,0:0:0:0:
172,48,69643,1,8,0:0:0:0:
216,68,69720,5,0,0:0:0:0:
236,112,69796,1,8,0:0:0:0:
216,156,69873,1,0,0:0:0:0:
180,192,69950,5,8,0:0:0:0:
172,240,70027,1,0,0:0:0:0:
204,280,70104,1,8,0:0:0:0:
256,192,70181,12,4,70719,0:0:0:0:
104,60,74411,5,2,0:0:0:0:
148,124,74565,1,8,0:0:0:0:
164,144,74642,1,0,0:0:0:0:
180,164,74719,1,8,0:0:0:0:
196,184,74796,1,0,0:0:0:0:
212,204,74873,1,8,0:0:0:0:
228,224,74950,1,0,0:0:0:0:
244,244,75027,2,4,L|280:292,1,52.5000020027161
392,232,75642,5,0,0:0:0:0:
288,112,75796,1,0,0:0:0:0:
288,288,75950,5,0,0:0:0:0:
184,180,76104,1,0,0:0:0:0:
180,340,76257,6,2,L|136:288,1,52.5000020027161
88,236,76565,2,2,L|40:176,1,52.5000020027161
160,44,76873,5,0,0:0:0:0:
264,64,77027,1,0,0:0:0:0:
164,128,77180,5,0,0:0:0:0:
248,188,77334,1,0,0:0:0:0:
144,192,77488,5,0,0:0:0:0:
228,132,77642,1,0,0:0:0:0:
308,64,77796,5,0,0:0:0:0:
228,132,77950,1,0,0:0:0:0:
124,152,78103,6,2,L|124:224,1,52.5000020027161
176,296,78411,2,2,L|176:236,1,52.5000020027161
240,156,78719,2,2,L|240:216,1,52.5000020027161
340,244,79026,2,2,L|340:308,1,52.5000020027161
424,40,79334,5,2,0:0:0:0:
424,196,79488,1,0,0:0:0:0:
424,116,79642,5,2,0:0:0:0:
424,276,79795,1,0,0:0:0:0:
424,196,79949,5,2,0:0:0:0:
424,356,80103,6,4,L|424:280,1,52.5000020027161
256,356,80411,2,2,L|256:292,1,52.5000020027161
168,112,80718,5,2,0:0:0:0:
164,276,80872,1,2,0:0:0:0:
80,192,81026,5,2,0:0:0:0:
256,192,81180,1,2,0:0:0:0:
344,272,81334,5,2,0:0:0:0:
344,108,81488,1,2,0:0:0:0:
432,192,81642,5,2,0:0:0:0:
256,192,81796,1,2,0:0:0:0:
256,64,81949,5,2,0:0:0:0:
80,64,82103,1,2,0:0:0:0:
256,196,82257,5,2,0:0:0:0:
432,192,82411,1,2,0:0:0:0:
256,320,82564,5,2,0:0:0:0:
80,320,82718,1,2,0:0:0:0:
256,192,82872,5,2,0:0:0:0:
112,192,83026,2,4,L|56:192,1,52.5000020027161
256,192,83334,6,2,L|312:192,1,52.5000020027161
59,192,83641,2,2,L|3:192,1,52.5000020027161
176,192,83949,5,4,0:0:0:0:
312,192,84103,2,2,L|481:192,1,157.500006008148
468,328,84718,5,8,0:0:0:0:
308,328,84872,1,0,0:0:0:0:
464,72,85026,5,8,0:0:0:0:
296,76,85180,1,0,0:0:0:0:
176,192,85333,5,8,0:0:0:0:
24,76,85487,2,0,L|132:76,1,105
24,192,85795,2,0,L|140:192,1,105
20,320,86103,2,0,L|152:320,1,105
200,72,86410,2,0,L|316:72,1,105
196,192,86718,2,0,L|304:192,1,105
192,320,87025,2,0,L|304:320,1,105
360,24,87333,2,0,L|360:140,1,105
360,240,87641,2,0,L|360:352,1,105
136,80,87948,5,0,0:0:0:0:
132,256,88102,1,0,0:0:0:0:
280,172,88256,1,0,0:0:0:0:
64,176,88410,1,0,0:0:0:0:
256,80,88564,1,0,0:0:0:0:
228,272,88718,1,0,0:0:0:0:
84,260,88871,6,2,L|60:196,1,62.9999980773926
248,352,89179,2,2,L|216:284,1,62.9999980773926
256,140,89487,2,2,L|224:76,1,62.9999980773926
456,264,89794,2,2,L|416:204,1,62.9999980773926
380,56,90102,2,2,L|336:-4,1,62.9999980773926
28,72,90410,6,0,L|152:72,1,105,0|4,0:0|0:0,0:0:0:0:
32,192,90717,5,0,0:0:0:0:
136,192,90871,1,4,0:0:0:0:
136,320,91179,5,0,0:0:0:0:
28,320,91333,1,4,0:0:0:0:
200,72,91640,5,0,0:0:0:0:
305,72,91794,1,4,0:0:0:0:
204,192,92102,6,0,L|308:192,1,105,0|4,0:0|0:0,0:0:0:0:
312,324,92410,5,0,0:0:0:0:
204,324,92563,1,4,0:0:0:0:
428,192,92871,5,0,0:0:0:0:
296,80,93025,1,0,0:0:0:0:
268,256,93179,1,0,0:0:0:0:
404,76,93333,1,0,0:0:0:0:
436,272,93486,1,0,0:0:0:0:
228,88,93640,1,0,0:0:0:0:
260,296,93794,2,2,P|288:324|272:272,1,125.999996154785
296,267,94179,5,0,0:0:0:0:
296,267,94256,1,8,0:0:0:0:
296,267,94332,1,0,0:0:0:0:
308,280,94409,1,8,0:0:0:0:
208,128,94563,5,8,0:0:0:0:
180,104,94640,1,0,0:0:0:0:
144,96,94717,1,8,0:0:0:0:
108,112,94794,1,0,0:0:0:0:
92,144,94871,1,8,0:0:0:0:
104,180,94948,1,0,0:0:0:0:
128,212,95025,2,4,L|172:260,1,62.9999980773926
272,352,95332,5,0,0:0:0:0:
424,252,95486,1,0,0:0:0:0:
260,176,95640,1,0,0:0:0:0:
364,352,95794,1,0,0:0:0:0:
216,276,95948,1,0,0:0:0:0:
372,192,96101,2,2,P|412:160|388:148,1,77.0000023498536
272,24,96409,5,0,0:0:0:0:
56,124,96563,1,0,0:0:0:0:
272,140,96717,1,0,0:0:0:0:
64,204,96871,1,0,0:0:0:0:
204,272,97024,2,2,B|128:324|128:324|108:264|44:264|4:324,1,231.000007049561
416,320,97794,5,0,0:0:0:0:
404,132,97948,1,0,0:0:0:0:
280,252,98101,1,0,0:0:0:0:
152,124,98255,1,0,0:0:0:0:
276,8,98409,1,0,0:0:0:0:
404,132,98563,1,0,0:0:0:0:
280,252,98717,2,2,L|224:316,1,77.0000023498536
148,216,99024,2,2,L|52:264,1,77.0000023498536
104,100,99332,2,4,L|180:60,1,77.0000023498536
300,80,99640,5,0,0:0:0:0:
288,240,99793,1,0,0:0:0:0:
400,152,99947,1,0,0:0:0:0:
404,308,100101,1,0,0:0:0:0:
296,136,100255,2,2,L|244:48,2,77.0000023498536
404,308,100716,5,0,0:0:0:0:
216,232,100870,1,0,0:0:0:0:
416,228,101024,1,0,0:0:0:0:
224,320,101178,1,0,0:0:0:0:
376,156,101332,1,0,0:0:0:0:
176,272,101486,2,2,L|96:300,2,77.0000023498536
404,200,101947,5,0,0:0:0:0:
204,344,102101,1,0,0:0:0:0:
292,112,102255,1,0,0:0:0:0:
264,336,102409,1,0,0:0:0:0:
344,68,102562,1,0,0:0:0:0:
112,264,102716,5,8,0:0:0:0:
256,32,102870,1,8,0:0:0:0:
288,308,103024,1,8,0:0:0:0:
324,36,103178,1,8,0:0:0:0:
224,304,103332,1,8,0:0:0:0:
384,72,103485,1,8,0:0:0:0:
112,264,103639,1,8,0:0:0:0:
352,336,103793,1,8,0:0:0:0:
256,32,103947,2,2,P|212:64|232:72,1,105.000004005432
428,296,104254,5,4,0:0:0:0:
96,204,104408,1,4,0:0:0:0:
436,112,104562,1,4,0:0:0:0:
300,312,105177,2,2,B|268:280|268:280|252:312|252:312|240:280|240:280|216:304|216:304|204:284|204:284|176:288|148:296,1,224
120,192,106408,2,2,B|152:160|152:160|168:192|168:192|180:160|180:160|204:184|204:184|216:164|216:164|244:168|272:176,1,224
360,80,107639,2,2,B|356:128|356:128|388:128|392:108|392:108|420:136|420:136|416:160|400:172|400:172|384:208|384:208|384:232,1,224
360,312,108562,6,8,L|316:356,1,56
248,328,108869,2,2,B|180:360|180:360|192:284|192:284|96:272,1,224
80,220,109639,1,8,0:0:0:0:
76,152,109792,1,8,0:0:0:0:
116,96,109946,1,8,0:0:0:0:
196,72,110100,6,0,L|284:48,1,70
312,124,110408,2,0,L|396:108,1,70
512,160,110715,6,0,L|420:188,1,70
416,280,111023,2,0,L|324:312,1,70
244,344,111331,2,0,L|148:336,1,70
104,268,111638,5,0,0:0:0:0:
84,172,111792,1,0,0:0:0:0:
128,84,111946,1,0,0:0:0:0:
224,60,112100,1,0,0:0:0:0:
324,56,112254,2,2,L|412:68,1,70
316,176,112561,2,2,L|388:196,1,70
508,232,112869,5,0,0:0:0:0:
428,344,113023,1,0,0:0:0:0:
316,316,113177,5,0,0:0:0:0:
284,324,113254,1,0,0:0:0:0:
256,312,113330,1,0,0:0:0:0:
236,288,113407,1,0,0:0:0:0:
208,256,113484,5,0,0:0:0:0:
168,252,113561,1,0,0:0:0:0:
136,224,113638,1,0,0:0:0:0:
132,184,113715,1,0,0:0:0:0:
112,136,113792,5,0,0:0:0:0:
148,96,113869,1,0,0:0:0:0:
196,80,113946,1,0,0:0:0:0:
244,96,114023,1,0,0:0:0:0:
280,136,114100,6,0,L|340:148,3,52.5000020027161
312,216,114407,2,0,L|372:232,3,52.5000020027161
408,256,114715,5,2,0:0:0:0:
388,348,114869,1,2,0:0:0:0:
296,340,115023,5,0,0:0:0:0:
264,312,115100,1,0,0:0:0:0:
232,284,115176,1,0,0:0:0:0:
200,256,115253,1,0,0:0:0:0:
184,236,115330,1,0,0:0:0:0:
172,216,115407,1,0,0:0:0:0:
164,192,115484,1,0,0:0:0:0:
164,168,115561,1,0,0:0:0:0:
176,144,115638,5,0,0:0:0:0:
192,124,115715,1,0,0:0:0:0:
212,108,115792,1,0,0:0:0:0:
232,92,115869,1,0,0:0:0:0:
264,80,115946,1,0,0:0:0:0:
296,92,116023,1,0,0:0:0:0:
308,124,116099,1,0,0:0:0:0:
292,152,116176,1,0,0:0:0:0:
276,180,116253,5,0,0:0:0:0:
284,212,116330,1,0,0:0:0:0:
312,232,116407,1,0,0:0:0:0:
344,244,116484,1,0,0:0:0:0:
384,236,116561,1,0,0:0:0:0:
408,200,116638,1,0,0:0:0:0:
412,160,116715,1,0,0:0:0:0:
392,124,116792,1,0,0:0:0:0:
352,108,116869,5,0,0:0:0:0:
312,116,116946,1,0,0:0:0:0:
284,148,117022,1,0,0:0:0:0:
272,188,117099,1,0,0:0:0:0:
252,224,117176,1,0,0:0:0:0:
216,244,117253,1,0,0:0:0:0:
176,240,117330,1,0,0:0:0:0:
140,220,117407,1,0,0:0:0:0:
116,184,117484,6,0,L|76:112,3,41.9999987182618,2|0|2|0,0:0|0:0|0:0|0:0,0:0:0:0:
224,124,117792,2,0,L|276:156,3,41.9999987182618,2|0|2|0,0:0|0:0|0:0|0:0,0:0:0:0:
296,168,118099,5,0,0:0:0:0:
340,168,118176,1,0,0:0:0:0:
380,184,118253,1,0,0:0:0:0:
408,216,118330,1,0,0:0:0:0:
412,256,118407,5,0,0:0:0:0:
384,288,118484,1,0,0:0:0:0:
344,300,118561,1,0,0:0:0:0:
308,280,118638,1,0,0:0:0:0:
264,264,118715,5,0,0:0:0:0:
216,276,118791,1,0,0:0:0:0:
176,308,118868,1,0,0:0:0:0:
124,304,118945,1,0,0:0:0:0:
92,268,119022,5,0,0:0:0:0:
108,220,119099,1,0,0:0:0:0:
96,172,119176,1,0,0:0:0:0:
60,136,119253,1,0,0:0:0:0:
48,88,119330,5,0,0:0:0:0:
72,44,119407,1,0,0:0:0:0:
120,32,119484,1,0,0:0:0:0:
168,48,119561,1,0,0:0:0:0:
196,88,119638,5,0,0:0:0:0:
228,128,119714,1,0,0:0:0:0:
276,144,119791,1,0,0:0:0:0:
328,136,119868,1,0,0:0:0:0:
368,128,119945,2,4,L|428:112,1,48.9999985046387,12|4,0:0|0:0,0:0:0:0:
312,304,120099,5,0,0:0:0:0:
312,304,120176,1,0,0:0:0:0:
312,304,120253,2,4,L|376:320,1,48.9999985046387,12|4,0:0|0:0,0:0:0:0:
128,308,120407,5,0,0:0:0:0:
128,308,120484,1,0,0:0:0:0:
128,308,120561,2,4,L|176:320,1,48.9999985046387,12|4,0:0|0:0,0:0:0:0:
52,164,120714,5,0,0:0:0:0:
52,164,120791,1,0,0:0:0:0:
52,164,120868,2,4,L|100:176,1,48.9999985046387,12|4,0:0|0:0,0:0:0:0:
148,192,121022,5,0,0:0:0:0:
196,180,121099,1,0,0:0:0:0:
220,136,121176,1,0,0:0:0:0:
216,88,121253,1,0,0:0:0:0:
180,56,121330,5,0,0:0:0:0:
132,60,121407,1,0,0:0:0:0:
100,96,121483,1,0,0:0:0:0:
108,144,121560,1,0,0:0:0:0:
152,168,121637,5,0,0:0:0:0:
200,168,121714,1,0,0:0:0:0:
244,144,121791,1,0,0:0:0:0:
280,108,121868,1,0,0:0:0:0:
320,80,121945,5,0,0:0:0:0:
368,88,122022,1,0,0:0:0:0:
400,124,122099,1,0,0:0:0:0:
404,172,122176,1,0,0:0:0:0:
372,208,122253,5,0,0:0:0:0:
324,224,122330,1,0,0:0:0:0:
276,228,122406,2,4,L|208:220,1,48.9999985046387,12|4,0:0|0:0,0:0:0:0:
168,336,122560,5,0,0:0:0:0:
168,336,122637,1,0,0:0:0:0:
168,336,122714,2,4,L|116:320,1,48.9999985046387,12|4,0:0|0:0,0:0:0:0:
72,184,122868,5,0,0:0:0:0:
72,184,122945,1,0,0:0:0:0:
72,184,123022,2,4,L|4:160,1,48.9999985046387,12|4,0:0|0:0,0:0:0:0:
144,84,123176,5,0,0:0:0:0:
144,84,123253,1,0,0:0:0:0:
144,84,123329,2,2,L|68:48,2,48.9999985046387,10|2|10,0:0|0:0|0:0,0:0:0:0:
188,108,123560,1,8,0:0:0:0:
232,128,123637,1,8,0:0:0:0:
344,224,123791,5,0,0:0:0:0:
168,312,123945,1,0,0:0:0:0:
376,296,124099,1,0,0:0:0:0:
204,384,124252,1,0,0:0:0:0:
364,152,124406,5,0,0:0:0:0:
408,76,124560,1,0,0:0:0:0:
432,188,124714,1,0,0:0:0:0:
480,104,124868,1,0,0:0:0:0:
356,320,125022,5,0,0:0:0:0:
192,92,125175,1,0,0:0:0:0:
288,344,125329,1,0,0:0:0:0:
268,80,125483,1,0,0:0:0:0:
104,68,126098,6,2,B|140:100|140:100|100:124|100:124|120:148|120:148|152:176|152:176|140:204,1,195.999994018555
408,68,126714,2,2,B|372:100|372:100|412:124|412:124|392:148|392:148|360:176|360:176|372:204,1,195.999994018555
256,308,127329,5,8,0:0:0:0:
256,308,127406,1,0,0:0:0:0:
256,308,127483,1,8,0:0:0:0:
256,308,127560,1,0,0:0:0:0:
256,308,127637,1,8,0:0:0:0:
220,324,127714,1,8,0:0:0:0:
240,360,127791,1,8,0:0:0:0:
276,360,127867,1,8,0:0:0:0:
296,328,127944,1,4,0:0:0:0:
312,60,128252,5,0,0:0:0:0:
412,136,128406,1,0,0:0:0:0:
344,244,128560,1,8,0:0:0:0:
344,244,128637,1,8,0:0:0:0:
344,244,128714,1,4,0:0:0:0:
208,144,128867,5,8,0:0:0:0:
208,144,128944,1,8,0:0:0:0:
208,144,129021,1,4,0:0:0:0:
96,60,129175,5,8,0:0:0:0:
96,60,129252,1,8,0:0:0:0:
96,60,129329,1,4,0:0:0:0:
80,244,129483,5,0,0:0:0:0:
212,104,129637,1,0,0:0:0:0:
196,296,129790,1,8,0:0:0:0:
196,296,129867,1,0,0:0:0:0:
196,296,129944,1,0,0:0:0:0:
196,296,130021,1,8,0:0:0:0:
216,320,130098,5,8,0:0:0:0:
240,340,130175,1,0,0:0:0:0:
272,340,130252,1,8,0:0:0:0:
300,328,130329,1,0,0:0:0:0:
320,304,130406,5,8,0:0:0:0:
328,288,130483,1,8,0:0:0:0:
336,272,130559,1,8,0:0:0:0:
340,252,130636,1,8,0:0:0:0:
344,232,130713,6,4,L|360:164,1,62.9999980773926
228,64,131021,1,0,0:0:0:0:
76,252,131329,1,0,0:0:0:0:
344,288,131636,1,8,0:0:0:0:
344,288,131713,1,8,0:0:0:0:
344,288,131790,5,4,0:0:0:0:
132,124,131944,1,0,0:0:0:0:
184,284,132098,1,0,0:0:0:0:
296,88,132252,5,0,0:0:0:0:
332,104,132329,1,0,0:0:0:0:
368,116,132406,2,4,L|432:144,1,62.9999980773926
324,240,132559,5,0,0:0:0:0:
360,256,132636,1,0,0:0:0:0:
396,268,132713,2,4,L|460:296,1,62.9999980773926
184,284,132867,5,0,0:0:0:0:
216,300,132944,1,0,0:0:0:0:
248,316,133021,2,4,L|316:348,1,62.9999980773926
16,292,133175,5,0,0:0:0:0:
48,308,133252,1,0,0:0:0:0:
80,324,133329,2,4,L|148:356,1,62.9999980773926
256,380,133482,1,4,0:0:0:0:
256,4,134098,1,2,0:0:0:0:
256,192,134405,1,2,0:0:0:0:
120,192,134713,5,8,0:0:0:0:
130,239,134789,1,8,0:0:0:0:
157,280,134866,1,8,0:0:0:0:
197,308,134943,1,8,0:0:0:0:
244,319,135020,1,8,0:0:0:0:
292,313,135097,1,8,0:0:0:0:
335,290,135174,1,8,0:0:0:0:
366,252,135251,1,8,0:0:0:0:
382,206,135328,1,4,0:0:0:0:
72,324,135944,5,0,0:0:0:0:
208,152,136097,1,0,0:0:0:0:
248,336,136251,1,0,0:0:0:0:
64,184,136405,1,0,0:0:0:0:
172,340,136559,2,2,P|240:352|284:324,1,112
444,128,136867,1,0,0:0:0:0:
396,352,137020,1,0,0:0:0:0:
248,200,137174,2,2,L|180:164,1,56
424,312,137328,2,2,L|496:316,1,56
324,120,137482,1,4,0:0:0:0:
60,112,137636,5,0,0:0:0:0:
232,288,137790,1,0,0:0:0:0:
300,64,137943,1,0,0:0:0:0:
256,348,138097,5,0,0:0:0:0:
32,156,138251,1,0,0:0:0:0:
320,176,138405,1,0,0:0:0:0:
128,352,138559,1,0,0:0:0:0:
76,116,138712,2,2,P|112:64|124:88,1,112
280,228,139020,5,0,0:0:0:0:
84,372,139174,1,0,0:0:0:0:
28,144,139328,1,0,0:0:0:0:
228,376,139482,1,0,0:0:0:0:
340,120,139635,1,8,0:0:0:0:
340,120,139712,5,0,0:0:0:0:
340,120,139789,1,8,0:0:0:0:
340,120,139866,1,0,0:0:0:0:
340,120,139943,1,8,0:0:0:0:
252,180,140097,5,4,0:0:0:0:
388,312,140251,2,2,L|436:352,1,59.5000011348725
204,288,140405,1,8,0:0:0:0:
164,264,140482,1,0,0:0:0:0:
152,220,140558,1,8,0:0:0:0:
168,176,140635,5,0,0:0:0:0:
156,128,140712,1,8,0:0:0:0:
112,108,140789,1,0,0:0:0:0:
64,120,140866,1,8,0:0:0:0:
32,172,140943,5,0,0:0:0:0:
64,220,141020,1,0,0:0:0:0:
52,280,141097,1,0,0:0:0:0:
16,324,141174,2,2,P|68:368|104:336,1,119.000002269745
256,64,141481,1,0,0:0:0:0:
256,324,141635,1,0,0:0:0:0:
320,64,141789,1,0,0:0:0:0:
192,312,141943,1,0,0:0:0:0:
392,112,142097,5,0,0:0:0:0:
64,244,142251,1,0,0:0:0:0:
396,284,142404,1,0,0:0:0:0:
104,72,142558,1,0,0:0:0:0:
396,284,142712,2,4,P|424:336|376:320,1,119.000002269745
356,104,143020,5,0,0:0:0:0:
160,212,143174,1,0,0:0:0:0:
388,104,143327,1,0,0:0:0:0:
344,356,143481,1,0,0:0:0:0:
164,212,143635,1,0,0:0:0:0:
416,232,143789,1,0,0:0:0:0:
196,348,143943,1,0,0:0:0:0:
300,112,144097,1,0,0:0:0:0:
416,232,144250,5,0,0:0:0:0:
252,232,144404,1,0,0:0:0:0:
80,232,144558,1,8,0:0:0:0:
40,208,144635,1,0,0:0:0:0:
32,160,144712,1,8,0:0:0:0:
52,116,144789,1,0,0:0:0:0:
100,108,144866,5,8,0:0:0:0:
136,140,144943,1,0,0:0:0:0:
144,188,145020,1,8,0:0:0:0:
128,232,145096,1,0,0:0:0:0:
104,272,145173,2,2,L|76:332,1,59.5000011348725
244,252,145327,5,8,0:0:0:0:
244,252,145404,1,8,0:0:0:0:
244,252,145481,2,4,L|316:320,1,59.5000011348725
316,124,145789,6,2,B|376:136|376:136|384:108|384:108|424:132|412:160|404:188|404:188|448:232,1,238.00000453949
196,124,146404,2,2,B|136:136|136:136|128:108|128:108|88:132|100:160|108:188|108:188|64:232,1,238.00000453949
256,268,147019,5,8,0:0:0:0:
256,220,147096,1,0,0:0:0:0:
256,172,147173,1,8,0:0:0:0:
256,124,147250,1,0,0:0:0:0:
256,76,147327,2,4,L|256:8,1,59.5000011348725
164,148,147481,1,8,0:0:0:0:
164,148,147558,1,8,0:0:0:0:
164,148,147635,2,4,L|164:80,1,59.5000011348725
292,320,147942,5,8,0:0:0:0:
340,308,148019,5,8,0:0:0:0:
384,264,148096,5,8,0:0:0:0:
400,176,148173,5,8,0:0:0:0:
344,76,148250,6,4,L|288:20,1,62.9999980773926
212,24,148404,5,8,0:0:0:0:
256,68,148481,1,0,0:0:0:0:
276,128,148558,1,8,0:0:0:0:
256,188,148635,1,0,0:0:0:0:
256,252,148711,1,8,0:0:0:0:
228,308,148788,1,2,0:0:0:0:
172,336,148865,2,4,L|104:380,1,62.9999980773926
52,224,149019,5,8,0:0:0:0:
24,168,149096,1,0,0:0:0:0:
44,108,149173,1,8,0:0:0:0:
92,68,149250,1,0,0:0:0:0:
152,84,149327,1,8,0:0:0:0:
212,72,149404,1,0,0:0:0:0:
276,68,149481,2,4,L|356:108,1,62.9999980773926
368,324,149634,5,8,0:0:0:0:
408,272,149711,1,0,0:0:0:0:
420,208,149788,1,8,0:0:0:0:
392,152,149865,1,0,0:0:0:0:
344,112,149942,1,8,0:0:0:0:
376,56,150019,1,0,0:0:0:0:
424,12,150096,2,4,L|492:16,1,62.9999980773926
492,240,150250,5,8,0:0:0:0:
440,276,150327,1,0,0:0:0:0:
376,276,150404,1,8,0:0:0:0:
328,236,150481,1,0,0:0:0:0:
268,228,150557,1,8,0:0:0:0:
212,256,150634,1,0,0:0:0:0:
160,292,150711,2,4,L|96:328,1,62.9999980773926
36,212,150865,5,8,0:0:0:0:
96,188,150942,1,0,0:0:0:0:
124,132,151019,1,8,0:0:0:0:
88,80,151096,1,0,0:0:0:0:
28,92,151173,1,8,0:0:0:0:
8,152,151250,1,0,0:0:0:0:
36,212,151327,2,4,L|96:256,1,62.9999980773926
304,328,151480,5,8,0:0:0:0:
344,280,151557,1,0,0:0:0:0:
376,228,151634,2,2,P|384:192|376:156,1,62.9999980773926
452,28,151788,1,8,0:0:0:0:
392,44,151865,1,0,0:0:0:0:
324,64,151942,2,4,L|248:88,1,70
52,144,152096,5,2,0:0:0:0:
76,208,152173,1,2,0:0:0:0:
136,244,152250,1,2,0:0:0:0:
200,228,152326,1,2,0:0:0:0:
268,240,152403,1,2,0:0:0:0:
324,284,152480,1,2,0:0:0:0:
368,356,152557,5,2,0:0:0:0:
412,284,152634,1,2,0:0:0:0:
396,200,152711,1,2,0:0:0:0:
320,152,152788,1,2,0:0:0:0:
232,176,152865,1,2,0:0:0:0:
192,260,152942,1,2,0:0:0:0:
104,288,153019,5,8,0:0:0:0:
36,228,153096,1,0,0:0:0:0:
16,144,153173,2,4,L|48:64,1,66.4999982242585
200,228,153326,1,8,0:0:0:0:
220,164,153403,1,0,0:0:0:0:
236,100,153480,2,4,L|260:24,1,66.4999982242585
360,136,153634,5,8,0:0:0:0:
380,200,153711,1,0,0:0:0:0:
396,264,153788,2,4,L|416:327,1,66.4999982242585
448,176,153942,5,8,0:0:0:0:
424,116,154019,1,0,0:0:0:0:
380,68,154096,1,8,0:0:0:0:
320,44,154172,1,0,0:0:0:0:
256,64,154249,1,8,0:0:0:0:
188,60,154326,1,0,0:0:0:0:
128,36,154403,2,4,L|20:0,1,66.4999982242585
56,228,154557,5,8,0:0:0:0:
96,272,154634,1,0,0:0:0:0:
156,280,154711,1,8,0:0:0:0:
196,236,154788,1,0,0:0:0:0:
248,208,154865,1,8,0:0:0:0:
300,236,154942,1,0,0:0:0:0:
352,264,155019,2,4,L|448:304,1,66.4999982242585
247,147,155172,5,8,0:0:0:0:
299,119,155249,1,0,0:0:0:0:
351,91,155326,2,4,L|447:51,1,66.4999982242585
512,284,155480,5,8,0:0:0:0:
464,248,155557,1,0,0:0:0:0:
412,216,155634,2,4,L|344:164,1,66.4999982242585
356,276,155788,5,8,0:0:0:0:
304,236,155865,1,0,0:0:0:0:
252,192,155942,2,4,L|188:136,1,66.4999982242585
192,248,156095,5,8,0:0:0:0:
140,196,156172,1,0,0:0:0:0:
88,144,156249,2,4,L|44:88,1,66.4999982242585
80,20,156403,1,8,0:0:0:0:
116,68,156480,1,0,0:0:0:0:
172,88,156557,1,8,0:0:0:0:
232,96,156634,1,0,0:0:0:0:
284,68,156711,2,4,L|332:4,1,66.4999982242585
376,60,156864,5,2,0:0:0:0:
364,112,156941,1,2,0:0:0:0:
344,160,157018,1,2,0:0:0:0:
308,192,157095,1,2,0:0:0:0:
280,240,157172,5,2,0:0:0:0:
288,292,157249,1,2,0:0:0:0:
336,320,157326,1,2,0:0:0:0:
380,300,157403,1,2,0:0:0:0:
400,252,157480,5,2,0:0:0:0:
384,200,157557,1,2,0:0:0:0:
344,164,157634,1,2,0:0:0:0:
292,160,157711,1,2,0:0:0:0:
228,156,157787,6,4,P|164:144|112:88,1,125.999996154785
16,180,158095,5,8,0:0:0:0:
20,192,158172,1,0,0:0:0:0:
24,204,158249,1,8,0:0:0:0:
28,216,158326,1,0,0:0:0:0:
32,228,158403,1,8,0:0:0:0:
200,292,158557,5,8,0:0:0:0:
208,300,158634,1,8,0:0:0:0:
216,308,158710,1,4,0:0:0:0:
392,344,158864,1,2,0:0:0:0:
352,156,159018,1,8,0:0:0:0:
360,164,159095,1,8,0:0:0:0:
368,172,159172,1,4,0:0:0:0:
104,156,159326,5,8,0:0:0:0:
104,156,159403,1,0,0:0:0:0:
104,156,159480,1,8,0:0:0:0:
104,156,159557,1,0,0:0:0:0:
104,156,159633,1,8,0:0:0:0:
256,40,159787,1,2,0:0:0:0:
256,220,159941,1,8,0:0:0:0:
256,220,160018,1,8,0:0:0:0:
256,220,160095,1,4,0:0:0:0:
256,384,160249,5,2,0:0:0:0:
464,352,160403,1,2,0:0:0:0:
312,196,160556,1,8,0:0:0:0:
292,172,160633,1,8,0:0:0:0:
276,148,160710,1,4,0:0:0:0:
76,120,160864,5,2,0:0:0:0:
84,308,161018,1,8,0:0:0:0:
108,328,161095,1,0,0:0:0:0:
136,312,161172,1,8,0:0:0:0:
124,284,161249,1,0,0:0:0:0:
92,284,161326,1,8,0:0:0:0:
80,136,161479,1,2,0:0:0:0:
232,108,161633,1,2,0:0:0:0:
176,268,161787,5,8,0:0:0:0:
224,260,161864,1,0,0:0:0:0:
272,252,161941,1,8,0:0:0:0:
320,244,162018,1,0,0:0:0:0:
368,236,162095,1,8,0:0:0:0:
328,148,162249,5,8,0:0:0:0:
376,132,162325,1,8,0:0:0:0:
424,116,162402,1,4,0:0:0:0:
296,40,162556,1,2,0:0:0:0:
112,72,162710,1,0,0:0:0:0:
44,212,162864,1,2,0:0:0:0:
104,296,163018,5,8,0:0:0:0:
152,312,163095,1,0,0:0:0:0:
204,312,163172,1,8,0:0:0:0:
252,296,163248,1,0,0:0:0:0:
296,276,163325,2,4,L|392:236,1,62.9999980773926
424,196,163479,5,8,0:0:0:0:
392,156,163556,1,0,0:0:0:0:
388,104,163633,1,0,0:0:0:0:
408,56,163710,1,0,0:0:0:0:
356,52,163787,5,8,0:0:0:0:
308,68,163864,1,0,0:0:0:0:
260,88,163941,1,8,0:0:0:0:
216,108,164018,1,0,0:0:0:0:
172,128,164095,1,8,0:0:0:0:
128,148,164171,1,0,0:0:0:0:
84,172,164248,2,4,L|4:208,1,62.9999980773926
40,312,164402,5,8,0:0:0:0:
88,320,164479,1,0,0:0:0:0:
136,328,164556,2,4,L|228:340,1,62.9999980773926
220,232,164710,5,8,0:0:0:0:
268,244,164787,1,0,0:0:0:0:
316,256,164864,2,4,L|392:272,1,62.9999980773926
444,136,165017,1,8,0:0:0:0:
396,120,165094,1,0,0:0:0:0:
348,108,165171,1,8,0:0:0:0:
300,92,165248,1,0,0:0:0:0:
252,80,165325,1,8,0:0:0:0:
48,136,165479,5,8,0:0:0:0:
92,160,165556,1,0,0:0:0:0:
136,180,165633,1,8,0:0:0:0:
180,204,165710,1,0,0:0:0:0:
228,220,165787,1,8,0:0:0:0:
68,304,166094,5,8,0:0:0:0:
116,320,166171,1,0,0:0:0:0:
164,336,166248,1,8,0:0:0:0:
212,348,166325,1,0,0:0:0:0:
260,360,166402,1,8,0:0:0:0:
412,228,166710,5,8,0:0:0:0:
364,216,166787,1,0,0:0:0:0:
324,188,166863,1,8,0:0:0:0:
304,140,166940,1,0,0:0:0:0:
276,96,167017,1,8,0:0:0:0:
224,88,167094,1,0,0:0:0:0:
192,128,167171,5,8,0:0:0:0:
200,176,167248,1,8,0:0:0:0:
248,192,167325,1,4,0:0:0:0:
