osu file format v14

[General]
AudioFilename: audio.mp3
AudioLeadIn: 0
PreviewTime: -1
Countdown: 1
SampleSet: Normal
StackLeniency: 0.7
Mode: 0
LetterboxInBreaks: 0
WidescreenStoryboard: 1

[Editor]
Bookmarks: 145481
DistanceSpacing: 1
BeatDivisor: 4
GridSize: 4
TimelineZoom: 3.599999

[Metadata]
Title:Taiyou Ga Hoshiidake
TitleUnicode:Taiyou Ga Hoshiidake
Artist:9mm Parabellum Bullet
ArtistUnicode:9mm Parabellum Bullet
Creator:-Levi-
Version:Creative Gay Title (nerfed end)
Source:
Tags:Metal
BeatmapID:1726829
BeatmapSetID:538802

[Difficulty]
HPDrainRate:5
CircleSize:4
OverallDifficulty:9
ApproachRate:9.6
SliderMultiplier:1.4
SliderTickRate:1

[Events]
//Background and Video events
0,0,"Berserk-Wallpaper-by-Yoroiookami.png",0,0
//Break Periods
2,71227,73886
//Storyboard Layer 0 (Background)
//Storyboard Layer 1 (Fail)
//Storyboard Layer 2 (Pass)
//Storyboard Layer 3 (Foreground)
//Storyboard Sound Samples

[TimingPoints]
-42,307.660752743308,4,1,0,100,1,0
573,-100,4,2,0,75,0,0
1803,-100,4,3,0,70,0,0
2111,-100,4,3,0,60,0,0
2419,-100,4,3,0,50,0,0
2726,-100,4,3,0,50,0,0
3034,-100,4,3,0,60,0,0
3342,-100,4,3,0,65,0,0
3649,-100,4,3,0,70,0,0
3957,-100,4,3,0,75,0,0
4880,-100,4,3,0,70,0,0
5188,-100,4,3,0,60,0,0
5495,-100,4,3,0,50,0,0
5803,-100,4,3,0,60,0,0
6111,-100,4,3,0,65,0,0
6418,-100,4,3,0,75,0,0
6726,-66.6666666666667,4,1,0,80,0,0
6880,-66.6666666666667,4,3,0,80,0,0
7034,-66.6666666666667,4,1,0,80,0,0
7188,-66.6666666666667,4,3,0,80,0,0
7341,-66.6666666666667,4,1,0,80,0,0
7495,-66.6666666666667,4,3,0,80,0,0
7649,-66.6666666666667,4,1,0,80,0,0
7803,-66.6666666666667,4,3,0,80,0,0
9187,-66.6666666666667,4,1,0,80,0,0
10418,-57.1428571428571,4,1,0,80,0,0
11033,-200,4,1,0,80,0,0
11341,-66.6666666666667,4,1,0,80,0,1
19032,-66.6666666666667,4,1,0,80,0,0
21494,-133.333333333333,4,2,0,80,0,0
30108,-100,4,1,0,80,0,0
31647,-100,4,2,0,80,0,0
40569,-83.3333333333333,4,1,0,80,0,0
48568,-66.6666666666667,4,1,0,80,0,1
50414,-66.6666666666667,4,1,0,30,0,1
50722,-66.6666666666667,4,1,0,75,0,1
51029,-55.5555555555556,4,1,0,80,0,0
60567,-55.5555555555556,4,1,0,80,0,1
62720,-55.5555555555556,4,1,0,80,0,0
70719,-133.333333333333,4,1,0,80,0,0
74411,-133.333333333333,4,1,0,80,0,0
75642,-133.333333333333,4,2,0,80,0,0
85487,-100,4,3,0,100,0,1
85718,-100,4,1,0,5,0,1
85795,-100,4,3,0,100,0,1
86026,-100,4,1,0,5,0,1
86103,-100,4,3,0,100,0,1
86333,-100,4,1,0,5,0,1
86410,-100,4,3,0,100,0,1
86641,-100,4,1,0,5,0,1
86718,-100,4,3,0,100,0,1
86949,-100,4,1,0,5,0,1
87025,-100,4,3,0,100,0,1
87256,-100,4,1,0,5,0,1
87333,-100,4,3,0,100,0,1
87564,-100,4,1,0,5,0,1
87641,-100,4,3,0,100,0,1
87872,-100,4,1,0,5,0,1
87948,-111.111111111111,4,2,0,100,0,0
90410,-100,4,3,0,100,0,1
92333,-100,4,1,0,5,0,1
92410,-100,4,1,0,80,0,1
92871,-111.111111111111,4,2,0,80,0,0
95332,-90.9090909090909,4,1,0,80,0,0
102716,-66.6666666666667,4,1,0,80,0,1
105177,-125,4,1,0,80,0,0
110098,-100,4,1,0,80,0,0
113177,-66.6666666666667,4,1,0,80,0,0
115023,-83.3333333333333,4,1,0,75,0,0
115330,-83.3333333333333,4,1,0,70,0,0
115638,-83.3333333333333,4,1,0,60,0,0
115946,-83.3333333333333,4,1,0,50,0,0
116253,-83.3333333333333,4,1,0,50,0,0
116561,-83.3333333333333,4,1,0,60,0,0
116869,-83.3333333333333,4,1,0,65,0,0
117176,-83.3333333333333,4,1,0,70,0,0
119945,-71.4285714285714,4,1,0,80,0,0
123791,-71.4285714285714,4,1,0,70,0,0
124406,-71.4285714285714,4,1,0,55,0,0
125022,-71.4285714285714,4,1,0,80,0,0
127329,-55.5555555555556,4,1,0,80,0,0
133482,-100,4,1,0,80,0,0
134713,-71.4285714285714,4,1,0,80,0,0
135328,-62.5,4,1,0,80,0,0
140251,-58.8235294117647,4,1,0,80,0,0
147946,-55.5555555555556,4,1,0,80,0,1
151942,-50,4,1,0,80,0,0
153173,-52.6315789473684,4,1,0,80,0,1
157787,-55.5555555555556,4,1,0,80,0,0
163018,-55.5555555555556,4,1,0,80,0,1
165479,-55.5555555555556,4,1,0,80,0,0
167633,-200,4,1,0,80,0,0

[HitObjects]
152,64,573,5,4,0:0:0:0:
152,300,880,1,4,0:0:0:0:
328,104,1188,1,4,0:0:0:0:
120,152,1496,1,4,0:0:0:0:
224,256,1650,1,4,0:0:0:0:
325,352,1803,1,0,0:0:0:0:
356,336,1879,1,0,0:0:0:0:
382,313,1956,1,0,0:0:0:0:
403,285,2033,1,0,0:0:0:0:
397,257,2111,5,0,0:0:0:0:
409,224,2187,1,0,0:0:0:0:
412,189,2264,1,0,0:0:0:0:
406,155,2341,1,0,0:0:0:0:
378,146,2419,5,0,0:0:0:0:
363,114,2495,1,0,0:0:0:0:
341,87,2572,1,0,0:0:0:0:
312,67,2649,1,0,0:0:0:0:
277,71,2726,6,0,L|220:48,3,35
278,226,3034,2,0,L|310:239,3,35
139,285,3342,5,0,0:0:0:0:
116,249,3419,1,0,0:0:0:0:
95,212,3496,1,0,0:0:0:0:
74,175,3573,1,0,0:0:0:0:
115,177,3649,5,0,0:0:0:0:
124,136,3726,1,0,0:0:0:0:
135,95,3803,1,0,0:0:0:0:
147,54,3880,1,0,0:0:0:0:
177,82,3957,5,0,0:0:0:0:
212,60,4034,1,0,0:0:0:0:
249,38,4111,1,0,0:0:0:0:
286,18,4188,1,0,0:0:0:0:
284,60,4265,6,0,L|328:76,3,35,2|0|2|0,0:0|0:0|0:0|0:0,0:0:0:0:
209,199,4572,2,0,L|176:187,3,35,2|0|2|0,0:0|0:0|0:0|0:0,0:0:0:0:
412,25,4880,1,0,0:0:0:0:
391,61,4957,1,0,0:0:0:0:
371,98,5034,1,0,0:0:0:0:
351,135,5111,1,0,0:0:0:0:
368,176,5188,5,2,0:0:0:0:
391,211,5265,1,0,0:0:0:0:
396,252,5342,1,2,0:0:0:0:
377,289,5418,1,0,0:0:0:0:
336,324,5495,5,2,0:0:0:0:
286,326,5572,1,0,0:0:0:0:
247,295,5649,1,2,0:0:0:0:
230,248,5726,1,0,0:0:0:0:
216,200,5803,5,2,0:0:0:0:
232,152,5880,1,0,0:0:0:0:
212,100,5957,1,2,0:0:0:0:
160,88,6034,1,0,0:0:0:0:
116,124,6111,5,2,0:0:0:0:
116,180,6188,1,0,0:0:0:0:
164,208,6265,1,2,0:0:0:0:
212,204,6341,1,0,0:0:0:0:
260,188,6418,5,2,0:0:0:0:
304,164,6495,1,2,0:0:0:0:
336,128,6572,1,2,0:0:0:0:
356,84,6649,1,2,0:0:0:0:
376,44,6726,6,4,L|432:12,1,52.5000020027161
440,148,6880,1,8,0:0:0:0:
440,148,6957,1,0,0:0:0:0:
440,148,7034,2,8,L|504:128,1,52.5000020027161,4|8,0:0|0:0,0:0:0:0:
260,188,7188,1,8,0:0:0:0:
260,188,7264,1,0,0:0:0:0:
260,188,7341,2,4,L|211:168,1,52.5000020027161
404,319,7495,1,8,0:0:0:0:
404,319,7571,1,0,0:0:0:0:
404,319,7648,2,4,L|452:338,1,52.5000020027161
169,316,7803,5,0,0:0:0:0:
131,297,7879,1,0,0:0:0:0:
102,267,7956,1,0,0:0:0:0:
85,229,8033,1,0,0:0:0:0:
82,187,8110,1,0,0:0:0:0:
93,147,8187,1,0,0:0:0:0:
124,112,8264,2,0,L|164:64,3,52.5000020027161
169,316,8572,2,0,L|133:364,2,52.5000020027161
192,144,8803,5,0,0:0:0:0:
224,104,8880,1,0,0:0:0:0:
272,80,8957,1,0,0:0:0:0:
324,68,9033,1,0,0:0:0:0:
376,80,9110,1,0,0:0:0:0:
420,112,9187,6,4,L|468:160,1,52.5000020027161
200,152,9341,1,8,0:0:0:0:
200,152,9418,1,0,0:0:0:0:
200,152,9495,2,4,L|148:100,1,52.5000020027161
368,260,9649,1,8,0:0:0:0:
368,260,9726,1,0,0:0:0:0:
368,260,9803,2,4,L|420:312,1,52.5000020027161
392,60,9956,1,8,0:0:0:0:
392,60,10033,1,0,0:0:0:0:
392,60,10110,2,4,L|340:8,1,52.5000020027161
396,296,10418,5,8,0:0:0:0:
124,296,10572,1,8,0:0:0:0:
360,128,10726,1,8,0:0:0:0:
256,384,10879,1,8,0:0:0:0:
164,128,11033,2,2,L|136:48,1,70,4|2,0:0|0:0,0:0:0:0:
72,240,11649,6,0,P|104:276|164:300,1,105.000004005432,0|8,0:0|0:0,0:0:0:0:
252,56,11956,1,0,0:0:0:0:
252,56,12033,1,8,0:0:0:0:
252,56,12110,1,0,0:0:0:0:
380,340,12264,1,0,0:0:0:0:
88,80,12418,2,0,L|12:0,1,105.000004005432,8|0,0:0|0:0,0:0:0:0:
304,308,12725,5,8,0:0:0:0:
200,80,12879,1,0,0:0:0:0:
224,320,13033,1,8,0:0:0:0:
96,88,13187,1,0,0:0:0:0:
96,88,13264,1,0,0:0:0:0:
96,88,13341,1,0,0:0:0:0:
340,296,13495,1,4,0:0:0:0:
300,20,13648,1,8,0:0:0:0:
48,196,13802,2,0,L|-8:240,2,52.5000020027161,8|8|0,0:0|0:0|0:0,0:0:0:0:
352,144,14110,5,8,0:0:0:0:
52,120,14264,1,0,0:0:0:0:
256,328,14418,1,8,0:0:0:0:
256,328,14494,1,0,0:0:0:0:
256,328,14571,1,0,0:0:0:0:
176,40,14725,6,2,B|140:72|140:72|116:144,1,105.000004005432,2|0,0:0|0:0,0:0:0:0:
52,360,15033,1,0,0:0:0:0:
52,120,15187,1,8,0:0:0:0:
144,252,15341,1,8,0:0:0:0:
168,288,15417,1,0,0:0:0:0:
196,320,15494,1,0,0:0:0:0:
240,348,15571,1,8,0:0:0:0:
292,356,15648,5,0,0:0:0:0:
344,352,15725,1,0,0:0:0:0:
400,324,15802,1,8,0:0:0:0:
444,280,15879,1,0,0:0:0:0:
480,228,15956,6,2,L|480:172,1,52.5000020027161
336,80,16110,2,2,L|336:136,1,52.5000020027161
292,276,16264,1,0,0:0:0:0:
236,248,16341,1,8,0:0:0:0:
192,204,16418,1,0,0:0:0:0:
164,160,16494,1,0,0:0:0:0:
140,116,16571,2,2,P|132:52|172:12,1,105.000004005432
308,136,16879,5,0,0:0:0:0:
308,136,16956,1,0,0:0:0:0:
308,136,17033,1,8,0:0:0:0:
56,32,17187,1,0,0:0:0:0:
252,304,17340,1,8,0:0:0:0:
24,200,17494,1,0,0:0:0:0:
376,200,17648,1,0,0:0:0:0:
116,304,17802,2,0,P|40:284|20:256,1,105.000004005432
296,200,18109,5,0,0:0:0:0:
296,200,18186,1,8,0:0:0:0:
296,200,18263,1,8,0:0:0:0:
104,48,18417,1,4,0:0:0:0:
96,344,18571,1,0,0:0:0:0:
144,128,18725,1,0,0:0:0:0:
320,296,18879,1,0,0:0:0:0:
396,168,19032,5,8,0:0:0:0:
412,124,19109,1,0,0:0:0:0:
400,76,19186,1,8,0:0:0:0:
364,44,19263,1,0,0:0:0:0:
320,28,19340,6,8,L|228:0,3,52.5000020027161,10|8|10|8,0:0|0:0|0:0|0:0,0:0:0:0:
252,208,19648,2,0,L|296:236,3,52.5000020027161,2|0|2|0,0:0|0:0|0:0|0:0,0:0:0:0:
84,316,19955,2,0,L|40:288,3,52.5000020027161,2|0|2|0,0:0|0:0|0:0|0:0,0:0:0:0:
248,108,20263,5,8,0:0:0:0:
308,132,20340,1,0,0:0:0:0:
372,124,20417,1,0,0:0:0:0:
432,104,20494,1,0,0:0:0:0:
488,124,20571,5,8,0:0:0:0:
492,180,20648,1,0,0:0:0:0:
448,220,20725,1,0,0:0:0:0:
392,208,20802,1,0,0:0:0:0:
340,208,20878,5,8,0:0:0:0:
296,240,20955,1,0,0:0:0:0:
296,292,21032,1,8,0:0:0:0:
328,336,21109,1,0,0:0:0:0:
380,340,21186,5,0,0:0:0:0:
400,324,21263,1,0,0:0:0:0:
420,308,21340,1,0,0:0:0:0:
440,292,21417,1,0,0:0:0:0:
460,276,21494,2,0,L|512:232,1,52.5000020027161
384,148,21801,5,0,0:0:0:0:
384,148,21955,1,0,0:0:0:0:
384,148,22109,2,0,L|332:192,1,52.5000020027161
208,192,22417,5,0,0:0:0:0:
120,152,22571,1,0,0:0:0:0:
92,56,22724,2,2,L|108:0,1,52.5000020027161
224,112,23032,2,2,L|240:56,1,52.5000020027161
336,88,23340,5,0,0:0:0:0:
380,232,23494,1,0,0:0:0:0:
408,144,23647,5,0,0:0:0:0:
288,284,23801,1,0,0:0:0:0:
280,140,23955,6,2,L|304:200,1,52.5000020027161
396,352,24263,2,2,L|372:292,1,52.5000020027161
220,176,24570,5,0,0:0:0:0:
188,328,24724,1,0,0:0:0:0:
72,188,24878,2,2,L|38:147,1,52.5000020027161
216,240,25186,5,2,0:0:0:0:
284,160,25339,1,0,0:0:0:0:
388,164,25493,1,2,0:0:0:0:
444,252,25646,1,0,0:0:0:0:
384,340,25801,1,2,0:0:0:0:
280,340,25955,1,0,0:0:0:0:
228,248,26109,1,2,0:0:0:0:
228,248,26262,1,0,0:0:0:0:
228,248,26416,2,2,L|248:200,1,52.5000020027161
116,248,26724,5,2,0:0:0:0:
160,176,26878,1,0,0:0:0:0:
208,92,27032,2,2,L|236:40,1,52.5000020027161
280,96,27339,5,0,0:0:0:0:
424,252,27493,1,0,0:0:0:0:
428,96,27647,1,0,0:0:0:0:
268,244,27801,1,0,0:0:0:0:
66,117,27955,5,0,0:0:0:0:
190,197,28108,1,0,0:0:0:0:
90,217,28262,1,0,0:0:0:0:
166,105,28416,1,0,0:0:0:0:
64,312,28570,2,2,L|84:244,1,52.5000020027161
248,280,28878,2,2,L|216:232,1,52.5000020027161
32,168,29185,5,0,0:0:0:0:
88,256,29339,1,0,0:0:0:0:
184,292,29493,1,0,0:0:0:0:
284,260,29647,1,0,0:0:0:0:
328,164,29801,2,2,L|304:108,1,52.5000020027161
188,44,30108,1,0,0:0:0:0:
60,104,30262,5,0,0:0:0:0:
140,216,30416,1,0,0:0:0:0:
264,280,30570,1,0,0:0:0:0:
264,280,30647,1,0,0:0:0:0:
264,280,30724,2,4,L|312:304,1,35
352,324,30877,1,0,0:0:0:0:
203,247,31031,5,0,0:0:0:0:
107,112,31185,1,0,0:0:0:0:
276,112,31339,2,0,L|364:136,1,70
192,160,31647,5,0,0:0:0:0:
68,252,31800,1,0,0:0:0:0:
204,316,31954,1,0,0:0:0:0:
324,80,32108,5,0,0:0:0:0:
460,144,32262,1,0,0:0:0:0:
336,236,32415,1,0,0:0:0:0:
91,340,32570,6,2,L|160:336,1,70
405,239,32877,2,2,L|335:235,1,70
83,200,33185,2,2,L|153:200,1,70
168,36,33493,5,0,0:0:0:0:
328,76,33646,1,0,0:0:0:0:
196,176,33800,5,0,0:0:0:0:
364,224,33954,1,0,0:0:0:0:
160,276,34108,6,2,L|232:300,1,70
352,340,34416,2,2,L|440:372,1,70
124,76,34723,5,2,0:0:0:0:
256,184,34877,1,0,0:0:0:0:
380,76,35031,1,2,0:0:0:0:
256,212,35185,1,0,0:0:0:0:
124,108,35338,5,2,0:0:0:0:
256,240,35492,1,0,0:0:0:0:
376,112,35646,1,2,0:0:0:0:
256,272,35800,1,0,0:0:0:0:
128,352,35954,6,2,B|92:372|92:372|56:348,1,70
72,60,36261,5,2,0:0:0:0:
136,208,36415,1,0,0:0:0:0:
232,64,36569,1,2,0:0:0:0:
48,208,36723,5,2,0:0:0:0:
232,208,36877,1,0,0:0:0:0:
140,64,37031,1,2,0:0:0:0:
136,260,37184,2,2,P|128:300|144:344,1,70
368,328,37492,2,2,P|372:292|360:240,1,70
284,352,37800,5,0,0:0:0:0:
204,76,37954,1,2,0:0:0:0:
304,272,38107,1,0,0:0:0:0:
232,12,38261,1,2,0:0:0:0:
148,288,38415,2,2,L|112:368,1,70
364,96,38723,2,2,L|400:16,1,70
116,111,39030,6,2,L|88:48,1,70
395,272,39338,2,2,L|424:336,1,70
204,84,39646,6,2,L|175:20,2,70
364,292,40107,1,2,0:0:0:0:
128,176,40261,1,0,0:0:0:0:
356,132,40415,1,2,0:0:0:0:
204,320,40569,1,8,0:0:0:0:
204,320,40646,1,0,0:0:0:0:
204,320,40723,1,8,0:0:0:0:
204,320,40799,1,0,0:0:0:0:
204,320,40876,2,4,L|260:388,1,83.9999974365235
456,144,41184,2,0,L|384:72,1,83.9999974365235
316,248,41492,5,0,0:0:0:0:
172,112,41645,1,0,0:0:0:0:
312,120,41799,1,0,0:0:0:0:
176,240,41953,1,0,0:0:0:0:
32,156,42107,5,8,0:0:0:0:
32,156,42184,1,8,0:0:0:0:
32,156,42261,1,4,0:0:0:0:
156,56,42415,2,2,P|208:32|264:32,1,83.9999974365235
292,156,42722,2,2,P|256:184|204:184,1,83.9999974365235
32,156,43030,5,0,0:0:0:0:
68,312,43184,1,0,0:0:0:0:
236,276,43338,1,0,0:0:0:0:
196,112,43491,1,0,0:0:0:0:
360,72,43645,6,2,P|416:124|428:160,1,83.9999974365235
420,300,43953,2,2,P|368:356|332:368,1,83.9999974365235
216,276,44261,5,0,0:0:0:0:
48,280,44414,1,0,0:0:0:0:
212,244,44568,5,0,0:0:0:0:
84,136,44722,1,0,0:0:0:0:
232,216,44876,5,0,0:0:0:0:
184,56,45030,1,0,0:0:0:0:
260,208,45184,2,2,L|348:168,1,83.9999974365235
372,336,45491,6,0,L|332:240,1,83.9999974365235
196,264,45799,2,0,L|236:352,1,83.9999974365235
84,364,46107,2,0,L|44:268,1,83.9999974365235
248,316,46414,5,0,0:0:0:0:
248,148,46568,1,0,0:0:0:0:
188,304,46722,1,0,0:0:0:0:
308,140,46876,1,0,0:0:0:0:
140,268,47030,1,0,0:0:0:0:
360,168,47183,1,0,0:0:0:0:
120,116,47337,1,0,0:0:0:0:
368,320,47491,2,2,L|456:376,2,83.9999974365235
132,136,48106,5,0,0:0:0:0:
32,320,48260,1,0,0:0:0:0:
28,108,48414,1,0,0:0:0:0:
188,292,48568,2,2,P|232:324|240:296,1,105.000004005432
320,108,48876,5,8,0:0:0:0:
144,296,49029,1,8,0:0:0:0:
284,56,49183,1,8,0:0:0:0:
216,336,49337,1,8,0:0:0:0:
224,40,49491,1,8,0:0:0:0:
296,352,49645,1,8,0:0:0:0:
144,52,49799,5,8,0:0:0:0:
432,184,49952,1,4,0:0:0:0:
64,232,50106,1,4,0:0:0:0:
376,72,50260,1,4,0:0:0:0:
136,352,50414,5,8,0:0:0:0:
136,352,50568,1,8,0:0:0:0:
388,144,50722,2,2,L|484:60,1,105.000004005432
120,56,51029,1,8,0:0:0:0:
144,220,51183,1,0,0:0:0:0:
268,128,51337,1,8,0:0:0:0:
140,320,51491,5,8,0:0:0:0:
168,123,51645,1,0,0:0:0:0:
317,233,51799,1,8,0:0:0:0:
40,48,51952,2,8,L|116:160,1,125.999996154785
387,337,52260,2,8,L|311:225,1,125.999996154785
216,56,52567,5,8,0:0:0:0:
240,332,52721,1,0,0:0:0:0:
112,144,52875,1,8,0:0:0:0:
360,224,53029,1,0,0:0:0:0:
128,268,53183,5,0,0:0:0:0:
324,80,53336,1,8,0:0:0:0:
420,328,53490,2,0,L|272:340,1,125.999996154785
64,144,53798,5,0,0:0:0:0:
64,144,53875,1,0,0:0:0:0:
64,144,53952,1,0,0:0:0:0:
360,120,54106,1,4,0:0:0:0:
92,240,54260,1,8,0:0:0:0:
448,128,54413,5,8,0:0:0:0:
172,252,54567,1,4,0:0:0:0:
476,224,54721,1,0,0:0:0:0:
176,296,54875,5,0,0:0:0:0:
292,40,55029,1,8,0:0:0:0:
360,316,55183,1,0,0:0:0:0:
136,100,55336,1,8,0:0:0:0:
136,100,55413,1,0,0:0:0:0:
136,100,55490,1,4,0:0:0:0:
208,328,55644,5,8,0:0:0:0:
258,338,55721,1,0,0:0:0:0:
310,321,55798,1,8,0:0:0:0:
350,286,55875,1,0,0:0:0:0:
379,240,55952,6,4,L|407:148,1,62.9999980773926
380,56,56106,1,0,0:0:0:0:
360,344,56259,1,0,0:0:0:0:
136,100,56413,1,8,0:0:0:0:
484,160,56567,1,0,0:0:0:0:
164,304,56721,1,8,0:0:0:0:
448,268,56875,5,0,0:0:0:0:
152,224,57029,1,8,0:0:0:0:
440,124,57182,2,0,B|372:100|372:100|280:108,1,125.999996154785
64,256,57490,2,0,B|132:280|132:280|224:272,1,125.999996154785
448,268,57798,1,8,0:0:0:0:
173,93,57952,5,0,0:0:0:0:
338,290,58106,1,8,0:0:0:0:
344,88,58259,1,0,0:0:0:0:
172,288,58413,1,8,0:0:0:0:
256,40,58567,1,0,0:0:0:0:
256,344,58721,1,8,0:0:0:0:
320,24,58875,5,8,0:0:0:0:
188,352,59028,1,8,0:0:0:0:
140,60,59182,1,4,0:0:0:0:
352,304,59336,2,2,L|396:356,1,62.9999980773926
276,80,59490,2,2,L|235:31,1,62.9999980773926
428,200,59644,5,8,0:0:0:0:
432,264,59721,1,0,0:0:0:0:
392,312,59798,1,8,0:0:0:0:
328,312,59874,1,0,0:0:0:0:
276,276,59951,5,8,0:0:0:0:
212,280,60028,1,0,0:0:0:0:
172,328,60105,1,8,0:0:0:0:
116,352,60182,1,0,0:0:0:0:
60,324,60259,5,8,0:0:0:0:
48,260,60336,1,0,0:0:0:0:
80,208,60413,1,8,0:0:0:0:
140,188,60490,1,0,0:0:0:0:
188,148,60567,5,0,0:0:0:0:
232,104,60644,1,0,0:0:0:0:
272,60,60720,2,0,L|312:8,1,62.9999980773926
324,188,60874,5,8,0:0:0:0:
324,188,60951,1,0,0:0:0:0:
324,188,61028,2,4,L|297:245,1,62.9999980773926
96,328,61182,5,8,0:0:0:0:
96,328,61259,1,0,0:0:0:0:
96,328,61336,2,4,L|128:260,1,62.9999980773926
452,128,61490,5,8,0:0:0:0:
452,128,61567,1,0,0:0:0:0:
452,128,61644,2,4,L|422:183,1,62.9999980773926
212,332,61797,1,2,0:0:0:0:
328,72,61951,1,4,0:0:0:0:
144,324,62105,5,8,0:0:0:0:
96,296,62182,1,0,0:0:0:0:
72,244,62259,1,8,0:0:0:0:
92,192,62336,1,0,0:0:0:0:
140,164,62413,5,8,0:0:0:0:
196,168,62490,1,0,0:0:0:0:
232,212,62566,1,8,0:0:0:0:
288,220,62643,1,0,0:0:0:0:
340,192,62720,1,4,0:0:0:0:
384,44,63028,6,2,B|322:37|322:37|266:69,1,125.999996154785
160,312,63336,2,2,B|221:318|221:318|277:286,1,125.999996154785
392,368,63643,1,0,0:0:0:0:
188,136,63797,1,0,0:0:0:0:
484,228,63951,1,0,0:0:0:0:
200,296,64105,1,0,0:0:0:0:
456,120,64259,2,2,L|405:157,1,62.9999980773926
108,280,64412,2,2,L|158:242,1,62.9999980773926
352,104,64566,5,0,0:0:0:0:
352,104,64643,1,0,0:0:0:0:
356,108,64720,2,0,L|296:168,1,62.9999980773926
88,188,64874,5,0,0:0:0:0:
88,188,64951,1,0,0:0:0:0:
88,188,65028,2,0,L|148:248,1,62.9999980773926
332,284,65182,5,0,0:0:0:0:
276,312,65258,1,0,0:0:0:0:
220,340,65335,1,0,0:0:0:0:
160,364,65412,1,0,0:0:0:0:
104,336,65489,5,0,0:0:0:0:
70,284,65565,1,0,0:0:0:0:
76,222,65642,1,0,0:0:0:0:
119,177,65719,1,0,0:0:0:0:
180,168,65796,5,0,0:0:0:0:
328,356,65951,1,0,0:0:0:0:
296,96,66105,1,0,0:0:0:0:
452,324,66258,1,0,0:0:0:0:
196,120,66412,2,2,L|92:28,1,125.999996154785
336,280,66720,2,2,L|431:361,1,125.999996154785
161,80,67028,5,8,0:0:0:0:
364,332,67181,1,8,0:0:0:0:
308,40,67335,1,8,0:0:0:0:
184,348,67489,1,8,0:0:0:0:
412,60,67643,5,4,0:0:0:0:
160,244,67797,1,0,0:0:0:0:
160,244,67874,1,0,0:0:0:0:
160,244,67951,2,0,L|96:292,1,62.9999980773926
428,152,68104,1,0,0:0:0:0:
428,152,68181,1,0,0:0:0:0:
428,152,68258,2,0,L|492:104,1,62.9999980773926
100,236,68412,5,0,0:0:0:0:
288,40,68566,1,0,0:0:0:0:
128,304,68720,1,0,0:0:0:0:
368,160,68874,1,0,0:0:0:0:
80,168,69027,1,0,0:0:0:0:
432,180,69181,5,0,0:0:0:0:
216,320,69335,1,0,0:0:0:0:
92,96,69489,1,8,0:0:0:0:
124,56,69566,1,0,0:0:0:0:
172,48,69643,1,8,0:0:0:0:
216,68,69720,5,0,0:0:0:0:
236,112,69796,1,8,0:0:0:0:
216,156,69873,1,0,0:0:0:0:
180,192,69950,5,8,0:0:0:0:
172,240,70027,1,0,0:0:0:0:
204,280,70104,1,8,0:0:0:0:
256,192,70181,12,4,71027,0:0:0:0:
104,60,74411,5,2,0:0:0:0:
148,124,74565,5,8,0:0:0:0:
164,144,74642,1,0,0:0:0:0:
180,164,74719,1,8,0:0:0:0:
172,188,74796,5,0,0:0:0:0:
188,208,74873,1,8,0:0:0:0:
204,228,74950,1,0,0:0:0:0:
228,236,75027,6,4,L|264:284,1,52.5000020027161
392,232,75642,5,0,0:0:0:0:
288,112,75796,1,0,0:0:0:0:
288,288,75950,5,0,0:0:0:0:
184,180,76104,1,0,0:0:0:0:
180,340,76257,6,2,L|136:288,1,52.5000020027161
88,236,76565,2,2,L|40:176,1,52.5000020027161
160,44,76873,5,0,0:0:0:0:
264,64,77027,1,0,0:0:0:0:
164,128,77180,5,0,0:0:0:0:
248,188,77334,1,0,0:0:0:0:
144,192,77488,5,0,0:0:0:0:
228,132,77642,1,0,0:0:0:0:
376,180,77796,5,0,0:0:0:0:
296,248,77950,1,0,0:0:0:0:
124,152,78103,6,2,L|124:224,1,52.5000020027161
176,296,78411,2,2,L|176:236,1,52.5000020027161
404,148,78719,6,2,L|404:200,1,52.5000020027161
336,288,79026,2,2,L|336:235,1,52.5000020027161
424,40,79334,5,2,0:0:0:0:
424,196,79488,1,0,0:0:0:0:
336,128,79642,5,2,0:0:0:0:
336,288,79795,1,0,0:0:0:0:
424,196,79949,5,2,0:0:0:0:
424,356,80103,6,4,L|424:280,1,52.5000020027161
252,196,80411,2,2,L|252:132,1,52.5000020027161
172,192,80718,5,2,0:0:0:0:
168,356,80872,1,2,0:0:0:0:
88,308,81026,5,2,0:0:0:0:
258,262,81180,1,2,0:0:0:0:
344,108,81334,5,2,0:0:0:0:
344,272,81488,1,2,0:0:0:0:
416,144,81642,5,2,0:0:0:0:
246,190,81796,1,2,0:0:0:0:
304,32,81949,1,2,0:0:0:0:
80,64,82103,5,2,0:0:0:0:
256,196,82257,1,2,0:0:0:0:
432,192,82411,5,2,0:0:0:0:
256,320,82564,1,2,0:0:0:0:
80,320,82718,5,2,0:0:0:0:
256,192,82872,1,2,0:0:0:0:
80,64,83026,2,4,L|36:32,1,52.5000020027161
252,264,83334,6,2,L|308:264,1,52.5000020027161
56,168,83641,2,2,L|0:168,1,52.5000020027161
180,120,83949,5,4,0:0:0:0:
312,212,84103,2,2,L|481:212,1,157.500006008148
468,328,84718,5,8,0:0:0:0:
308,328,84872,1,0,0:0:0:0:
464,72,85026,5,8,0:0:0:0:
296,76,85180,1,0,0:0:0:0:
176,192,85333,5,8,0:0:0:0:
24,76,85487,2,0,L|132:76,1,105
24,192,85795,2,0,L|140:192,1,105
20,320,86103,2,0,L|152:320,1,105
200,72,86410,2,0,L|316:72,1,105
196,192,86718,2,0,L|304:192,1,105
192,320,87025,2,0,L|304:320,1,105
360,24,87333,2,0,L|360:140,1,105
360,240,87641,2,0,L|360:352,1,105
136,80,87948,5,0,0:0:0:0:
132,256,88102,1,0,0:0:0:0:
280,172,88256,1,0,0:0:0:0:
64,176,88410,1,0,0:0:0:0:
256,80,88564,1,0,0:0:0:0:
228,272,88718,1,0,0:0:0:0:
89,37,88871,6,2,L|112:96,1,62.9999980773926
184,332,89179,2,2,L|152:264,1,62.9999980773926
188,20,89487,2,2,L|216:76,1,62.9999980773926
308,276,89794,2,2,L|268:216,1,62.9999980773926
316,104,90102,6,2,L|400:68,1,62.9999980773926
28,72,90410,6,0,L|152:72,1,105,0|4,0:0|0:0,0:0:0:0:
32,192,90717,5,0,0:0:0:0:
136,192,90871,1,4,0:0:0:0:
136,320,91179,5,0,0:0:0:0:
28,320,91333,1,4,0:0:0:0:
200,72,91640,5,0,0:0:0:0:
305,72,91794,1,4,0:0:0:0:
204,192,92102,6,0,L|308:192,1,105,0|4,0:0|0:0,0:0:0:0:
312,324,92410,5,0,0:0:0:0:
204,324,92563,1,4,0:0:0:0:
428,192,92871,5,0,0:0:0:0:
300,72,93025,1,0,0:0:0:0:
288,288,93179,1,0,0:0:0:0:
404,76,93333,1,0,0:0:0:0:
436,272,93486,1,0,0:0:0:0:
228,88,93640,1,0,0:0:0:0:
360,288,93794,2,2,P|388:316|424:344,1,62.9999980773926
136,96,94102,5,0,0:0:0:0:
148,124,94179,1,0,0:0:0:0:
160,152,94256,1,0,0:0:0:0:
172,180,94332,1,0,0:0:0:0:
184,208,94409,1,0,0:0:0:0:
280,192,94563,5,0,0:0:0:0:
256,112,94639,1,0,0:0:0:0:
186,68,94716,1,0,0:0:0:0:
104,82,94793,1,0,0:0:0:0:
52,148,94870,1,0,0:0:0:0:
58,231,94947,1,0,0:0:0:0:
116,308,95025,2,4,L|160:356,1,62.9999980773926
440,276,95332,6,4,L|397:229,1,62.9999980773926
304,112,95640,1,0,0:0:0:0:
364,352,95794,1,0,0:0:0:0:
196,264,95948,1,0,0:0:0:0:
432,176,96101,2,2,L|504:140,1,77.0000023498536
272,24,96409,5,0,0:0:0:0:
56,124,96563,1,0,0:0:0:0:
272,140,96717,1,0,0:0:0:0:
64,204,96871,1,0,0:0:0:0:
204,272,97024,2,2,B|144:296|144:296|108:264|44:264|8:344,1,231.000007049561
280,328,97794,5,0,0:0:0:0:
404,132,97948,1,0,0:0:0:0:
280,252,98101,5,0,0:0:0:0:
152,124,98255,1,0,0:0:0:0:
276,8,98409,1,0,0:0:0:0:
404,132,98563,1,0,0:0:0:0:
280,252,98717,2,2,L|224:316,1,77.0000023498536
148,216,99024,2,2,L|52:264,1,77.0000023498536
104,100,99332,2,4,L|180:60,1,77.0000023498536
300,80,99640,5,0,0:0:0:0:
288,240,99793,1,0,0:0:0:0:
400,152,99947,1,0,0:0:0:0:
404,308,100101,1,0,0:0:0:0:
296,136,100255,2,2,L|244:48,2,77.0000023498536
404,308,100716,5,0,0:0:0:0:
216,232,100870,1,0,0:0:0:0:
416,228,101024,1,0,0:0:0:0:
224,320,101178,1,0,0:0:0:0:
376,156,101332,1,0,0:0:0:0:
176,272,101486,2,2,L|96:300,2,77.0000023498536
404,200,101947,5,0,0:0:0:0:
204,344,102101,1,0,0:0:0:0:
292,112,102255,1,0,0:0:0:0:
264,336,102409,1,0,0:0:0:0:
344,68,102562,1,0,0:0:0:0:
112,264,102716,5,8,0:0:0:0:
256,32,102870,1,8,0:0:0:0:
288,308,103024,1,8,0:0:0:0:
324,36,103178,5,8,0:0:0:0:
224,304,103332,1,8,0:0:0:0:
420,132,103485,1,8,0:0:0:0:
112,264,103639,5,8,0:0:0:0:
400,304,103793,1,8,0:0:0:0:
256,32,103947,2,2,P|212:64|232:72,1,105.000004005432
428,296,104254,5,4,0:0:0:0:
96,204,104408,1,4,0:0:0:0:
436,112,104562,1,4,0:0:0:0:
304,320,105177,6,2,B|264:292|264:292|236:296|236:296|220:276|220:276|188:280|188:280|172:256|172:256|140:264|120:232,1,224
176,116,106408,6,2,B|195:146|227:138|227:138|243:162|243:162|275:158|275:158|291:178|291:178|319:174|319:174|359:202,1,224
360,80,107639,2,2,B|392:108|392:108|416:136|416:136|416:192|392:196|392:196|376:248|376:248|344:280,1,224
436,304,108562,6,8,L|392:348,1,56
248,328,108869,2,2,B|180:360|180:360|136:336|136:336|84:296,1,168
180,284,109485,5,0,0:0:0:0:
80,220,109639,5,8,0:0:0:0:
76,152,109792,1,8,0:0:0:0:
124,96,109946,1,8,0:0:0:0:
196,72,110100,2,0,L|284:48,1,70
312,124,110408,2,0,L|396:108,1,70
512,160,110715,6,0,L|420:188,1,70
416,280,111023,2,0,L|324:312,1,70
244,344,111331,2,0,L|148:336,1,70
104,268,111638,5,0,0:0:0:0:
84,172,111792,1,0,0:0:0:0:
128,84,111946,1,0,0:0:0:0:
224,60,112100,1,0,0:0:0:0:
324,56,112254,2,2,L|412:68,1,70
316,176,112561,2,2,L|388:196,1,70
508,232,112869,5,0,0:0:0:0:
428,344,113023,1,0,0:0:0:0:
308,328,113177,5,0,0:0:0:0:
260,308,113254,1,0,0:0:0:0:
212,284,113330,1,0,0:0:0:0:
168,260,113407,1,0,0:0:0:0:
212,228,113484,5,0,0:0:0:0:
180,186,113561,1,0,0:0:0:0:
150,141,113637,1,0,0:0:0:0:
124,99,113714,1,0,0:0:0:0:
176,100,113792,5,0,0:0:0:0:
219,123,113869,1,0,0:0:0:0:
267,147,113945,1,0,0:0:0:0:
316,167,114022,1,0,0:0:0:0:
364,192,114100,6,0,L|420:212,3,52.5000020027161
212,228,114407,2,0,L|156:208,3,52.5000020027161
408,256,114715,5,2,0:0:0:0:
388,348,114869,1,2,0:0:0:0:
296,340,115023,5,0,0:0:0:0:
264,312,115100,1,0,0:0:0:0:
232,284,115176,1,0,0:0:0:0:
200,256,115253,1,0,0:0:0:0:
160,244,115330,5,0,0:0:0:0:
140,236,115407,1,0,0:0:0:0:
120,228,115484,1,0,0:0:0:0:
100,220,115561,1,0,0:0:0:0:
80,184,115638,5,0,0:0:0:0:
96,144,115715,1,0,0:0:0:0:
112,104,115792,1,0,0:0:0:0:
132,68,115869,1,0,0:0:0:0:
188,48,115946,5,0,0:0:0:0:
248,52,116023,1,0,0:0:0:0:
292,92,116099,1,0,0:0:0:0:
296,152,116176,1,0,0:0:0:0:
264,204,116253,5,0,0:0:0:0:
276,232,116330,1,0,0:0:0:0:
288,260,116407,1,0,0:0:0:0:
300,288,116484,1,0,0:0:0:0:
356,308,116561,5,0,0:0:0:0:
404,276,116638,1,0,0:0:0:0:
424,220,116715,1,0,0:0:0:0:
416,160,116792,1,0,0:0:0:0:
384,132,116869,5,0,0:0:0:0:
348,156,116946,1,0,0:0:0:0:
316,180,117022,1,0,0:0:0:0:
284,204,117099,1,0,0:0:0:0:
256,260,117176,5,0,0:0:0:0:
192,268,117253,1,0,0:0:0:0:
128,280,117330,1,0,0:0:0:0:
64,288,117407,1,0,0:0:0:0:
16,248,117484,6,0,L|-16:284,3,41.9999987182618,2|0|2|0,0:0|0:0|0:0|0:0,0:0:0:0:
144,88,117792,6,0,L|116:56,3,41.9999987182618,2|0|2|0,0:0|0:0|0:0|0:0,0:0:0:0:
340,56,118099,5,0,0:0:0:0:
364,92,118176,1,0,0:0:0:0:
384,128,118253,1,0,0:0:0:0:
404,164,118330,1,0,0:0:0:0:
384,224,118407,5,0,0:0:0:0:
332,256,118484,1,0,0:0:0:0:
268,248,118561,1,0,0:0:0:0:
224,204,118638,1,0,0:0:0:0:
228,140,118715,5,0,0:0:0:0:
188,156,118791,1,0,0:0:0:0:
148,172,118868,1,0,0:0:0:0:
108,188,118945,1,0,0:0:0:0:
64,240,119022,5,0,0:0:0:0:
84,304,119099,1,0,0:0:0:0:
140,340,119176,1,0,0:0:0:0:
208,344,119253,1,0,0:0:0:0:
248,288,119330,5,0,0:0:0:0:
280,300,119407,1,0,0:0:0:0:
312,312,119484,1,0,0:0:0:0:
344,324,119561,1,0,0:0:0:0:
404,292,119638,5,0,0:0:0:0:
464,264,119714,1,0,0:0:0:0:
480,200,119791,1,0,0:0:0:0:
452,140,119868,1,0,0:0:0:0:
384,104,119945,6,4,L|324:72,1,48.9999985046387,12|4,0:0|0:0,0:0:0:0:
288,220,120099,5,0,0:0:0:0:
288,220,120176,1,0,0:0:0:0:
288,220,120253,2,4,L|352:236,1,48.9999985046387,12|4,0:0|0:0,0:0:0:0:
136,64,120407,5,0,0:0:0:0:
136,64,120484,1,0,0:0:0:0:
136,64,120561,2,4,L|72:48,1,48.9999985046387,12|4,0:0|0:0,0:0:0:0:
180,320,120714,5,0,0:0:0:0:
180,320,120791,1,0,0:0:0:0:
180,320,120868,2,4,L|228:332,1,48.9999985046387,12|4,0:0|0:0,0:0:0:0:
160,216,121022,5,0,0:0:0:0:
116,192,121099,1,0,0:0:0:0:
92,152,121176,1,0,0:0:0:0:
84,104,121253,1,0,0:0:0:0:
128,48,121330,5,0,0:0:0:0:
176,60,121407,1,0,0:0:0:0:
212,96,121483,1,0,0:0:0:0:
232,140,121560,1,0,0:0:0:0:
204,208,121637,5,0,0:0:0:0:
252,208,121714,1,0,0:0:0:0:
292,184,121791,1,0,0:0:0:0:
324,148,121868,1,0,0:0:0:0:
348,76,121945,5,0,0:0:0:0:
396,88,122022,1,0,0:0:0:0:
432,124,122099,1,0,0:0:0:0:
448,172,122176,1,0,0:0:0:0:
420,240,122253,5,0,0:0:0:0:
372,256,122330,1,0,0:0:0:0:
324,268,122406,2,4,L|252:288,1,48.9999985046387,12|4,0:0|0:0,0:0:0:0:
140,336,122560,5,0,0:0:0:0:
140,336,122637,1,0,0:0:0:0:
140,336,122714,2,4,L|88:320,1,48.9999985046387,12|4,0:0|0:0,0:0:0:0:
304,160,122868,5,0,0:0:0:0:
304,160,122945,1,0,0:0:0:0:
304,160,123022,2,4,L|372:136,1,48.9999985046387,12|4,0:0|0:0,0:0:0:0:
124,108,123176,5,0,0:0:0:0:
124,108,123253,1,0,0:0:0:0:
124,108,123329,2,4,L|56:84,1,48.9999985046387,12|4,0:0|0:0,0:0:0:0:
320,336,123483,5,0,0:0:0:0:
220,48,123637,1,0,0:0:0:0:
344,224,123791,5,0,0:0:0:0:
168,312,123945,1,0,0:0:0:0:
376,296,124099,1,0,0:0:0:0:
204,384,124252,1,0,0:0:0:0:
364,152,124406,5,0,0:0:0:0:
408,76,124560,1,0,0:0:0:0:
432,188,124714,1,0,0:0:0:0:
480,104,124868,1,0,0:0:0:0:
356,320,125022,5,0,0:0:0:0:
192,92,125175,1,0,0:0:0:0:
288,344,125329,1,0,0:0:0:0:
268,80,125483,1,0,0:0:0:0:
104,68,126098,6,2,B|140:100|140:100|120:136|120:136|140:164|140:164|128:232|128:232|144:264,1,195.999994018555
408,68,126714,2,2,B|372:100|372:100|392:136|392:136|372:164|372:164|384:232|384:232|368:264,1,195.999994018555
256,308,127329,5,8,0:0:0:0:
312,340,127406,1,0,0:0:0:0:
376,340,127483,1,0,0:0:0:0:
432,312,127560,1,0,0:0:0:0:
456,240,127637,5,0,0:0:0:0:
396,256,127714,1,0,0:0:0:0:
332,256,127791,1,0,0:0:0:0:
276,232,127867,1,0,0:0:0:0:
244,164,127944,5,0,0:0:0:0:
220,40,128252,5,0,0:0:0:0:
368,72,128406,1,0,0:0:0:0:
256,172,128560,1,8,0:0:0:0:
256,172,128637,1,8,0:0:0:0:
256,172,128714,1,4,0:0:0:0:
200,320,128867,5,8,0:0:0:0:
200,320,128944,1,8,0:0:0:0:
200,320,129021,1,4,0:0:0:0:
76,120,129175,5,8,0:0:0:0:
76,120,129252,1,8,0:0:0:0:
76,120,129329,1,4,0:0:0:0:
80,244,129483,5,0,0:0:0:0:
212,104,129637,1,0,0:0:0:0:
200,320,129790,1,0,0:0:0:0:
272,336,129867,1,0,0:0:0:0:
348,332,129944,1,0,0:0:0:0:
420,304,130021,1,0,0:0:0:0:
456,240,130098,5,0,0:0:0:0:
392,240,130175,1,0,0:0:0:0:
328,240,130252,1,0,0:0:0:0:
264,240,130329,1,0,0:0:0:0:
220,196,130406,5,0,0:0:0:0:
240,172,130483,1,0,0:0:0:0:
260,148,130559,1,0,0:0:0:0:
280,124,130636,1,0,0:0:0:0:
300,100,130713,2,0,B|356:24|356:24|288:40,1,125.999996154785
76,32,131021,5,0,0:0:0:0:
204,168,131329,1,0,0:0:0:0:
344,288,131636,1,8,0:0:0:0:
344,288,131713,1,8,0:0:0:0:
344,288,131790,1,4,0:0:0:0:
116,128,131944,1,0,0:0:0:0:
232,332,132098,1,0,0:0:0:0:
248,128,132252,5,0,0:0:0:0:
224,96,132329,1,0,0:0:0:0:
199,67,132406,2,4,L|157:10,1,62.9999980773926
360,152,132559,5,0,0:0:0:0:
396,168,132636,1,0,0:0:0:0:
432,180,132713,2,4,L|496:208,1,62.9999980773926
152,208,132867,5,0,0:0:0:0:
116,192,132944,1,0,0:0:0:0:
80,180,133021,2,4,L|16:152,1,62.9999980773926
288,256,133175,5,0,0:0:0:0:
312,288,133252,1,0,0:0:0:0:
337,317,133329,2,4,L|378:373,1,62.9999980773926
374,367,133482,1,4,0:0:0:0:
256,4,134098,5,2,0:0:0:0:
256,192,134405,1,2,0:0:0:0:
120,192,134713,5,8,0:0:0:0:
144,236,134789,1,8,0:0:0:0:
164,280,134866,1,8,0:0:0:0:
184,324,134943,1,8,0:0:0:0:
252,352,135020,5,8,0:0:0:0:
268,316,135097,1,8,0:0:0:0:
284,280,135174,1,8,0:0:0:0:
300,244,135251,1,8,0:0:0:0:
368,272,135328,5,4,0:0:0:0:
80,344,135944,5,0,0:0:0:0:
216,144,136097,1,0,0:0:0:0:
248,336,136251,1,0,0:0:0:0:
60,184,136405,1,0,0:0:0:0:
320,240,136559,2,2,P|388:236|432:224,1,112
260,80,136867,5,0,0:0:0:0:
396,352,137020,1,0,0:0:0:0:
192,212,137174,1,0,0:0:0:0:
192,212,137251,1,0,0:0:0:0:
192,212,137328,1,0,0:0:0:0:
432,192,137482,1,0,0:0:0:0:
60,112,137636,5,0,0:0:0:0:
232,288,137790,1,0,0:0:0:0:
300,64,137943,1,0,0:0:0:0:
256,348,138097,5,0,0:0:0:0:
32,156,138251,1,0,0:0:0:0:
320,176,138405,1,0,0:0:0:0:
128,352,138559,1,0,0:0:0:0:
112,80,138712,2,0,B|168:36|168:36|240:64,1,112
280,228,139020,5,0,0:0:0:0:
84,372,139174,1,0,0:0:0:0:
28,144,139328,1,0,0:0:0:0:
228,376,139482,1,0,0:0:0:0:
340,120,139635,1,8,0:0:0:0:
340,120,139712,1,0,0:0:0:0:
340,120,139789,1,8,0:0:0:0:
340,120,139866,1,0,0:0:0:0:
340,120,139943,1,8,0:0:0:0:
168,176,140097,5,4,0:0:0:0:
388,312,140251,2,2,L|440:348,1,59.5000011348725
264,144,140405,2,0,L|196:84,1,59.5000011348725
484,220,140558,1,8,1:0:0:0:
471,281,140635,1,0,1:0:0:0:
433,331,140712,1,0,1:0:0:0:
375,356,140789,1,0,1:0:0:0:
312,364,140866,2,0,P|245:359|186:334,1,119.000002269745,0|0,1:0|1:0,1:0:0:0:
200,20,141174,2,0,P|266:24|325:49,1,119.000002269745,0|0,1:0|1:0,1:0:0:0:
256,324,141481,5,0,0:0:0:0:
256,64,141635,1,0,0:0:0:0:
183,317,141789,5,0,0:0:0:0:
326,70,141943,1,0,0:0:0:0:
85,254,142097,5,0,0:0:0:0:
421,131,142251,1,0,0:0:0:0:
77,160,142404,5,0,0:0:0:0:
429,222,142558,1,0,0:0:0:0:
96,324,142712,2,0,B|32:340|32:340|64:298,1,119.000002269745
280,80,143020,5,0,0:0:0:0:
400,276,143174,1,0,0:0:0:0:
148,264,143327,1,0,0:0:0:0:
356,72,143481,5,0,0:0:0:0:
362,335,143635,1,0,0:0:0:0:
118,179,143788,1,0,0:0:0:0:
424,124,143943,5,0,0:0:0:0:
152,328,144097,1,0,0:0:0:0:
192,92,144250,5,0,0:0:0:0:
432,304,144404,1,0,0:0:0:0:
80,232,144558,1,8,0:0:0:0:
44,184,144635,1,0,0:0:0:0:
24,128,144712,1,8,0:0:0:0:
28,68,144789,1,0,0:0:0:0:
88,108,144866,5,8,0:0:0:0:
124,156,144943,1,0,0:0:0:0:
148,208,145020,1,8,0:0:0:0:
160,264,145096,1,0,0:0:0:0:
148,324,145173,2,2,L|120:384,1,59.5000011348725
368,312,145327,5,8,0:0:0:0:
368,312,145404,1,8,0:0:0:0:
368,312,145481,2,2,L|396:372,1,59.5000011348725
320,132,145789,6,2,B|380:144|380:144|408:180|444:192|444:192|460:228|456:264|456:264|440:312,1,238.00000453949
192,132,146404,2,2,B|132:144|132:144|104:180|68:192|68:192|52:228|56:264|56:264|72:312,1,238.00000453949
256,268,147019,5,8,0:0:0:0:
256,220,147096,1,0,0:0:0:0:
256,172,147173,1,8,0:0:0:0:
304,140,147250,5,0,0:0:0:0:
304,76,147327,1,0,0:0:0:0:
304,12,147404,1,0,0:0:0:0:
256,56,147481,5,0,0:0:0:0:
208,112,147558,1,0,0:0:0:0:
156,164,147635,2,0,L|88:228,1,59.5000011348725
292,320,147942,5,8,0:0:0:0:
320,308,148019,5,8,0:0:0:0:
368,268,148096,5,8,0:0:0:0:
408,184,148173,5,8,0:0:0:0:
364,68,148250,6,4,L|308:12,1,62.9999980773926
192,36,148404,5,8,0:0:0:0:
140,68,148481,1,0,0:0:0:0:
104,120,148558,1,8,0:0:0:0:
108,184,148635,1,0,0:0:0:0:
165,193,148711,5,8,0:0:0:0:
217,233,148788,1,2,0:0:0:0:
269,269,148865,2,4,L|337:321,1,62.9999980773926
464,104,149019,5,0,0:0:0:0:
428,52,149096,1,0,0:0:0:0:
372,24,149173,1,0,0:0:0:0:
308,24,149250,1,0,0:0:0:0:
268,76,149327,5,0,0:0:0:0:
216,112,149404,1,0,0:0:0:0:
164,148,149481,2,0,L|96:192,1,62.9999980773926
340,328,149634,5,8,0:0:0:0:
405,319,149711,1,0,0:0:0:0:
458,282,149788,1,8,0:0:0:0:
478,223,149865,1,0,0:0:0:0:
424,180,149942,5,0,0:0:0:0:
364,200,150019,1,0,0:0:0:0:
304,224,150096,2,0,L|220:252,1,62.9999980773926
164,180,150250,5,8,0:0:0:0:
99,171,150327,1,0,0:0:0:0:
46,134,150404,1,8,0:0:0:0:
26,75,150481,1,0,0:0:0:0:
80,32,150558,5,0,0:0:0:0:
140,52,150635,1,0,0:0:0:0:
200,76,150712,2,0,L|284:104,1,62.9999980773926
376,216,150865,5,8,0:0:0:0:
436,200,150942,1,0,0:0:0:0:
464,144,151019,1,8,0:0:0:0:
432,88,151096,1,0,0:0:0:0:
384,128,151173,5,0,0:0:0:0:
336,172,151250,1,0,0:0:0:0:
288,212,151327,2,0,L|224:268,1,62.9999980773926
264,348,151480,5,8,0:0:0:0:
328,336,151557,1,0,0:0:0:0:
384,308,151634,1,0,0:0:0:0:
424,260,151711,1,0,0:0:0:0:
456,208,151788,2,2,P|476:164|472:132,1,62.9999980773926
196,28,151942,5,0,0:0:0:0:
152,84,152019,1,0,0:0:0:0:
120,148,152096,1,0,0:0:0:0:
120,220,152173,1,0,0:0:0:0:
196,228,152250,5,0,0:0:0:0:
268,248,152326,1,0,0:0:0:0:
340,272,152403,1,0,0:0:0:0:
416,292,152480,1,0,0:0:0:0:
480,240,152557,5,0,0:0:0:0:
452,160,152634,1,0,0:0:0:0:
376,128,152711,1,0,0:0:0:0:
296,156,152788,1,0,0:0:0:0:
268,248,152865,5,0,0:0:0:0:
184,280,152942,1,0,0:0:0:0:
112,224,153019,1,0,0:0:0:0:
112,132,153096,1,0,0:0:0:0:
144,52,153173,2,0,L|212:8,1,66.4999982242585
436,48,153326,5,0,0:0:0:0:
376,80,153403,1,0,0:0:0:0:
320,112,153480,2,0,L|256:148,1,66.4999982242585
72,168,153634,5,0,0:0:0:0:
132,200,153711,1,0,0:0:0:0:
188,232,153788,2,0,L|252:268,1,66.4999982242585
408,144,153942,5,0,0:0:0:0:
376,84,154019,1,0,0:0:0:0:
320,48,154096,2,0,L|248:28,1,66.4999982242585
104,240,154249,5,0,0:0:0:0:
136,300,154326,1,0,0:0:0:0:
192,336,154403,2,0,L|256:353,1,66.4999982242585
468,172,154557,5,0,0:0:0:0:
428,120,154634,1,0,0:0:0:0:
368,92,154711,1,0,0:0:0:0:
300,92,154788,1,0,0:0:0:0:
272,152,154865,5,0,0:0:0:0:
204,148,154942,1,0,0:0:0:0:
136,144,155019,2,0,L|60:136,1,66.4999982242585
256,240,155172,5,8,0:0:0:0:
304,276,155249,1,0,0:0:0:0:
356,308,155326,2,4,L|424:352,1,66.4999982242585
252,136,155480,5,8,0:0:0:0:
204,100,155557,1,0,0:0:0:0:
152,68,155634,2,4,L|76:20,1,66.4999982242585
320,264,155788,5,8,0:0:0:0:
379,271,155865,1,0,0:0:0:0:
440,272,155942,2,4,L|529:275,1,66.4999982242585
188,152,156095,5,8,0:0:0:0:
128,144,156172,1,0,0:0:0:0:
67,143,156249,2,4,L|-22:139,1,66.4999982242585
256,328,156403,5,0,0:0:0:0:
320,308,156480,1,8,0:0:0:0:
372,264,156557,1,0,0:0:0:0:
408,208,156634,1,8,0:0:0:0:
428,144,156711,2,0,L|444:72,1,66.4999982242585
136,60,156864,5,2,0:0:0:0:
148,112,156941,1,2,0:0:0:0:
168,160,157018,1,2,0:0:0:0:
204,192,157095,1,2,0:0:0:0:
232,240,157172,5,2,0:0:0:0:
224,292,157249,1,2,0:0:0:0:
176,320,157326,1,2,0:0:0:0:
132,300,157403,1,2,0:0:0:0:
112,252,157480,5,2,0:0:0:0:
128,200,157557,1,2,0:0:0:0:
168,164,157634,1,2,0:0:0:0:
220,160,157711,1,2,0:0:0:0:
284,156,157787,6,4,P|348:144|400:88,1,125.999996154785
404,256,158095,5,8,0:0:0:0:
404,256,158172,1,0,0:0:0:0:
404,256,158249,1,8,0:0:0:0:
404,256,158326,1,0,0:0:0:0:
404,256,158403,1,8,0:0:0:0:
260,200,158557,5,8,0:0:0:0:
260,200,158634,1,8,0:0:0:0:
260,200,158710,1,4,0:0:0:0:
188,332,158864,1,2,0:0:0:0:
352,112,159018,1,8,0:0:0:0:
352,112,159095,1,8,0:0:0:0:
352,112,159172,1,4,0:0:0:0:
104,156,159326,5,8,0:0:0:0:
104,156,159403,1,0,0:0:0:0:
104,156,159480,1,8,0:0:0:0:
104,156,159557,1,0,0:0:0:0:
104,156,159633,1,8,0:0:0:0:
256,36,159787,5,2,0:0:0:0:
256,36,159864,1,8,0:0:0:0:
256,36,159941,1,8,0:0:0:0:
256,196,160095,1,4,0:0:0:0:
264,368,160249,1,2,0:0:0:0:
264,368,160326,1,2,0:0:0:0:
264,368,160403,1,0,0:0:0:0:
408,88,160556,5,8,0:0:0:0:
408,88,160633,1,8,0:0:0:0:
408,88,160710,1,4,0:0:0:0:
408,88,160787,1,0,0:0:0:0:
408,88,160864,1,2,0:0:0:0:
152,92,161018,5,8,0:0:0:0:
152,92,161095,1,0,0:0:0:0:
152,92,161172,1,8,0:0:0:0:
256,240,161326,1,8,0:0:0:0:
32,204,161479,1,2,0:0:0:0:
32,204,161556,1,0,0:0:0:0:
32,204,161633,1,2,0:0:0:0:
176,268,161787,5,8,0:0:0:0:
224,260,161864,1,0,0:0:0:0:
272,252,161941,1,8,0:0:0:0:
320,244,162018,1,0,0:0:0:0:
368,236,162095,1,8,0:0:0:0:
328,148,162249,5,8,0:0:0:0:
376,132,162325,1,8,0:0:0:0:
424,116,162402,1,4,0:0:0:0:
256,32,162556,1,2,0:0:0:0:
184,148,162710,1,8,0:0:0:0:
136,132,162786,1,8,0:0:0:0:
88,116,162863,1,4,0:0:0:0:
104,296,163018,5,8,0:0:0:0:
152,312,163095,1,0,0:0:0:0:
204,312,163172,1,8,0:0:0:0:
252,296,163248,1,0,0:0:0:0:
296,276,163325,2,4,L|392:236,1,62.9999980773926
424,196,163479,5,8,0:0:0:0:
384,164,163556,1,0,0:0:0:0:
376,116,163633,1,0,0:0:0:0:
396,72,163710,1,0,0:0:0:0:
336,56,163787,5,8,0:0:0:0:
280,84,163864,1,0,0:0:0:0:
224,112,163941,1,8,0:0:0:0:
168,140,164018,1,0,0:0:0:0:
148,200,164095,5,8,0:0:0:0:
112,232,164171,1,0,0:0:0:0:
72,264,164248,2,4,L|0:312,1,62.9999980773926
256,320,164402,5,8,0:0:0:0:
304,328,164479,1,0,0:0:0:0:
352,336,164556,2,4,L|444:348,1,62.9999980773926
256,176,164710,5,8,0:0:0:0:
208,188,164787,1,0,0:0:0:0:
160,200,164864,2,4,L|84:216,1,62.9999980773926
312,56,165017,1,8,0:0:0:0:
360,72,165094,1,0,0:0:0:0:
408,88,165171,2,0,L|484:112,1,62.9999980773926
196,286,165325,2,0,L|136:268,1,62.9999980773926
408,88,165479,6,0,L|408:25,1,62.9999980773926
160,200,165633,2,0,L|160:137,1,62.9999980773926
352,336,165787,2,0,L|352:273,1,62.9999980773926
168,84,166094,5,0,0:0:0:0:
168,148,166171,1,0,0:0:0:0:
168,212,166248,1,0,0:0:0:0:
168,276,166325,1,0,0:0:0:0:
168,340,166402,1,0,0:0:0:0:
364,36,166709,5,0,0:0:0:0:
364,100,166786,1,0,0:0:0:0:
364,164,166863,1,0,0:0:0:0:
364,228,166940,1,0,0:0:0:0:
364,292,167017,1,0,0:0:0:0:
312,328,167094,5,0,0:0:0:0:
260,292,167171,1,0,0:0:0:0:
252,228,167248,1,0,0:0:0:0:
280,172,167325,1,0,0:0:0:0:
