osu file format v14

[General]
AudioFilename: audio.mp3
AudioLeadIn: 0
PreviewTime: 43171
Countdown: 1
SampleSet: None
StackLeniency: 0.7
Mode: 1
LetterboxInBreaks: 0
WidescreenStoryboard: 0

[Editor]
DistanceSpacing: 2.7
BeatDivisor: 4
GridSize: 16
TimelineZoom: 3.499998

[Metadata]
Title:Sacrifice
TitleUnicode:Sacrifice
Artist:9mm Parabellum Bullet
ArtistUnicode:9mm Parabellum Bullet
Creator:0floor0
Version:Gore Oni
Source:Berserk
Tags:Yooh berserk 3rd season
BeatmapID:1971814
BeatmapSetID:944132

[Difficulty]
HPDrainRate:5
CircleSize:2
OverallDifficulty:5
ApproachRate:10
SliderMultiplier:1.4
SliderTickRate:1

[Events]
//Background and Video events
0,0,"berserker_armor-guts-berserk-anime-(16529).jpg",0,0
//Break Periods
//Storyboard Layer 0 (Background)
//Storyboard Layer 1 (Fail)
//Storyboard Layer 2 (Pass)
//Storyboard Layer 3 (Foreground)
//Storyboard Sound Samples

[TimingPoints]
196,300,4,1,1,85,1,0
196,-125,4,1,1,85,0,0
4996,-111.111111111111,4,1,1,85,0,0
33796,-100,4,1,1,85,0,1
36196,-111.111111111111,4,1,1,85,0,0
38596,-100,4,1,1,85,0,1
38596,-111.111111111111,4,1,1,85,0,1
40996,-100,4,1,1,85,0,0
43396,-100,4,1,1,85,0,1
52996,-99.9999999999999,4,1,1,85,0,0
61546,-142.857142857143,4,1,1,85,0,0
78196,-111.111111111111,4,1,1,85,0,0
80596,-100,4,1,1,85,0,1
87796,-111.111111111111,4,1,1,85,0,0
88396,-90.9090909090909,4,1,1,85,0,0

[HitObjects]
234,152,196,5,0,0:0:0:0:
251,161,496,1,0,0:0:0:0:
248,161,796,1,8,0:0:0:0:
251,161,1096,1,0,0:0:0:0:
241,162,1246,1,0,0:0:0:0:
248,161,1396,1,8,0:0:0:0:
248,161,1546,1,8,0:0:0:0:
248,161,1696,1,0,0:0:0:0:
204,197,1996,1,0,0:0:0:0:
256,134,2296,1,8,0:0:0:0:
256,134,2596,1,0,0:0:0:0:
256,134,2896,1,0,0:0:0:0:
256,134,3196,1,8,0:0:0:0:
256,134,3496,1,0,0:0:0:0:
126,155,3646,1,0,0:0:0:0:
256,134,3796,1,8,0:0:0:0:
275,232,3946,1,8,0:0:0:0:
273,129,4096,1,0,0:0:0:0:
196,159,4246,1,0,0:0:0:0:
222,151,4296,1,0,0:0:0:0:
221,150,4346,1,0,0:0:0:0:
220,147,4396,1,8,0:0:0:0:
299,116,4546,1,0,0:0:0:0:
276,136,4696,1,8,0:0:0:0:
115,152,4846,1,0,0:0:0:0:
178,149,4996,1,0,0:0:0:0:
251,103,5071,1,0,0:0:0:0:
184,198,5146,1,8,0:0:0:0:
184,198,5296,1,0,0:0:0:0:
192,201,5446,1,8,0:0:0:0:
262,122,5521,1,0,0:0:0:0:
192,197,5596,1,8,0:0:0:0:
187,207,5746,1,0,0:0:0:0:
180,144,5896,1,0,0:0:0:0:
264,127,6046,1,8,0:0:0:0:
264,127,6196,1,0,0:0:0:0:
264,127,6271,1,0,0:0:0:0:
264,127,6346,1,8,0:0:0:0:
270,239,6496,1,0,0:0:0:0:
270,239,6646,1,8,0:0:0:0:
270,225,6721,1,0,0:0:0:0:
271,228,6796,1,8,0:0:0:0:
295,228,6946,1,0,0:0:0:0:
297,223,7096,1,0,0:0:0:0:
302,218,7246,1,8,0:0:0:0:
314,217,7396,1,0,0:0:0:0:
309,212,7471,1,0,0:0:0:0:
320,222,7546,1,8,0:0:0:0:
297,268,7696,1,0,0:0:0:0:
296,261,7846,1,8,0:0:0:0:
297,258,7921,1,0,0:0:0:0:
297,259,7996,1,8,0:0:0:0:
290,306,8146,1,0,0:0:0:0:
289,298,8296,1,0,0:0:0:0:
289,298,8446,1,8,0:0:0:0:
288,297,8596,1,0,0:0:0:0:
286,296,8671,1,0,0:0:0:0:
285,294,8746,1,8,0:0:0:0:
285,293,8821,1,8,0:0:0:0:
275,301,8896,1,0,0:0:0:0:
277,293,9046,1,0,0:0:0:0:
278,290,9196,1,8,0:0:0:0:
278,289,9271,1,0,0:0:0:0:
273,289,9346,1,8,0:0:0:0:
312,266,9496,1,0,0:0:0:0:
291,293,9646,1,0,0:0:0:0:
294,291,9796,1,8,0:0:0:0:
285,126,9871,1,0,0:0:0:0:
296,289,9946,1,8,0:0:0:0:
296,282,10096,1,0,0:0:0:0:
195,151,10171,1,0,0:0:0:0:
295,277,10246,1,8,0:0:0:0:
196,98,10396,1,0,0:0:0:0:
261,90,10546,1,0,0:0:0:0:
261,90,10696,1,0,0:0:0:0:
261,90,10846,1,8,0:0:0:0:
215,104,10996,1,0,0:0:0:0:
219,56,11071,5,0,0:0:0:0:
220,62,11146,1,8,0:0:0:0:
200,171,11296,1,0,0:0:0:0:
200,171,11446,1,8,0:0:0:0:
200,171,11596,1,0,0:0:0:0:
229,248,11671,1,0,0:0:0:0:
206,163,11746,1,8,0:0:0:0:
268,42,11896,1,0,0:0:0:0:
268,42,12046,1,0,0:0:0:0:
241,197,12196,1,8,0:0:0:0:
241,197,12271,1,0,0:0:0:0:
241,197,12346,1,8,0:0:0:0:
241,197,12496,1,0,0:0:0:0:
224,64,12646,5,8,0:0:0:0:
242,81,12721,1,0,0:0:0:0:
241,83,12796,1,8,0:0:0:0:
231,198,12946,1,0,0:0:0:0:
240,185,13096,1,0,0:0:0:0:
234,193,13246,1,8,0:0:0:0:
258,166,13396,1,0,0:0:0:0:
342,135,13471,1,0,0:0:0:0:
342,135,13546,1,8,0:0:0:0:
342,135,13696,1,0,0:0:0:0:
333,137,13846,1,0,0:0:0:0:
301,198,13996,1,0,0:0:0:0:
301,198,14071,1,8,0:0:0:0:
307,196,14146,1,8,0:0:0:0:
310,191,14221,1,8,0:0:0:0:
316,195,14296,1,0,0:0:0:0:
315,192,14371,1,0,0:0:0:0:
313,192,14446,1,8,0:0:0:0:
312,190,14521,1,8,0:0:0:0:
311,187,14596,1,0,0:0:0:0:
163,156,14746,5,0,0:0:0:0:
311,232,14896,1,0,0:0:0:0:
311,232,15046,1,0,0:0:0:0:
298,245,15196,1,0,0:0:0:0:
296,241,15346,1,8,0:0:0:0:
298,236,15496,1,0,0:0:0:0:
212,166,15571,1,0,0:0:0:0:
299,235,15646,1,8,0:0:0:0:
300,234,15796,1,0,0:0:0:0:
263,133,15946,1,8,0:0:0:0:
269,134,16096,1,0,0:0:0:0:
265,145,16171,1,0,0:0:0:0:
265,145,16246,1,8,0:0:0:0:
262,146,16396,1,0,0:0:0:0:
262,145,16546,1,8,0:0:0:0:
261,143,16621,1,0,0:0:0:0:
260,142,16696,1,0,0:0:0:0:
231,188,16846,1,0,0:0:0:0:
231,188,16996,1,8,0:0:0:0:
234,182,17071,1,8,0:0:0:0:
234,182,17146,1,0,0:0:0:0:
231,216,17221,1,0,0:0:0:0:
228,223,17296,1,8,0:0:0:0:
232,215,17446,1,0,0:0:0:0:
233,214,17596,1,8,0:0:0:0:
234,212,17671,1,0,0:0:0:0:
233,211,17746,1,8,0:0:0:0:
228,222,17896,1,0,0:0:0:0:
227,222,18046,1,0,0:0:0:0:
228,223,18121,1,0,0:0:0:0:
232,215,18196,1,0,0:0:0:0:
226,228,18346,1,8,0:0:0:0:
226,227,18496,1,0,0:0:0:0:
228,222,18646,1,8,0:0:0:0:
227,222,18796,1,0,0:0:0:0:
181,214,18871,1,0,0:0:0:0:
191,189,18946,5,8,0:0:0:0:
216,167,19021,1,0,0:0:0:0:
200,183,19096,1,0,0:0:0:0:
212,195,19246,1,0,0:0:0:0:
209,194,19396,1,8,0:0:0:0:
208,193,19471,1,0,0:0:0:0:
207,192,19546,1,8,0:0:0:0:
205,214,19696,1,0,0:0:0:0:
176,118,19846,1,8,0:0:0:0:
209,199,19921,1,0,0:0:0:0:
213,74,19996,1,8,0:0:0:0:
230,192,20146,1,0,0:0:0:0:
231,189,20296,1,0,0:0:0:0:
231,188,20446,1,8,0:0:0:0:
230,186,20596,1,0,0:0:0:0:
230,187,20671,1,0,0:0:0:0:
233,190,20746,1,8,0:0:0:0:
230,192,20821,1,8,0:0:0:0:
230,192,20896,1,0,0:0:0:0:
226,247,21046,1,0,0:0:0:0:
226,247,21196,1,8,0:0:0:0:
226,238,21346,1,0,0:0:0:0:
227,237,21496,1,8,0:0:0:0:
227,234,21646,1,0,0:0:0:0:
224,235,21796,1,8,0:0:0:0:
221,239,21871,1,0,0:0:0:0:
227,240,21946,1,8,0:0:0:0:
226,238,22096,1,0,0:0:0:0:
227,237,22246,1,8,0:0:0:0:
243,114,22321,1,0,0:0:0:0:
248,126,22396,1,8,0:0:0:0:
241,232,22546,1,0,0:0:0:0:
242,225,22696,1,0,0:0:0:0:
242,222,22846,1,8,0:0:0:0:
243,220,22996,1,0,0:0:0:0:
241,220,23071,1,8,0:0:0:0:
238,216,23146,1,8,0:0:0:0:
190,108,23221,1,8,0:0:0:0:
190,108,23296,1,0,0:0:0:0:
190,187,23446,1,8,0:0:0:0:
190,187,23596,1,0,0:0:0:0:
238,141,23671,1,8,0:0:0:0:
190,187,23746,1,8,0:0:0:0:
190,187,23821,1,0,0:0:0:0:
189,180,23896,1,8,0:0:0:0:
190,187,23971,1,8,0:0:0:0:
191,200,24046,1,0,0:0:0:0:
190,187,24121,1,0,0:0:0:0:
190,187,24196,1,8,0:0:0:0:
241,85,24346,1,0,0:0:0:0:
248,85,24496,1,0,0:0:0:0:
241,85,24646,1,8,0:0:0:0:
241,182,24721,1,0,0:0:0:0:
275,97,24796,1,8,0:0:0:0:
277,97,24946,1,0,0:0:0:0:
278,98,25096,1,0,0:0:0:0:
275,97,25171,1,8,0:0:0:0:
279,95,25246,1,8,0:0:0:0:
263,135,25321,1,0,0:0:0:0:
263,135,25396,1,8,0:0:0:0:
217,165,25546,1,0,0:0:0:0:
221,160,25696,1,0,0:0:0:0:
217,165,25846,1,8,0:0:0:0:
217,165,25996,1,0,0:0:0:0:
195,34,26071,1,0,0:0:0:0:
199,44,26146,1,8,0:0:0:0:
206,157,26296,1,0,0:0:0:0:
218,151,26446,1,8,0:0:0:0:
219,149,26596,1,0,0:0:0:0:
260,137,26671,1,0,0:0:0:0:
260,137,26746,1,8,0:0:0:0:
260,137,26896,1,0,0:0:0:0:
257,130,27046,1,8,0:0:0:0:
205,14,27121,1,0,0:0:0:0:
204,20,27196,1,8,0:0:0:0:
201,161,27346,1,0,0:0:0:0:
201,150,27496,1,0,0:0:0:0:
240,85,27646,1,8,0:0:0:0:
247,84,27796,1,0,0:0:0:0:
248,84,27871,1,0,0:0:0:0:
250,84,27946,1,8,0:0:0:0:
248,84,28021,1,8,0:0:0:0:
240,85,28096,1,0,0:0:0:0:
208,34,28246,1,0,0:0:0:0:
220,54,28396,1,0,0:0:0:0:
217,54,28546,1,0,0:0:0:0:
214,52,28696,1,8,0:0:0:0:
205,126,28846,1,8,0:0:0:0:
208,144,28996,1,0,0:0:0:0:
208,139,29071,1,0,0:0:0:0:
203,140,29146,1,8,0:0:0:0:
190,202,29296,1,0,0:0:0:0:
190,202,29446,1,8,0:0:0:0:
195,197,29521,1,0,0:0:0:0:
195,197,29596,1,8,0:0:0:0:
201,134,29746,1,0,0:0:0:0:
208,139,29896,1,0,0:0:0:0:
207,132,30046,1,8,0:0:0:0:
201,134,30196,1,0,0:0:0:0:
171,128,30271,1,0,0:0:0:0:
176,125,30346,1,8,0:0:0:0:
176,123,30421,1,8,0:0:0:0:
175,122,30496,1,0,0:0:0:0:
164,164,30646,1,0,0:0:0:0:
164,157,30796,1,8,0:0:0:0:
164,155,30871,1,0,0:0:0:0:
163,158,30946,1,8,0:0:0:0:
176,118,31096,1,0,0:0:0:0:
176,123,31246,1,0,0:0:0:0:
176,118,31396,1,8,0:0:0:0:
191,97,31471,1,0,0:0:0:0:
176,118,31546,1,8,0:0:0:0:
176,118,31696,1,0,0:0:0:0:
257,162,31846,1,8,0:0:0:0:
257,162,31921,1,0,0:0:0:0:
257,162,31996,1,8,0:0:0:0:
245,177,32146,1,0,0:0:0:0:
242,177,32296,1,0,0:0:0:0:
270,104,32446,1,8,0:0:0:0:
271,118,32596,1,0,0:0:0:0:
207,177,32671,1,0,0:0:0:0:
205,167,32746,5,8,0:0:0:0:
294,97,32896,1,0,0:0:0:0:
302,105,33046,1,8,0:0:0:0:
281,192,33196,1,0,0:0:0:0:
280,183,33271,1,8,0:0:0:0:
270,128,33346,1,8,0:0:0:0:
276,125,33421,1,0,0:0:0:0:
273,134,33496,1,0,0:0:0:0:
269,134,33571,1,8,0:0:0:0:
260,134,33646,1,8,0:0:0:0:
258,135,33796,1,4,0:0:0:0:
236,208,33946,1,8,0:0:0:0:
164,202,34096,1,0,0:0:0:0:
164,202,34171,1,0,0:0:0:0:
248,122,34246,1,8,0:0:0:0:
251,121,34396,1,0,0:0:0:0:
261,208,34546,1,8,0:0:0:0:
247,246,34696,1,0,0:0:0:0:
157,222,34771,1,0,0:0:0:0:
252,239,34846,1,8,0:0:0:0:
259,239,34996,1,0,0:0:0:0:
265,172,35146,1,0,0:0:0:0:
136,167,35296,1,8,0:0:0:0:
121,182,35446,1,8,0:0:0:0:
187,142,35596,1,0,0:0:0:0:
187,142,35671,1,0,0:0:0:0:
190,136,35746,1,8,0:0:0:0:
187,142,35896,1,0,0:0:0:0:
191,135,36046,1,0,0:0:0:0:
173,180,36196,1,0,0:0:0:0:
261,270,36271,1,0,0:0:0:0:
176,198,36346,1,8,0:0:0:0:
184,195,36496,1,0,0:0:0:0:
186,192,36646,1,8,0:0:0:0:
189,188,36721,1,0,0:0:0:0:
190,184,36796,1,8,0:0:0:0:
263,248,36946,1,0,0:0:0:0:
264,244,37096,1,0,0:0:0:0:
263,248,37246,1,8,0:0:0:0:
211,85,37396,1,0,0:0:0:0:
211,85,37471,1,0,0:0:0:0:
211,85,37546,1,8,0:0:0:0:
229,236,37696,1,0,0:0:0:0:
233,222,37846,1,0,0:0:0:0:
235,216,37996,1,8,0:0:0:0:
236,209,38071,1,8,0:0:0:0:
235,211,38146,1,0,0:0:0:0:
239,210,38221,1,0,0:0:0:0:
240,209,38296,1,8,0:0:0:0:
239,208,38371,1,8,0:0:0:0:
238,209,38446,1,0,0:0:0:0:
238,208,38596,1,12,0:0:0:0:
272,85,38746,1,0,0:0:0:0:
272,85,38896,5,8,0:0:0:0:
276,106,39046,1,8,0:0:0:0:
275,98,39196,1,0,0:0:0:0:
326,77,39271,1,0,0:0:0:0:
241,28,39346,5,8,0:0:0:0:
233,95,39496,1,0,0:0:0:0:
233,95,39646,1,8,0:0:0:0:
233,95,39721,1,0,0:0:0:0:
233,95,39796,1,8,0:0:0:0:
226,93,39946,1,0,0:0:0:0:
233,95,40096,1,8,0:0:0:0:
214,81,40171,1,0,0:0:0:0:
226,86,40246,1,0,0:0:0:0:
204,103,40396,1,0,0:0:0:0:
211,92,40546,1,8,0:0:0:0:
211,17,40696,1,0,0:0:0:0:
211,17,40771,1,0,0:0:0:0:
216,26,40846,1,8,0:0:0:0:
215,22,40921,1,8,0:0:0:0:
184,43,40996,1,8,0:0:0:0:
200,86,41146,1,0,0:0:0:0:
202,84,41221,1,0,0:0:0:0:
202,81,41296,1,8,0:0:0:0:
186,87,41446,1,0,0:0:0:0:
186,80,41521,1,0,0:0:0:0:
185,83,41596,1,8,0:0:0:0:
190,95,41746,1,0,0:0:0:0:
200,86,41821,1,0,0:0:0:0:
189,83,41896,1,8,0:0:0:0:
190,105,42046,1,0,0:0:0:0:
186,99,42121,1,0,0:0:0:0:
190,99,42196,1,8,0:0:0:0:
186,97,42346,1,0,0:0:0:0:
173,166,42421,1,0,0:0:0:0:
173,166,42496,1,8,0:0:0:0:
173,166,42646,1,0,0:0:0:0:
179,167,42721,1,0,0:0:0:0:
173,166,42796,1,8,0:0:0:0:
182,170,42871,1,8,0:0:0:0:
242,172,42946,1,0,0:0:0:0:
242,172,43021,1,0,0:0:0:0:
242,172,43096,1,0,0:0:0:0:
242,172,43171,1,0,0:0:0:0:
214,158,43246,1,0,0:0:0:0:
175,191,43396,1,12,0:0:0:0:
175,189,43546,1,0,0:0:0:0:
227,242,43696,1,8,0:0:0:0:
227,242,43846,1,0,0:0:0:0:
228,234,43921,1,0,0:0:0:0:
228,235,43996,1,8,0:0:0:0:
219,254,44146,1,0,0:0:0:0:
222,248,44296,1,8,0:0:0:0:
222,247,44446,1,0,0:0:0:0:
223,249,44521,1,0,0:0:0:0:
227,242,44596,1,8,0:0:0:0:
216,291,44746,1,0,0:0:0:0:
216,291,44896,1,8,0:0:0:0:
216,286,44971,1,0,0:0:0:0:
214,283,45046,1,8,0:0:0:0:
205,285,45196,1,0,0:0:0:0:
202,282,45346,1,8,0:0:0:0:
220,243,45496,1,0,0:0:0:0:
220,243,45571,1,0,0:0:0:0:
220,243,45646,1,8,0:0:0:0:
220,243,45721,1,8,0:0:0:0:
220,243,45796,1,0,0:0:0:0:
205,285,45946,1,0,0:0:0:0:
209,287,46096,1,0,0:0:0:0:
287,256,46246,1,8,0:0:0:0:
295,242,46396,1,0,0:0:0:0:
316,337,46471,1,8,0:0:0:0:
314,328,46546,1,0,0:0:0:0:
315,324,46621,1,8,0:0:0:0:
314,324,46696,1,8,0:0:0:0:
314,345,46846,1,0,0:0:0:0:
316,337,46996,1,0,0:0:0:0:
316,337,47146,1,8,0:0:0:0:
269,154,47296,1,0,0:0:0:0:
229,197,47371,1,8,0:0:0:0:
236,196,47446,1,8,0:0:0:0:
223,328,47521,1,0,0:0:0:0:
237,197,47596,1,8,0:0:0:0:
238,195,47746,1,0,0:0:0:0:
239,192,47896,1,8,0:0:0:0:
238,192,47971,1,0,0:0:0:0:
239,205,48046,1,8,0:0:0:0:
221,310,48121,1,0,0:0:0:0:
215,335,48196,1,8,0:0:0:0:
222,309,48346,1,0,0:0:0:0:
236,133,48496,1,0,0:0:0:0:
229,291,48646,1,8,0:0:0:0:
198,151,48796,1,0,0:0:0:0:
207,153,48871,1,0,0:0:0:0:
210,151,48946,1,8,0:0:0:0:
211,156,49096,1,0,0:0:0:0:
211,156,49246,1,8,0:0:0:0:
253,156,49321,1,0,0:0:0:0:
257,161,49396,1,8,0:0:0:0:
237,257,49546,1,0,0:0:0:0:
243,251,49696,1,8,0:0:0:0:
247,249,49771,1,0,0:0:0:0:
246,250,49846,1,8,0:0:0:0:
229,114,49996,1,0,0:0:0:0:
228,130,50146,1,8,0:0:0:0:
228,130,50296,1,0,0:0:0:0:
229,131,50371,1,0,0:0:0:0:
225,134,50446,1,8,0:0:0:0:
224,247,50596,1,0,0:0:0:0:
231,244,50746,1,0,0:0:0:0:
235,240,50896,1,8,0:0:0:0:
239,237,51046,1,8,0:0:0:0:
239,236,51196,1,0,0:0:0:0:
193,212,51271,5,0,0:0:0:0:
239,236,51346,1,8,0:0:0:0:
200,261,51496,1,0,0:0:0:0:
208,254,51646,1,8,0:0:0:0:
218,282,51721,1,0,0:0:0:0:
206,254,51796,1,8,0:0:0:0:
210,299,51946,1,0,0:0:0:0:
213,293,52021,1,0,0:0:0:0:
213,292,52096,1,8,0:0:0:0:
214,300,52246,1,0,0:0:0:0:
214,296,52321,1,0,0:0:0:0:
215,299,52396,1,8,0:0:0:0:
210,302,52546,1,0,0:0:0:0:
210,299,52621,1,0,0:0:0:0:
216,153,52696,1,8,0:0:0:0:
216,153,52771,1,8,0:0:0:0:
216,153,52846,1,8,0:0:0:0:
226,152,52921,1,8,0:0:0:0:
216,153,52996,1,0,0:0:0:0:
205,265,53146,1,0,0:0:0:0:
205,265,53296,1,8,0:0:0:0:
244,220,53371,1,0,0:0:0:0:
205,265,53446,1,8,0:0:0:0:
211,263,53596,1,0,0:0:0:0:
205,265,53746,1,0,0:0:0:0:
234,260,53896,1,8,0:0:0:0:
237,260,54046,1,0,0:0:0:0:
237,260,54121,1,0,0:0:0:0:
238,258,54196,1,8,0:0:0:0:
235,248,54346,1,0,0:0:0:0:
240,245,54496,1,0,0:0:0:0:
240,243,54646,1,8,0:0:0:0:
241,239,54721,1,0,0:0:0:0:
244,235,54796,1,8,0:0:0:0:
242,269,54946,1,0,0:0:0:0:
243,267,55096,1,8,0:0:0:0:
200,181,55171,1,8,0:0:0:0:
242,268,55246,1,8,0:0:0:0:
219,178,55321,1,0,0:0:0:0:
220,177,55396,1,8,0:0:0:0:
281,224,55546,1,0,0:0:0:0:
290,221,55696,1,0,0:0:0:0:
293,214,55846,1,8,0:0:0:0:
291,211,55996,1,0,0:0:0:0:
281,224,56071,1,0,0:0:0:0:
281,224,56146,1,8,0:0:0:0:
264,249,56221,1,8,0:0:0:0:
266,251,56296,1,0,0:0:0:0:
271,262,56446,1,0,0:0:0:0:
273,261,56596,1,8,0:0:0:0:
272,260,56746,1,0,0:0:0:0:
273,258,56821,1,0,0:0:0:0:
274,260,56896,1,8,0:0:0:0:
275,260,56971,1,8,0:0:0:0:
272,258,57046,1,0,0:0:0:0:
257,321,57196,1,0,0:0:0:0:
258,308,57346,1,0,0:0:0:0:
204,128,57496,1,8,0:0:0:0:
242,196,57571,1,0,0:0:0:0:
237,191,57646,1,8,0:0:0:0:
235,212,57796,1,0,0:0:0:0:
241,207,57946,1,0,0:0:0:0:
245,205,58096,1,8,0:0:0:0:
247,204,58246,1,8,0:0:0:0:
181,192,58396,1,0,0:0:0:0:
243,65,58471,1,0,0:0:0:0:
240,93,58546,1,8,0:0:0:0:
243,65,58621,1,8,0:0:0:0:
240,93,58696,1,0,0:0:0:0:
252,181,58846,1,0,0:0:0:0:
251,180,58996,1,0,0:0:0:0:
252,181,59146,1,8,0:0:0:0:
252,181,59296,1,0,0:0:0:0:
252,181,59371,1,0,0:0:0:0:
252,181,59446,1,8,0:0:0:0:
250,215,59596,1,0,0:0:0:0:
249,212,59746,1,8,0:0:0:0:
249,208,59821,1,0,0:0:0:0:
249,209,59896,1,8,0:0:0:0:
250,215,60046,1,0,0:0:0:0:
250,215,60196,1,0,0:0:0:0:
250,215,60271,1,0,0:0:0:0:
250,215,60346,1,8,0:0:0:0:
249,212,60496,1,0,0:0:0:0:
249,212,60571,1,0,0:0:0:0:
251,215,60646,1,8,0:0:0:0:
250,215,60796,1,0,0:0:0:0:
250,215,60871,1,0,0:0:0:0:
250,215,60946,1,8,0:0:0:0:
250,215,61021,1,8,0:0:0:0:
450,169,61096,1,0,0:0:0:0:
450,169,61171,1,0,0:0:0:0:
179,126,61246,1,0,0:0:0:0:
205,121,61321,1,0,0:0:0:0:
209,111,61396,1,12,0:0:0:0:
160,129,61996,1,0,0:0:0:0:
160,129,62296,1,0,0:0:0:0:
160,129,62596,1,8,0:0:0:0:
166,118,63496,1,0,0:0:0:0:
166,118,63796,1,8,0:0:0:0:
166,118,64096,1,0,0:0:0:0:
166,118,64396,1,8,0:0:0:0:
166,118,64696,1,8,0:0:0:0:
166,118,64996,1,8,0:0:0:0:
178,99,65896,1,0,0:0:0:0:
178,99,66196,1,8,0:0:0:0:
178,99,66496,1,0,0:0:0:0:
172,105,66796,1,0,0:0:0:0:
171,107,67096,1,8,0:0:0:0:
172,105,67396,1,8,0:0:0:0:
171,107,67696,1,0,0:0:0:0:
172,105,67996,1,0,0:0:0:0:
171,107,68296,1,0,0:0:0:0:
171,113,68596,1,8,0:0:0:0:
171,107,69196,1,0,0:0:0:0:
171,113,69496,1,0,0:0:0:0:
172,113,69646,1,8,0:0:0:0:
171,107,69946,1,0,0:0:0:0:
169,113,70096,1,8,0:0:0:0:
172,113,70396,1,0,0:0:0:0:
168,113,70546,1,8,0:0:0:0:
167,113,70696,1,0,0:0:0:0:
172,113,70846,1,8,0:0:0:0:
165,146,70996,1,8,0:0:0:0:
163,166,71296,1,0,0:0:0:0:
164,165,71446,1,8,0:0:0:0:
172,175,71746,1,0,0:0:0:0:
165,167,71896,1,0,0:0:0:0:
163,166,72046,1,8,0:0:0:0:
211,204,72496,1,0,0:0:0:0:
133,129,72646,1,8,0:0:0:0:
212,190,73096,1,0,0:0:0:0:
215,188,73246,1,8,0:0:0:0:
121,131,73996,1,0,0:0:0:0:
121,131,74296,1,0,0:0:0:0:
121,131,74446,1,8,0:0:0:0:
121,131,74896,1,0,0:0:0:0:
121,131,75046,1,8,0:0:0:0:
121,131,75496,1,0,0:0:0:0:
121,131,75646,1,8,0:0:0:0:
116,123,76396,1,0,0:0:0:0:
116,123,76696,1,0,0:0:0:0:
116,123,76846,1,8,0:0:0:0:
241,90,77296,1,0,0:0:0:0:
241,90,77446,1,8,0:0:0:0:
129,146,77896,1,0,0:0:0:0:
136,144,78046,1,8,0:0:0:0:
296,163,78196,1,8,0:0:0:0:
304,167,78271,1,0,0:0:0:0:
304,167,78346,1,8,0:0:0:0:
303,171,78496,1,0,0:0:0:0:
303,171,78571,1,0,0:0:0:0:
303,170,78646,1,8,0:0:0:0:
294,266,78796,1,0,0:0:0:0:
294,266,78871,1,0,0:0:0:0:
294,266,78946,1,8,0:0:0:0:
288,288,79096,1,0,0:0:0:0:
291,289,79171,1,0,0:0:0:0:
290,283,79246,1,8,0:0:0:0:
285,297,79396,1,0,0:0:0:0:
286,290,79471,1,8,0:0:0:0:
286,287,79546,1,8,0:0:0:0:
286,283,79621,1,0,0:0:0:0:
286,283,79696,1,8,0:0:0:0:
287,281,79771,1,8,0:0:0:0:
288,281,79846,1,0,0:0:0:0:
288,277,79921,1,8,0:0:0:0:
288,279,79996,1,8,0:0:0:0:
289,274,80071,1,0,0:0:0:0:
289,273,80146,1,8,0:0:0:0:
287,272,80221,1,8,0:0:0:0:
286,270,80296,1,0,0:0:0:0:
163,141,80371,1,8,0:0:0:0:
254,122,80446,1,8,0:0:0:0:
208,303,80596,1,4,0:0:0:0:
216,32,80746,1,8,0:0:0:0:
264,258,80896,1,0,0:0:0:0:
266,248,81046,1,8,0:0:0:0:
266,245,81121,1,0,0:0:0:0:
266,245,81196,1,8,0:0:0:0:
264,264,81346,1,0,0:0:0:0:
270,257,81496,1,0,0:0:0:0:
272,256,81646,1,8,0:0:0:0:
232,183,81721,1,0,0:0:0:0:
269,258,81796,1,8,0:0:0:0:
264,268,81946,1,0,0:0:0:0:
221,72,82021,1,0,0:0:0:0:
221,72,82096,1,8,0:0:0:0:
194,210,82171,1,8,0:0:0:0:
194,210,82246,1,0,0:0:0:0:
202,245,82396,1,0,0:0:0:0:
203,239,82546,1,0,0:0:0:0:
202,240,82696,1,8,0:0:0:0:
202,239,82846,1,8,0:0:0:0:
201,240,82996,1,0,0:0:0:0:
201,239,83071,1,0,0:0:0:0:
202,245,83146,1,8,0:0:0:0:
188,300,83296,1,0,0:0:0:0:
192,293,83446,1,8,0:0:0:0:
197,289,83521,1,0,0:0:0:0:
195,289,83596,1,8,0:0:0:0:
350,253,83746,5,0,0:0:0:0:
350,253,83896,1,0,0:0:0:0:
352,246,84046,1,8,0:0:0:0:
352,239,84196,1,8,0:0:0:0:
352,237,84346,1,0,0:0:0:0:
354,234,84496,1,8,0:0:0:0:
353,233,84571,1,0,0:0:0:0:
354,233,84646,1,0,0:0:0:0:
355,231,84721,1,8,0:0:0:0:
351,229,84796,1,8,0:0:0:0:
355,315,84946,1,0,0:0:0:0:
355,315,85096,1,0,0:0:0:0:
347,353,85246,1,8,0:0:0:0:
347,353,85396,1,0,0:0:0:0:
192,174,85471,1,0,0:0:0:0:
204,175,85546,1,8,0:0:0:0:
211,201,85696,1,0,0:0:0:0:
211,196,85846,1,8,0:0:0:0:
211,193,85921,1,0,0:0:0:0:
212,197,85996,1,8,0:0:0:0:
217,336,86146,1,0,0:0:0:0:
263,289,86296,1,0,0:0:0:0:
283,274,86446,1,8,0:0:0:0:
284,275,86596,1,0,0:0:0:0:
284,272,86671,1,0,0:0:0:0:
283,273,86746,1,8,0:0:0:0:
282,274,86821,1,0,0:0:0:0:
281,276,86896,1,8,0:0:0:0:
263,342,86971,1,8,0:0:0:0:
256,348,87046,1,0,0:0:0:0:
263,342,87121,1,0,0:0:0:0:
263,342,87196,1,8,0:0:0:0:
263,342,87346,1,0,0:0:0:0:
266,335,87496,1,0,0:0:0:0:
280,328,87646,1,8,0:0:0:0:
175,137,87696,1,8,0:0:0:0:
385,166,87746,1,8,0:0:0:0:
420,130,87796,1,8,0:0:0:0:
150,192,88096,1,0,0:0:0:0:
316,270,88246,1,0,0:0:0:0:
296,253,88321,1,0,0:0:0:0:
206,144,88396,1,8,0:0:0:0:
158,121,88546,1,8,0:0:0:0:
160,121,88696,1,8,0:0:0:0:
160,121,88846,1,8,0:0:0:0:
159,121,88996,1,4,0:0:0:0:
