osu file format v14

[General]
AudioFilename: Punishment 1.400x (pitch raised).mp3
AudioLeadIn: 1500
PreviewTime: 35039
Countdown: 0
SampleSet: None
StackLeniency: 0.7
Mode: 3
LetterboxInBreaks: 0
SpecialStyle: 0
WidescreenStoryboard: 0

[Editor]
DistanceSpacing: 1.3
BeatDivisor: 4
GridSize: 16
TimelineZoom: 2.999999

[Metadata]
Title:Punishment
TitleUnicode:Punishment
Artist:9mm Parabellum Bullet
ArtistUnicode:9mm Parabellum Bullet
Creator:Shoegazer
Version:Termination 1.4x (297bpm)
Source:
Tags:jrock post hardcore termination wiosna
BeatmapID:3090598
BeatmapSetID:777334

[Difficulty]
HPDrainRate:8.5
CircleSize:4
OverallDifficulty:8.5
ApproachRate:9
SliderMultiplier:1.4
SliderTickRate:1

[Events]
//Background and Video events
0,0,"bg.jpg",0,0
//Break Periods
//Storyboard Layer 0 (Background)
//Storyboard Layer 1 (Fail)
//Storyboard Layer 2 (Pass)
//Storyboard Layer 3 (Foreground)
//Storyboard Layer 4 (Overlay)
//Storyboard Sound Samples

[TimingPoints]
154,202.154285714286,4,3,0,35,1,0
154,-100.001013343602,4,3,0,35,0,0
1367,202.170714285714,4,3,0,35,1,0
1367,-99.9928871726258,4,3,0,35,0,0
1570,202.154285714286,4,3,0,35,1,0
1570,-100.001013343602,4,3,0,35,0,0
2985,202.170714285714,4,3,0,35,1,0
2985,-99.9928871726258,4,3,0,35,0,0
3187,202.154285714286,4,3,0,35,1,0
3187,-100.001013343602,4,3,0,35,0,0
4400,202.170714285714,4,3,0,35,1,0
4400,-99.9928871726258,4,3,0,35,0,0
4602,202.154285714286,4,3,0,35,1,0
4602,-100.001013343602,4,3,0,35,0,0
5612,212.520714285714,4,3,0,35,1,0
5612,-95.1231200738511,4,3,0,35,0,0
5825,202.154285714286,4,3,0,35,1,0
5825,-100.001013343602,4,3,0,35,0,0
6027,202.170714285714,4,3,0,35,1,0
6027,-99.9928871726258,4,3,0,35,0,0
6230,208.374285714286,4,3,0,35,1,0
6230,-97.0159698634765,4,3,0,35,0,0
6437,212.520714285714,4,3,0,35,1,0
6437,-95.1231200738511,4,3,0,35,0,0
6650,177.275714285714,4,3,0,35,1,0
6650,-114.034985021125,4,3,0,35,0,0
6827,187.641428571429,4,3,0,35,1,0
6827,-107.735448280736,4,3,0,35,0,0
7015,209.232857142857,4,3,0,35,1,0
7015,-96.6178720647974,4,3,0,35,0,0
7225,188.046428571429,4,3,0,35,1,0
7225,-107.503415921041,4,3,0,35,0,0
7412,206.705714285714,4,3,0,35,1,0
7412,-97.7991029083888,4,3,0,35,0,0
7619,194.266428571429,4,3,0,35,1,0
7619,-104.061384006695,4,3,0,35,0,0
7813,202.559285714286,4,3,0,35,1,0
7813,-99.801069854162,4,3,0,35,0,0
8016,192.192857142857,4,3,0,35,1,0
8016,-105.18410373677,4,3,0,35,0,0
8208,198.412857142857,4,3,0,35,1,0
8208,-101.886710943461,4,3,0,35,0,0
8407,192.192857142857,4,3,0,35,1,0
8407,-105.18410373677,4,3,0,35,0,0
8599,208.779285714286,4,3,0,35,1,0
8599,-96.8277736654664,4,3,0,35,0,0
8807,196.339285714286,4,3,0,35,1,0
8807,-102.962753224021,4,3,0,35,0,0
9004,208.779285714286,4,3,0,35,1,0
9004,-96.8277736654664,4,3,0,35,0,0
9212,198.412857142857,4,3,0,35,1,0
9212,-101.886710943461,4,3,0,35,0,0
9610,194.266428571429,4,3,0,35,1,0
9610,-104.061384006695,4,3,0,35,0,0
9804,192.192857142857,4,3,0,35,1,0
9804,-105.18410373677,4,3,0,35,0,0
9996,198.412857142857,4,3,0,35,1,0
9996,-101.886710943461,4,3,0,35,0,0
10392,194.266428571429,4,3,0,35,1,0
10392,-104.061384006695,4,3,0,35,0,0
10587,202.559285714286,4,3,0,35,1,0
10587,-99.801069854162,4,3,0,35,0,0
10790,194.266428571429,4,3,0,35,1,0
10790,-104.061384006695,4,3,0,35,0,0
10984,202.559285714286,4,3,0,35,1,0
10984,-99.801069854162,4,3,0,35,0,0
11187,194.266428571429,4,3,0,35,1,0
11187,-104.061384006695,4,3,0,35,0,0
11381,210.852142857143,4,3,0,35,1,0
11381,-95.8758737248269,4,3,0,35,0,0
11592,192.192857142857,4,3,0,35,1,0
11592,-105.18410373677,4,3,0,35,0,0
11784,200.486428571429,4,3,0,35,1,0
11784,-100.832927032656,4,3,0,35,0,0
11984,194.266428571429,4,3,0,35,1,0
11984,-104.061384006695,4,3,0,35,0,0
12372,192.192857142857,4,3,0,35,1,0
12372,-105.18410373677,4,3,0,35,0,0
12565,198.412857142857,4,3,0,35,1,0
12565,-101.886710943461,4,3,0,35,0,0
12763,190.119285714286,4,3,0,35,1,0
12763,-106.331313770876,4,3,0,35,0,0
12953,185.972857142857,4,3,0,35,1,0
12953,-108.702064020298,4,3,0,35,0,0
13140,196.339285714286,4,3,0,35,1,0
13140,-102.962753224021,4,3,0,35,0,0
13336,198.251428571429,4,3,0,35,1,0
13336,-101.969673403372,4,3,0,35,0,0
13534,197.489285714286,4,3,0,35,1,0
13534,-102.363190742546,4,3,0,35,0,0
13732,199.578571428571,4,3,0,35,1,0
13732,-101.29160299364,4,3,0,35,0,0
13931,197.489285714286,4,3,0,35,1,0
13931,-102.363190742546,4,3,0,35,0,0
14129,197.505714285714,4,3,0,35,1,0
14129,-102.35467614844,4,3,0,35,0,0
14326,193.359285714286,4,3,0,35,1,0
14326,-104.549586788668,4,3,0,35,0,0
14520,212.002142857143,4,3,0,35,1,0
14520,-95.3557975911727,4,3,0,35,0,0
14732,191.286428571429,4,3,0,35,1,0
14732,-105.682528416447,4,3,0,35,0,0
14922,203.709285714286,4,3,0,35,1,0
14922,-99.2376628895268,4,3,0,35,0,0
15127,193.359285714286,4,3,0,35,1,0
15127,-104.549586788668,4,3,0,35,0,0
15320,197.489285714286,4,3,0,35,1,0
15320,-102.363190742546,4,3,0,35,0,0
15517,197.505714285714,4,3,0,35,1,0
15517,-102.35467614844,4,3,0,35,0,0
15715,199.562857142857,4,3,0,35,1,0
15715,-101.299579052976,4,3,0,35,0,0
15915,189.212857142857,4,3,0,35,1,0
15915,-106.840696390508,4,3,0,35,0,0
16104,187.123571428571,4,3,0,35,1,0
16104,-108.033601907268,4,3,0,35,0,0
16291,201.652142857143,4,3,0,35,1,0
16291,-100.250030258801,4,3,0,35,0,0
16492,205.798571428571,4,3,0,35,1,0
16492,-98.2301931585421,4,3,0,35,0,0
16698,197.489285714286,4,3,0,35,1,0
16698,-102.363190742546,4,3,0,35,0,0
16895,201.652142857143,4,3,0,35,1,0
16895,-100.250030258801,4,3,0,35,0,0
17097,197.489285714286,4,3,0,35,1,0
17097,-102.363190742546,4,3,0,35,0,0
17295,201.652142857143,4,3,0,35,1,0
17295,-100.250030258801,4,3,0,35,0,0
17497,199.562857142857,4,3,0,35,1,0
17497,-101.299579052976,4,3,0,35,0,0
17696,187.139285714286,4,3,0,35,1,0
17696,-108.02453021032,4,3,0,35,0,0
17883,191.27,4,3,0,35,1,0
17883,-105.691605704923,4,3,0,35,0,0
18075,203.725714285714,4,3,0,35,1,0
18075,-99.2296603011501,4,3,0,35,0,0
18278,189.212857142857,4,3,0,35,1,0
18278,-106.840696390508,4,3,0,35,0,0
18467,197.489285714286,4,3,0,35,1,0
18467,-102.363190742546,4,3,0,35,0,0
18665,191.286428571429,4,3,0,35,1,0
18665,-105.682528416447,4,3,0,35,0,0
18856,193.342857142857,4,3,0,35,1,0
18856,-104.558470490811,4,3,0,35,0,0
19050,201.652142857143,4,3,0,35,1,0
19050,-100.250030258801,4,3,0,35,0,0
19251,197.489285714286,4,3,0,35,1,0
19251,-102.363190742546,4,3,0,35,0,0
19449,193.359285714286,4,3,0,35,1,0
19449,-104.549586788668,4,3,0,35,0,0
19642,195.303571428571,4,3,0,35,1,0
19642,-103.508774956397,4,3,0,35,0,0
19837,197.052142857143,4,3,0,35,1,0
19837,-102.590274483015,4,3,0,35,0,0
20231,192.889285714286,4,3,0,35,1,0
20231,-104.804335545753,4,3,0,35,0,0
20425,203.271428571429,4,3,0,35,1,0
20425,-99.4514259345451,4,3,0,35,0,0
20627,197.036428571429,4,3,0,35,1,0
20627,-102.598456385704,4,3,0,35,0,0
20825,197.052142857143,4,3,0,35,1,0
20825,-102.590274483015,4,3,0,35,0,0
21022,197.036428571429,4,3,0,35,1,0
21022,-102.598456385704,4,3,0,35,0,0
21219,199.125,4,3,0,35,1,0
21219,-101.522327297831,4,3,0,35,0,0
21417,190.816428571429,4,3,0,35,1,0
21417,-105.942835082532,4,3,0,35,0,0
21609,203.271428571429,4,3,0,35,1,0
21609,-99.4514259345451,4,3,0,35,0,0
21812,197.036428571429,4,3,0,35,1,0
21812,-102.598456385704,4,3,0,35,0,0
22009,197.052142857143,4,3,0,35,1,0
22009,-102.590274483015,4,3,0,35,0,0
22206,199.109285714286,4,3,0,35,1,0
22206,-101.530339736085,4,3,0,35,0,0
22405,190.832142857143,4,3,0,35,1,0
22405,-105.934111101577,4,3,0,35,0,0
22596,188.742857142857,4,3,0,35,1,0
22596,-107.106746868199,4,3,0,35,0,0
22785,205.345,4,3,0,35,1,0
22785,-98.4471665888168,4,3,0,35,0,0
22990,197.036428571429,4,3,0,35,1,0
22990,-102.598456385704,4,3,0,35,0,0
23187,207.417857142857,4,3,0,35,1,0
23187,-97.463322115305,4,3,0,35,0,0
23395,192.889285714286,4,3,0,35,1,0
23395,-104.804335545753,4,3,0,35,0,0
23587,201.198571428571,4,3,0,35,1,0
23587,-100.476028630041,4,3,0,35,0,0
23789,190.816428571429,4,3,0,35,1,0
23789,-105.942835082532,4,3,0,35,0,0
23980,205.345,4,3,0,35,1,0
23980,-98.4471665888168,4,3,0,35,0,0
24185,192.889285714286,4,3,0,35,1,0
24185,-104.804335545753,4,3,0,35,0,0
24377,205.345,4,3,0,35,1,0
24377,-98.4471665888168,4,3,0,35,0,0
24583,192.889285714286,4,3,0,35,1,0
24583,-104.804335545753,4,3,0,35,0,0
24776,203.271428571429,4,3,0,35,1,0
24776,-99.4514259345451,4,3,0,35,0,0
24979,197.036428571429,4,3,0,35,1,0
24979,-102.598456385704,4,3,0,35,0,0
25176,192.905714285714,4,3,0,35,1,0
25176,-104.795410016932,4,3,0,35,0,0
25369,188.758571428571,4,3,0,35,1,0
25369,-107.097830155122,4,3,0,35,0,0
25557,180.450714285714,4,3,0,35,1,0
25557,-112.028558618906,4,3,0,35,0,0
25738,199.125,4,3,0,35,1,0
25738,-101.522327297831,4,3,0,35,0,0
25937,203.255714285714,4,3,0,35,1,0
25937,-99.4591148112259,4,3,0,35,0,0
26140,197.052142857143,4,3,0,35,1,0
26140,-102.590274483015,4,3,0,35,0,0
26337,192.889285714286,4,3,0,35,1,0
26337,-104.804335545753,4,3,0,35,0,0
26530,199.125,4,3,0,35,1,0
26530,-101.522327297831,4,3,0,35,0,0
26730,203.255714285714,4,3,0,35,1,0
26730,-99.4591148112259,4,3,0,35,0,0
26933,197.052142857143,4,3,0,35,1,0
26933,-102.590274483015,4,3,0,35,0,0
27130,199.109285714286,4,3,0,35,1,0
27130,-101.530339736085,4,3,0,35,0,0
27329,188.758571428571,4,3,0,35,1,0
27329,-107.097830155122,4,3,0,35,0,0
27518,211.548571428571,4,3,0,35,1,0
27518,-95.5602455108345,4,3,0,35,0,0
27730,188.758571428571,4,3,0,35,1,0
27730,-107.097830155122,4,3,0,35,0,0
27918,209.475,4,3,0,35,1,0
27918,-96.5061865290874,4,3,0,35,0,0
28127,190.832142857143,4,3,0,35,1,0
28127,-105.934111101577,4,3,0,35,0,0
28318,199.109285714286,4,3,0,35,1,0
28318,-101.530339736085,4,3,0,35,0,0
28517,190.832142857143,4,3,0,35,1,0
28517,-105.934111101577,4,3,0,35,0,0
28708,186.67,4,3,0,35,1,0
28708,-108.29610233664,4,3,0,35,0,0
28895,192.905714285714,4,3,0,35,1,0
28895,-104.795410016932,4,3,0,35,0,0
29088,209.475,4,3,0,35,1,0
29088,-96.5061865290874,4,3,0,35,0,0
29297,188.758571428571,4,3,0,35,1,0
29297,-107.097830155122,4,3,0,35,0,0
29486,203.255714285714,4,3,0,35,1,0
29486,-99.4591148112259,4,3,0,35,0,0
29690,199.125,4,3,0,35,1,0
29690,-101.522327297831,4,3,0,35,0,0
29889,197.036428571429,4,3,0,35,1,0
29889,-102.598456385704,4,3,0,35,0,0
30085,192.905714285714,4,3,0,35,1,0
30085,-104.795410016932,4,3,0,35,0,0
30279,203.255714285714,4,3,0,35,1,0
30279,-99.4591148112259,4,3,0,35,0,0
30482,197.052142857143,4,3,0,35,1,0
30482,-102.590274483015,4,3,0,35,0,0
30679,205.329285714286,4,3,0,35,1,0
30679,-98.4547009592704,4,3,0,35,0,0
30884,197.052142857143,4,3,0,35,1,0
30884,-102.590274483015,4,3,0,35,0,0
31278,181.486428571429,4,3,0,35,1,0
31278,-111.389229389261,4,3,0,35,0,0
31460,200.162142857143,4,3,0,35,1,0
31460,-100.996287982432,4,3,0,35,0,0
31660,197.036428571429,4,3,0,35,1,0
31660,-102.598456385704,4,3,0,35,0,0
31857,197.052142857143,4,3,0,35,1,0
31857,-102.590274483015,4,3,0,35,0,0
32054,190.816428571429,4,3,0,35,1,0
32054,-105.942835082532,4,3,0,35,0,0
32245,187.545,4,3,0,35,1,0
32245,-107.790841788267,4,3,0,35,0,0
32432,182.75,4,3,0,35,1,0
32432,-110.619061139155,4,3,0,35,0,0
32615,201.409285714286,4,3,0,35,1,0
32615,-100.370910663265,4,3,0,35,0,0
32817,205.555714285714,4,3,0,35,1,0
32817,-98.3462488183698,4,3,0,35,0,0
33022,199.335714285714,4,3,0,35,1,0
33022,-101.415009827114,4,3,0,35,0,0
33222,205.555714285714,4,3,0,35,1,0
33222,-98.3462488183698,4,3,0,35,0,0
33427,207.629285714286,4,3,0,35,1,0
33427,-97.3640753694009,4,3,0,35,0,0
33635,211.775,4,3,0,35,1,0
33635,-95.4580730642455,4,3,0,35,0,0
33847,220.067857142857,4,3,0,35,1,0
33847,-91.8609091106731,4,3,0,35,0,0
34067,197.262857142857,4,3,0,35,1,0
34067,-102.480688539052,4,3,0,35,0,0
34264,199.335714285714,4,3,0,35,1,0
34264,-101.415009827114,4,3,0,35,0,0
34463,182.75,4,3,0,35,1,0
34463,-110.619061139155,4,3,0,35,0,0
34646,191.771428571429,4,3,0,35,1,0
34646,-105.415251759732,4,3,0,35,0,0
34837,201.198571428571,4,3,0,35,1,0
34837,-100.476028630041,4,3,0,35,0,0
35039,201.215,4,3,0,35,1,0
35039,-100.467825078551,4,3,0,35,0,0
35240,188.758571428571,4,3,0,35,1,0
35240,-107.097830155122,4,3,0,35,0,0
35429,199.935714285714,4,3,0,35,1,0
35429,-101.110666973144,4,3,0,35,0,0
35629,186.767142857143,4,3,0,35,1,0
35629,-108.239774480265,4,3,0,35,0,0
35815,195.06,4,3,0,35,1,0
35815,-103.638026367172,4,3,0,35,0,0
36010,203.352142857143,4,3,0,35,1,0
36010,-99.4119517952771,4,3,0,35,0,0
36214,201.296428571429,4,3,0,35,1,0
36214,-100.427183764004,4,3,0,35,0,0
36415,192.986428571429,4,3,0,35,1,0
36415,-104.751580579141,4,3,0,35,0,0
36608,197.132857142857,4,3,0,35,1,0
36608,-102.548269812428,4,3,0,35,0,0
36805,195.06,4,3,0,35,1,0
36805,-103.638026367172,4,3,0,35,0,0
37000,205.425714285714,4,3,0,35,1,0
37000,-98.4084854881599,4,3,0,35,0,0
37206,190.912857142857,4,3,0,35,1,0
37206,-105.889324195979,4,3,0,35,0,0
37397,205.425714285714,4,3,0,35,1,0
37397,-98.4084854881599,4,3,0,35,0,0
37602,197.132857142857,4,3,0,35,1,0
37602,-102.548269812428,4,3,0,35,0,0
37800,207.499285714286,4,3,0,35,1,0
37800,-97.4250747591311,4,3,0,35,0,0
38007,188.856428571429,4,3,0,35,1,0
38007,-107.042336742774,4,3,0,35,0,0
38195,192.986428571429,4,3,0,35,1,0
38195,-104.751580579141,4,3,0,35,0,0
38582,203.352142857143,4,3,0,35,1,0
38582,-99.4119517952771,4,3,0,35,0,0
38785,182.620714285714,4,3,0,35,1,0
38785,-110.697373527697,4,3,0,35,0,0
38967,213.718571428571,4,3,0,35,1,0
38967,-94.5899707641318,4,3,0,35,0,0
39181,197.132857142857,4,3,0,35,1,0
39181,-102.548269812428,4,3,0,35,0,0
39378,203.352142857143,4,3,0,35,1,0
39378,-99.4119517952771,4,3,0,35,0,0
39582,197.132857142857,4,3,0,35,1,0
39582,-102.548269812428,4,3,0,35,0,0
39779,205.442142857143,4,3,0,35,1,0
39779,-98.4006160665771,4,3,0,35,0,0
39985,190.912857142857,4,3,0,35,1,0
39985,-105.889324195979,4,3,0,35,0,0
40175,203.352142857143,4,3,0,35,1,0
40175,-99.4119517952771,4,3,0,35,0,0
40379,190.912857142857,4,3,0,35,1,0
40379,-105.889324195979,4,3,0,35,0,0
40570,197.132857142857,4,3,0,35,1,0
40570,-102.548269812428,4,3,0,35,0,0
40767,184.694285714286,4,3,0,35,1,0
40767,-109.454568910991,4,3,0,35,0,0
40951,186.767142857143,4,3,0,35,1,0
40951,-108.239774480265,4,3,0,35,0,0
41138,201.28,4,3,0,35,1,0
41138,-100.435380679554,4,3,0,35,0,0
41340,190.929285714286,4,3,0,35,1,0
41340,-105.880212915226,4,3,0,35,0,0
41530,192.986428571429,4,3,0,35,1,0
41530,-104.751580579141,4,3,0,35,0,0
41723,207.499285714286,4,3,0,35,1,0
41723,-97.4250747591311,4,3,0,35,0,0
41931,192.986428571429,4,3,0,35,1,0
41931,-104.751580579141,4,3,0,35,0,0
42124,203.352142857143,4,3,0,35,1,0
42124,-99.4119517952771,4,3,0,35,0,0
42327,199.206428571429,4,3,0,35,1,0
42327,-101.480828546314,4,3,0,35,0,0
42526,197.132857142857,4,3,0,35,1,0
42526,-102.548269812428,4,3,0,35,0,0
42723,192.986428571429,4,3,0,35,1,0
42723,-104.751580579141,4,3,0,35,0,0
42917,203.352142857143,4,3,0,35,1,0
42917,-99.4119517952771,4,3,0,35,0,0
43120,190.929285714286,4,3,0,35,1,0
43120,-105.880212915226,4,3,0,35,0,0
43311,209.572142857143,4,3,0,35,1,0
43311,-96.4614530708922,4,3,0,35,0,0
43520,192.986428571429,4,3,0,35,1,0
43520,-104.751580579141,4,3,0,35,0,0
43713,199.206428571429,4,3,0,35,1,0
43713,-101.480828546314,4,3,0,35,0,0
43912,192.986428571429,4,3,0,35,1,0
43912,-104.751580579141,4,3,0,35,0,0
44105,197.132857142857,4,3,0,35,1,0
44105,-102.548269812428,4,3,0,35,0,0
44302,184.694285714286,4,3,0,35,1,0
44302,-109.454568910991,4,3,0,35,0,0
44487,192.986428571429,4,3,0,35,1,0
44487,-104.751580579141,4,3,0,35,0,0
44680,203.352142857143,4,3,0,35,1,0
44680,-99.4119517952771,4,3,0,35,0,0
44884,195.076428571429,4,3,0,35,1,0
44884,-103.629298379217,4,3,0,35,0,0
45079,195.06,4,3,0,35,1,0
45079,-103.638026367172,4,3,0,35,0,0
45274,207.499285714286,4,3,0,35,1,0
45274,-97.4250747591311,4,3,0,35,0,0
45481,197.132857142857,4,3,0,35,1,0
45481,-102.548269812428,4,3,0,35,0,0
45678,203.352142857143,4,3,0,35,1,0
45678,-99.4119517952771,4,3,0,35,0,0
45882,199.206428571429,4,3,0,35,1,0
45882,-101.480828546314,4,3,0,35,0,0
46081,197.132857142857,4,3,0,35,1,0
46081,-102.548269812428,4,3,0,35,0,0
46278,201.28,4,3,0,35,1,0
46278,-100.435380679554,4,3,0,35,0,0
46480,205.425714285714,4,3,0,35,1,0
46480,-98.4084854881599,4,3,0,35,0,0
46685,197.149285714286,4,3,0,35,1,0
46685,-102.539724401932,4,3,0,35,0,0
46882,197.132857142857,4,3,0,35,1,0
46882,-102.548269812428,4,3,0,35,0,0
47276,188.840714285714,4,3,0,35,1,0
47276,-107.051244217359,4,3,0,35,0,0
47465,197.132857142857,4,3,0,35,1,0
47465,-102.548269812428,4,3,0,35,0,0
48057,197.57,4,3,0,35,1,0
48057,-102.321371783067,4,3,0,35,0,0
48254,198.235,4,3,0,35,1,0
48254,-101.978124060739,4,3,0,35,0,0
48452,198.217857142857,4,3,0,35,1,0
48452,-101.986943631476,4,3,0,35,0,0
48650,198.235,4,3,0,35,1,0
48650,-101.978124060739,4,3,0,35,0,0
49047,196.145,4,3,0,35,1,0
49047,-103.064739978998,4,3,0,35,0,0
49243,189.942142857143,4,3,0,35,1,0
49243,-106.430479929801,4,3,0,35,0,0
49433,202.380714285714,4,3,0,35,1,0
49433,-99.8891297252802,4,3,0,35,0,0
49635,194.072142857143,4,3,0,35,1,0
49635,-104.165559907593,4,3,0,35,0,0
49830,194.087857142857,4,3,0,35,1,0
49830,-104.157126163235,4,3,0,35,0,0
50024,196.161428571429,4,3,0,35,1,0
50024,-103.056108279816,4,3,0,35,0,0
50220,194.072142857143,4,3,0,35,1,0
50220,-104.165559907593,4,3,0,35,0,0
50414,198.235,4,3,0,35,1,0
50414,-101.978124060739,4,3,0,35,0,0
50612,202.380714285714,4,3,0,35,1,0
50612,-99.8891297252802,4,3,0,35,0,0
50815,202.364285714286,4,3,0,35,1,0
50815,-99.8972390401074,4,3,0,35,0,0
51017,192.015,4,3,0,35,1,0
51017,-105.281532292689,4,3,0,35,0,0
51209,198.235,4,3,0,35,1,0
51209,-101.978124060739,4,3,0,35,0,0
51407,198.217857142857,4,3,0,35,1,0
51407,-101.986943631476,4,3,0,35,0,0
51605,206.527857142857,4,3,0,35,1,0
51605,-97.8833252949371,4,3,0,35,0,0
51812,194.087857142857,4,3,0,35,1,0
51812,-104.157126163235,4,3,0,35,0,0
52006,202.364285714286,4,3,0,35,1,0
52006,-99.8972390401074,4,3,0,35,0,0
52208,196.161428571429,4,3,0,35,1,0
52208,-103.056108279816,4,3,0,35,0,0
52405,198.235,4,3,0,35,1,0
52405,-101.978124060739,4,3,0,35,0,0
52602,204.437857142857,4,3,0,35,1,0
52602,-98.8840017485328,4,3,0,35,0,0
52807,198.235,4,3,0,35,1,0
52807,-101.978124060739,4,3,0,35,0,0
53005,200.307857142857,4,3,0,35,1,0
53005,-100.922818063812,4,3,0,35,0,0
53205,204.437857142857,4,3,0,35,1,0
53205,-98.8840017485328,4,3,0,35,0,0
53410,198.235,4,3,0,35,1,0
53410,-101.978124060739,4,3,0,35,0,0
53608,196.161428571429,4,3,0,35,1,0
53608,-103.056108279816,4,3,0,35,0,0
53805,198.217857142857,4,3,0,35,1,0
53805,-101.986943631476,4,3,0,35,0,0
54002,192.015,4,3,0,35,1,0
54002,-105.281532292689,4,3,0,35,0,0
54195,183.721428571429,4,3,0,35,1,0
54195,-110.034161939477,4,3,0,35,0,0
54378,198.217857142857,4,3,0,35,1,0
54378,-101.986943631476,4,3,0,35,0,0
54577,198.235,4,3,0,35,1,0
54577,-101.978124060739,4,3,0,35,0,0
54775,204.454285714286,4,3,0,35,1,0
54775,-98.8760560951552,4,3,0,35,0,0
54980,194.072142857143,4,3,0,35,1,0
54980,-104.165559907593,4,3,0,35,0,0
55173,210.673571428571,4,3,0,35,1,0
55173,-95.9571401676013,4,3,0,35,0,0
55384,200.307857142857,4,3,0,35,1,0
55384,-100.922818063812,4,3,0,35,0,0
55585,194.072142857143,4,3,0,35,1,0
55585,-104.165559907593,4,3,0,35,0,0
55778,194.087857142857,4,3,0,35,1,0
55778,-104.157126163235,4,3,0,35,0,0
55972,216.893571428571,4,3,0,35,1,0
55972,-93.2053139704886,4,3,0,35,0,0
56190,189.925714285714,4,3,0,35,1,0
56190,-106.439686164714,4,3,0,35,0,0
56380,212.746428571429,4,3,0,35,1,0
56380,-95.0221987693358,4,3,0,35,0,0
56592,185.795,4,3,0,35,1,0
56592,-108.806121925674,4,3,0,35,0,0
56778,206.511428571429,4,3,0,35,1,0
56778,-97.891112191829,4,3,0,35,0,0
56985,189.942142857143,4,3,0,35,1,0
56985,-106.430479929801,4,3,0,35,0,0
57175,181.648571428571,4,3,0,35,1,0
57175,-111.289801313576,4,3,0,35,0,0
57356,204.454285714286,4,3,0,35,1,0
57356,-98.8760560951552,4,3,0,35,0,0
57560,198.217857142857,4,3,0,35,1,0
57560,-101.986943631476,4,3,0,35,0,0
57759,198.235,4,3,0,35,1,0
57759,-101.978124060739,4,3,0,35,0,0
57957,210.673571428571,4,3,0,35,1,0
57957,-95.9571401676013,4,3,0,35,0,0
58167,189.925714285714,4,3,0,35,1,0
58167,-106.439686164714,4,3,0,35,0,0
58357,210.673571428571,4,3,0,35,1,0
58357,-95.9571401676013,4,3,0,35,0,0
58779,187.852142857143,4,3,0,35,1,0
58779,-107.614601120383,4,3,0,35,0,0
58967,187.868571428571,4,3,0,35,1,0
58967,-107.605190530055,4,3,0,35,0,0
59155,204.454285714286,4,3,0,35,1,0
59155,-98.8760560951552,4,3,0,35,0,0
59359,202.364285714286,4,3,0,35,1,0
59359,-99.8972390401074,4,3,0,35,0,0
59562,192.015,4,3,0,35,1,0
59562,-105.281532292689,4,3,0,35,0,0
59945,194.072142857143,4,3,0,35,1,0
59945,-104.165559907593,4,3,0,35,0,0
60140,187.868571428571,4,3,0,35,1,0
60140,-107.605190530055,4,3,0,35,0,0
60327,196.161428571429,4,3,0,35,1,0
60327,-103.056108279816,4,3,0,35,0,0
60524,187.852142857143,4,3,0,35,1,0
60524,-107.614601120383,4,3,0,35,0,0
60712,209.086428571429,4,3,0,35,1,0
60712,-96.6855360307352,4,3,0,35,0,0
60920,193.116428571429,4,3,0,35,1,0
60920,-104.681065058654,4,3,0,35,0,0
61114,213.848571428571,4,3,0,35,1,0
61114,-94.5324688780206,4,3,0,35,0,0
61327,186.897142857143,4,3,0,35,1,0
61327,-108.164486166772,4,3,0,35,0,0
61515,203.482857142857,4,3,0,35,1,0
61515,-99.3480910727925,4,3,0,35,0,0
61718,195.189285714286,4,3,0,35,1,0
61718,-103.569380610224,4,3,0,35,0,0
61913,205.555714285714,4,3,0,35,1,0
61913,-98.3462488183698,4,3,0,35,0,0
62119,188.969285714286,4,3,0,35,1,0
62119,-106.978408405194,4,3,0,35,0,0
62307,205.555714285714,4,3,0,35,1,0
62307,-98.3462488183698,4,3,0,35,0,0
62513,193.116428571429,4,3,0,35,1,0
62513,-104.681065058654,4,3,0,35,0,0
62706,209.701428571429,4,3,0,35,1,0
62706,-96.4019823846586,4,3,0,35,0,0
62916,193.116428571429,4,3,0,35,1,0
62916,-104.681065058654,4,3,0,35,0,0
63109,197.262857142857,4,3,0,35,1,0
63109,-102.480688539052,4,3,0,35,0,0
63504,186.897142857143,4,3,0,35,1,0
63504,-108.164486166772,4,3,0,35,0,0
63690,201.409285714286,4,3,0,35,1,0
63690,-100.370910663265,4,3,0,35,0,0
63892,203.482857142857,4,3,0,35,1,0
63892,-99.3480910727925,4,3,0,35,0,0
64095,195.189285714286,4,3,0,35,1,0
64095,-103.569380610224,4,3,0,35,0,0
64290,205.555714285714,4,3,0,35,1,0
64290,-98.3462488183698,4,3,0,35,0,0
64496,199.335714285714,4,3,0,35,1,0
64496,-101.415009827114,4,3,0,35,0,0
64695,207.629285714286,4,3,0,35,1,0
64695,-97.3640753694009,4,3,0,35,0,0
64903,193.116428571429,4,3,0,35,1,0
64903,-104.681065058654,4,3,0,35,0,0
65096,211.775,4,3,0,35,1,0
65096,-95.4580730642455,4,3,0,35,0,0
65308,197.262857142857,4,3,0,35,1,0
65308,-102.480688539052,4,3,0,35,0,0
65505,209.701428571429,4,3,0,35,1,0
65505,-96.4019823846586,4,3,0,35,0,0
65715,197.262857142857,4,3,0,35,1,0
65715,-102.480688539052,4,3,0,35,0,0
66110,199.335714285714,4,3,0,35,1,0
66110,-101.415009827114,4,3,0,35,0,0
66309,201.409285714286,4,3,0,35,1,0
66309,-100.370910663265,4,3,0,35,0,0
66510,205.555714285714,4,3,0,35,1,0
66510,-98.3462488183698,4,3,0,35,0,0
66716,207.629285714286,4,3,0,35,1,0
66716,-97.3640753694009,4,3,0,35,0,0
66923,205.555714285714,4,3,0,35,1,0
66923,-98.3462488183698,4,3,0,35,0,0
67129,192.485,4,3,0,35,1,0
67129,-105.024461247269,4,3,0,35,0,0
67322,198.752857142857,4,3,0,35,1,0
67322,-101.712416685664,4,3,0,35,0,0
67520,227.777857142857,4,3,0,35,1,0
67520,-88.7515304461829,4,3,0,35,0,0
67748,202.882857142857,4,3,0,35,1,0
67748,-99.6419002959232,4,3,0,35,0,0
67951,215.338571428571,4,3,0,35,1,0
67951,-93.8783669319836,4,3,0,35,0,0
68166,207.029285714286,4,3,0,35,1,0
68166,-97.6462501594075,4,3,0,35,0,0
68373,207.045,4,3,0,35,1,0
68373,-97.6388390117153,4,3,0,35,0,0
68787,207.029285714286,4,3,0,35,1,0
68787,-97.6462501594075,4,3,0,35,0,0
68995,202.899285714286,4,3,0,35,1,0
68995,-99.6338323814871,4,3,0,35,0,0
69400,202.882857142857,4,3,0,35,1,0
69400,-99.6419002959232,4,3,0,35,0,0
69603,207.045,4,3,0,35,1,0
69603,-97.6388390117153,4,3,0,35,0,0
69810,194.59,4,3,0,35,1,0
69810,-103.888346899535,4,3,0,35,0,0
70005,190.46,4,3,0,35,1,0
70005,-106.141097464983,4,3,0,35,0,0
70195,207.045,4,3,0,35,1,0
70195,-97.6388390117153,4,3,0,35,0,0
70402,206.252142857143,4,3,0,35,1,0
70402,-98.0141740257342,4,3,0,35,0,0
70608,209.701428571429,4,3,0,35,1,0
70608,-96.4019823846586,4,3,0,35,0,0
70818,201.409285714286,4,3,0,35,1,0
70818,-100.370910663265,4,3,0,35,0,0
71020,201.392857142857,4,3,0,35,1,0
71020,-100.379098394938,4,3,0,35,0,0
71221,207.629285714286,4,3,0,35,1,0
71221,-97.3640753694009,4,3,0,35,0,0
71637,209.686428571429,4,3,0,35,1,0
71637,-96.4088785378604,4,3,0,35,0,0
71846,203.482857142857,4,3,0,35,1,0
71846,-99.3480910727925,4,3,0,35,0,0
72050,205.555714285714,4,3,0,35,1,0
72050,-98.3462488183698,4,3,0,35,0,0
72255,205.539285714286,4,3,0,35,1,0
72255,-98.3541095461515,4,3,0,35,0,0
72461,205.555714285714,4,3,0,35,1,0
72461,-98.3462488183698,4,3,0,35,0,0
72666,211.775,4,3,0,35,1,0
72666,-95.4580730642455,4,3,0,35,0,0
72878,199.32,4,3,0,35,1,0
72878,-101.423005334039,4,3,0,35,0,0
73077,207.629285714286,4,3,0,35,1,0
73077,-97.3640753694009,4,3,0,35,0,0
73285,205.555714285714,4,3,0,35,1,0
73285,-98.3462488183698,4,3,0,35,0,0
73490,222.124285714286,4,3,0,35,1,0
73490,-91.0104600141904,4,3,0,35,0,0
73712,205.345,4,3,0,35,1,0
73712,-98.4471665888168,4,3,0,35,0,0
73918,209.2,4,3,0,35,1,0
73918,-96.6330469559302,4,3,0,35,0,0
74127,207.126428571429,4,3,0,35,1,0
74127,-97.60045380307,4,3,0,35,0,0
74335,211.289285714286,4,3,0,35,1,0
74335,-95.6775132011049,4,3,0,35,0,0
74546,205.052857142857,4,3,0,35,1,0
74546,-98.5874262122408,4,3,0,35,0,0
74751,207.126428571429,4,3,0,35,1,0
74751,-97.60045380307,4,3,0,35,0,0
74958,209.216428571429,4,3,0,35,1,0
74958,-96.625458914565,4,3,0,35,0,0
75167,200.907142857143,4,3,0,35,1,0
75167,-100.621775491353,4,3,0,35,0,0
75368,205.052857142857,4,3,0,35,1,0
75368,-98.5874262122408,4,3,0,35,0,0
75778,202.996428571429,4,3,0,35,1,0
75778,-99.5861531429224,4,3,0,35,0,0
75981,198.833571428571,4,3,0,35,1,0
75981,-101.671127656844,4,3,0,35,0,0
76180,202.980714285714,4,3,0,35,1,0
76180,-99.59386286682,4,3,0,35,0,0
76383,198.85,4,3,0,35,1,0
76383,-101.662727800757,4,3,0,35,0,0
76582,196.76,4,3,0,35,1,0
76582,-102.742597190387,4,3,0,35,0,0
76778,202.980714285714,4,3,0,35,1,0
76778,-99.59386286682,4,3,0,35,0,0
76982,208.762857142857,4,3,0,35,1,0
76982,-96.8353935170899,4,3,0,35,0,0
77190,197.862142857143,4,3,0,35,1,0
77190,-102.170294586248,4,3,0,35,0,0
77388,206.155,4,3,0,35,1,0
77388,-98.0603595507293,4,3,0,35,0,0
77595,212.374285714286,4,3,0,35,1,0
77595,-95.1887058981207,4,3,0,35,0,0
77807,197.862142857143,4,3,0,35,1,0
77807,-102.170294586248,4,3,0,35,0,0
78005,206.155,4,3,0,35,1,0
78005,-98.0603595507293,4,3,0,35,0,0
78210,204.081428571429,4,3,0,35,1,0
78210,-99.0567028302877,4,3,0,35,0,0
78823,206.155,4,3,0,35,1,0
78823,-98.0603595507293,4,3,0,35,0,0
79029,204.081428571429,4,3,0,35,1,0
79029,-99.0567028302877,4,3,0,35,0,0
79233,199.935714285714,4,3,0,35,1,0
79233,-101.110666973144,4,3,0,35,0,0
79433,206.155,4,3,0,35,1,0
79433,-98.0603595507293,4,3,0,35,0,0
79639,197.862142857143,4,3,0,35,1,0
79639,-102.170294586248,4,3,0,35,0,0
79837,204.081428571429,4,3,0,35,1,0
79837,-99.0567028302877,4,3,0,35,0,0
80245,199.854285714286,4,3,0,35,1,0
80245,-101.151863473577,4,3,0,35,0,0
80445,196.598571428571,4,3,0,35,1,0
80445,-102.826959912704,4,3,0,35,0,0
80642,196.582142857143,4,3,0,35,1,0
80642,-102.835553267274,4,3,0,35,0,0
80838,196.598571428571,4,3,0,35,1,0
80838,-102.826959912704,4,3,0,35,0,0
81232,196.582142857143,4,3,0,35,1,0
81232,-102.835553267274,4,3,0,35,0,0
81428,196.598571428571,4,3,0,35,1,0
81428,-102.826959912704,4,3,0,35,0,0
81625,196.582142857143,4,3,0,35,1,0
81625,-102.835553267274,4,3,0,35,0,0
81821,196.598571428571,4,3,0,35,1,0
81821,-102.826959912704,4,3,0,35,0,0
82215,196.582142857143,4,3,0,35,1,0
82215,-102.835553267274,4,3,0,35,0,0
82411,196.598571428571,4,3,0,35,1,0
82411,-102.826959912704,4,3,0,35,0,0
82804,192.435714285714,4,3,0,35,1,0
82804,-105.051359609713,4,3,0,35,0,0
82997,211.110714285714,4,3,0,35,1,0
82997,-95.7584435805614,4,3,0,35,0,0
83207,196.582142857143,4,3,0,35,1,0
83207,-102.835553267274,4,3,0,35,0,0
83405,200.826428571429,4,3,0,35,1,0
83405,-100.662216457185,4,3,0,35,0,0
83605,202.996428571429,4,3,0,35,1,0
83605,-99.5861531429224,4,3,0,35,0,0
83808,196.776428571429,4,3,0,35,1,0
83808,-102.734019363719,4,3,0,35,0,0
84005,194.703571428571,4,3,0,35,1,0
84005,-103.827748381066,4,3,0,35,0,0
84200,200.939285714286,4,3,0,35,1,0
84200,-100.605679727184,4,3,0,35,0,0
84400,194.703571428571,4,3,0,35,1,0
84400,-103.827748381066,4,3,0,35,0,0
84595,202.996428571429,4,3,0,35,1,0
84595,-99.5861531429224,4,3,0,35,0,0
85001,196.776428571429,4,3,0,35,1,0
85001,-102.734019363719,4,3,0,35,0,0
85198,209.216428571429,4,3,0,35,1,0
85198,-96.625458914565,4,3,0,35,0,0
85407,194.703571428571,4,3,0,35,1,0
85407,-103.827748381066,4,3,0,35,0,0
85602,200.923571428571,4,3,0,35,1,0
85602,-100.61354812403,4,3,0,35,0,0
85803,194.703571428571,4,3,0,35,1,0
85803,-103.827748381066,4,3,0,35,0,0
85997,178.117857142857,4,3,0,35,1,0
85997,-113.495826569297,4,3,0,35,0,0
86176,182.264285714286,4,3,0,35,1,0
86176,-110.913848777101,4,3,0,35,0,0
86358,209.216428571429,4,3,0,35,1,0
86358,-96.625458914565,4,3,0,35,0,0
86567,200.097142857143,4,3,0,35,1,0
86567,-101.02909584078,4,3,0,35,0,0
86767,205.555714285714,4,3,0,35,1,0
86767,-98.3462488183698,4,3,0,35,0,0
86973,199.335714285714,4,3,0,35,1,0
86973,-101.415009827114,4,3,0,35,0,0
87372,203.482857142857,4,3,0,35,1,0
87372,-99.3480910727925,4,3,0,35,0,0
87575,201.409285714286,4,3,0,35,1,0
87575,-100.370910663265,4,3,0,35,0,0
87777,205.555714285714,4,3,0,35,1,0
87777,-98.3462488183698,4,3,0,35,0,0
87982,201.392857142857,4,3,0,35,1,0
87982,-100.379098394938,4,3,0,35,0,0
88183,203.482857142857,4,3,0,35,1,0
88183,-99.3480910727925,4,3,0,35,0,0
88387,199.335714285714,4,3,0,35,1,0
88387,-101.415009827114,4,3,0,35,0,0
88586,207.629285714286,4,3,0,35,1,0
88586,-97.3640753694009,4,3,0,35,0,0
88794,205.555714285714,4,3,0,35,1,0
88794,-98.3462488183698,4,3,0,35,0,0
89000,199.335714285714,4,3,0,35,1,0
89000,-101.415009827114,4,3,0,35,0,0
89199,193.116428571429,4,3,0,35,1,0
89199,-104.681065058654,4,3,0,35,0,0
89392,205.555714285714,4,3,0,35,1,0
89392,-98.3462488183698,4,3,0,35,0,0
89597,195.189285714286,4,3,0,35,1,0
89597,-103.569380610224,4,3,0,35,0,0
89792,199.335714285714,4,3,0,35,1,0
89792,-101.415009827114,4,3,0,35,0,0
89992,203.482857142857,4,3,0,35,1,0
89992,-99.3480910727925,4,3,0,35,0,0
90195,201.409285714286,4,3,0,35,1,0
90195,-100.370910663265,4,3,0,35,0,0
90397,193.116428571429,4,3,0,35,1,0
90397,-104.681065058654,4,3,0,35,0,0
90590,205.555714285714,4,3,0,35,1,0
90590,-98.3462488183698,4,3,0,35,0,0
90795,203.482857142857,4,3,0,35,1,0
90795,-99.3480910727925,4,3,0,35,0,0
90999,201.409285714286,4,3,0,35,1,0
90999,-100.370910663265,4,3,0,35,0,0
91200,199.335714285714,4,3,0,35,1,0
91200,-101.415009827114,4,3,0,35,0,0
91400,195.189285714286,4,3,0,35,1,0
91400,-103.569380610224,4,3,0,35,0,0
91595,199.335714285714,4,3,0,35,1,0
91595,-101.415009827114,4,3,0,35,0,0
91794,197.262857142857,4,3,0,35,1,0
91794,-102.480688539052,4,3,0,35,0,0
91992,180.677142857143,4,3,0,35,1,0
91992,-111.888161963933,4,3,0,35,0,0
92172,201.409285714286,4,3,0,35,1,0
92172,-100.370910663265,4,3,0,35,0,0
92374,199.335714285714,4,3,0,35,1,0
92374,-101.415009827114,4,3,0,35,0,0
92573,174.457142857143,4,3,0,35,1,0
92573,-115.877361580629,4,3,0,35,0,0
92747,199.335714285714,4,3,0,35,1,0
92747,-101.415009827114,4,3,0,35,0,0
93345,203.482857142857,4,3,0,35,1,0
93345,-99.3480910727925,4,3,0,35,0,0
93549,201.409285714286,4,3,0,35,1,0
93549,-100.370910663265,4,3,0,35,0,0
93750,207.629285714286,4,3,0,35,1,0
93750,-97.3640753694009,4,3,0,35,0,0
93958,199.335714285714,4,3,0,35,1,0
93958,-101.415009827114,4,3,0,35,0,0
94157,207.629285714286,4,3,0,35,1,0
94157,-97.3640753694009,4,3,0,35,0,0
94365,197.262857142857,4,3,0,35,1,0
94365,-102.480688539052,4,3,0,35,0,0
94562,205.555714285714,4,3,0,35,1,0
94562,-98.3462488183698,4,3,0,35,0,0
94767,197.262857142857,4,3,0,35,1,0
94767,-102.480688539052,4,3,0,35,0,0
94965,199.335714285714,4,3,0,35,1,0
94965,-101.415009827114,4,3,0,35,0,0
95165,201.409285714286,4,3,0,35,1,0
95165,-100.370910663265,4,3,0,35,0,0
95366,191.043571428571,4,3,0,35,1,0
95366,-105.816873459879,4,3,0,35,0,0
95557,193.116428571429,4,3,0,35,1,0
95557,-104.681065058654,4,3,0,35,0,0
95750,199.335714285714,4,3,0,35,1,0
95750,-101.415009827114,4,3,0,35,0,0
95949,182.75,4,3,0,35,1,0
95949,-110.619061139155,4,3,0,35,0,0
96132,207.629285714286,4,3,0,35,1,0
96132,-97.3640753694009,4,3,0,35,0,0
96340,195.189285714286,4,3,0,35,1,0
96340,-103.569380610224,4,3,0,35,0,0
96535,207.629285714286,4,3,0,35,1,0
96535,-97.3640753694009,4,3,0,35,0,0
96742,188.969285714286,4,3,0,35,1,0
96742,-106.978408405194,4,3,0,35,0,0
96931,217.978571428571,4,3,0,35,1,0
96931,-92.7413795342033,4,3,0,35,0,0
97150,197.262857142857,4,3,0,35,1,0
97150,-102.480688539052,4,3,0,35,0,0
97347,205.555714285714,4,3,0,35,1,0
97347,-98.3462488183698,4,3,0,35,0,0
97552,197.262857142857,4,3,0,35,1,0
97552,-102.480688539052,4,3,0,35,0,0
97750,201.409285714286,4,3,0,35,1,0
97750,-100.370910663265,4,3,0,35,0,0
97951,199.335714285714,4,3,0,35,1,0
97951,-101.415009827114,4,3,0,35,0,0
98150,201.409285714286,4,3,0,35,1,0
98150,-100.370910663265,4,3,0,35,0,0
98352,199.335714285714,4,3,0,35,1,0
98352,-101.415009827114,4,3,0,35,0,0
98551,197.262857142857,4,3,0,35,1,0
98551,-102.480688539052,4,3,0,35,0,0
98748,203.482857142857,4,3,0,35,1,0
98748,-99.3480910727925,4,3,0,35,0,0
98952,207.629285714286,4,3,0,35,1,0
98952,-97.3640753694009,4,3,0,35,0,0
99367,203.562857142857,4,3,0,35,1,0
99367,-99.3090473720045,4,3,0,35,0,0
99570,207.791428571429,4,3,0,35,1,0
99570,-97.2881006794341,4,3,0,35,0,0
99778,205.717857142857,4,3,0,35,1,0
99778,-98.2687341971592,4,3,0,35,0,0
99984,209.863571428571,4,3,0,35,1,0
99984,-96.3275011740717,4,3,0,35,0,0
100194,201.587857142857,4,3,0,35,1,0
100194,-100.281999668535,4,3,0,35,0,0
100395,203.644285714286,4,3,0,35,1,0
100395,-99.2693379648436,4,3,0,35,0,0
100599,199.497857142857,4,3,0,35,1,0
100599,-101.33258428287,4,3,0,35,0,0
100799,203.644285714286,4,3,0,35,1,0
100799,-99.2693379648436,4,3,0,35,0,0
101002,205.717857142857,4,3,0,35,1,0
101002,-98.2687341971592,4,3,0,35,0,0
101620,201.570714285714,4,3,0,35,1,0
101620,-100.290528288381,4,3,0,35,0,0
101821,195.351428571429,4,3,0,35,1,0
101821,-103.483417403262,4,3,0,35,0,0
102016,197.425,4,3,0,35,1,0
102016,-102.396522341044,4,3,0,35,0,0
102214,203.644285714286,4,3,0,35,1,0
102214,-99.2693379648436,4,3,0,35,0,0
102417,195.351428571429,4,3,0,35,1,0
102417,-103.483417403262,4,3,0,35,0,0
102612,205.457857142857,4,3,0,35,1,0
102612,-98.393089971363,4,3,0,35,0,0
102818,194.816428571429,4,3,0,35,1,0
102818,-103.767600974004,4,3,0,35,0,0
103013,205.182857142857,4,3,0,35,1,0
103013,-98.5249630728438,4,3,0,35,0,0
103218,203.125714285714,4,3,0,35,1,0
103218,-99.5227684208683,4,3,0,35,0,0
103421,207.256428571429,4,3,0,35,1,0
103421,-97.5392346694496,4,3,0,35,0,0
103629,198.963571428571,4,3,0,35,1,0
103629,-101.604697171603,4,3,0,35,0,0
103827,211.402142857143,4,3,0,35,1,0
103827,-95.6264357113992,4,3,0,35,0,0
104039,205.199285714286,4,3,0,35,1,0
104039,-98.5170750122801,4,3,0,35,0,0
104244,207.256428571429,4,3,0,35,1,0
104244,-97.5392346694496,4,3,0,35,0,0
104451,196.890714285714,4,3,0,35,1,0
104451,-102.674387141717,4,3,0,35,0,0
104648,203.125714285714,4,3,0,35,1,0
104648,-99.5227684208683,4,3,0,35,0,0
104852,203.109285714286,4,3,0,35,1,0
104852,-99.5308183576499,4,3,0,35,0,0
105461,203.125714285714,4,3,0,35,1,0
105461,-99.5227684208683,4,3,0,35,0,0
105664,203.109285714286,4,3,0,35,1,0
105664,-99.5308183576499,4,3,0,35,0,0
106070,203.125714285714,4,3,0,35,1,0
106070,-99.5227684208683,4,3,0,35,0,0
106273,203.109285714286,4,3,0,35,1,0
106273,-99.5308183576499,4,3,0,35,0,0
106882,203.125714285714,4,3,0,35,1,0
106882,-99.5227684208683,4,3,0,35,0,0
107085,203.109285714286,4,3,0,35,1,0
107085,-99.5308183576499,4,3,0,35,0,0
107492,203.125714285714,4,3,0,35,1,0
107492,-99.5227684208683,4,3,0,35,0,0
107695,203.109285714286,4,3,0,35,1,0
107695,-99.5308183576499,4,3,0,35,0,0
108305,203.125714285714,4,3,0,35,1,0
108305,-99.5227684208683,4,3,0,35,0,0
108507,203.109285714286,4,3,0,35,1,0
108507,-99.5308183576499,4,3,0,35,0,0
108914,203.125714285714,4,3,0,35,1,0
108914,-99.5227684208683,4,3,0,35,0,0
109117,203.109285714286,4,3,0,35,1,0
109117,-99.5308183576499,4,3,0,35,0,0

[HitObjects]
192,192,154,5,0,0:0:0:0:
64,192,255,1,0,0:0:0:0:
320,192,305,1,0,0:0:0:0:
448,192,356,1,0,0:0:0:0:
448,192,457,1,0,0:0:0:0:
64,192,558,1,0,0:0:0:0:
320,192,596,1,0,0:0:0:0:
448,192,659,1,0,0:0:0:0:
448,192,760,1,0,0:0:0:0:
64,192,861,1,0,0:0:0:0:
320,192,912,1,0,0:0:0:0:
192,192,962,1,0,0:0:0:0:
64,192,1063,1,0,0:0:0:0:
320,192,1118,1,0,0:0:0:0:
192,192,1165,1,0,0:0:0:0:
192,192,1265,1,0,0:0:0:0:
64,192,1367,1,0,0:0:0:0:
320,192,1417,1,0,0:0:0:0:
192,192,1468,1,0,0:0:0:0:
192,192,1570,1,0,0:0:0:0:
64,192,1670,1,0,0:0:0:0:
320,192,1729,1,0,0:0:0:0:
448,192,1772,1,0,0:0:0:0:
64,192,1872,1,0,0:0:0:0:
320,192,1936,1,0,0:0:0:0:
448,192,1974,1,0,0:0:0:0:
448,192,2075,1,0,0:0:0:0:
64,192,2176,1,0,0:0:0:0:
320,192,2226,1,0,0:0:0:0:
448,192,2277,1,0,0:0:0:0:
448,192,2378,1,0,0:0:0:0:
64,192,2479,1,0,0:0:0:0:
320,192,2530,1,0,0:0:0:0:
192,192,2580,1,0,0:0:0:0:
64,192,2681,1,0,0:0:0:0:
320,192,2735,1,0,0:0:0:0:
192,192,2782,1,0,0:0:0:0:
192,192,2883,1,0,0:0:0:0:
64,192,2985,1,0,0:0:0:0:
320,192,3035,1,0,0:0:0:0:
192,192,3085,1,0,0:0:0:0:
192,192,3187,1,0,0:0:0:0:
64,192,3287,1,0,0:0:0:0:
320,192,3338,1,0,0:0:0:0:
448,192,3389,1,0,0:0:0:0:
64,192,3490,1,0,0:0:0:0:
320,192,3540,1,0,0:0:0:0:
448,192,3591,1,0,0:0:0:0:
448,192,3692,1,0,0:0:0:0:
64,192,3793,1,0,0:0:0:0:
320,192,3844,1,0,0:0:0:0:
448,192,3894,1,0,0:0:0:0:
448,192,3995,1,0,0:0:0:0:
320,192,4147,1,0,0:0:0:0:
192,192,4197,1,0,0:0:0:0:
64,192,4298,1,0,0:0:0:0:
320,192,4349,1,0,0:0:0:0:
192,192,4400,1,0,0:0:0:0:
192,192,4500,1,0,0:0:0:0:
64,192,4602,1,0,0:0:0:0:
320,192,4652,1,0,0:0:0:0:
192,192,4702,1,0,0:0:0:0:
192,192,4804,1,0,0:0:0:0:
64,192,4905,1,0,0:0:0:0:
320,192,4955,1,0,0:0:0:0:
448,192,5006,1,0,0:0:0:0:
64,192,5107,1,0,0:0:0:0:
320,192,5157,1,0,0:0:0:0:
448,192,5208,1,0,0:0:0:0:
448,192,5309,1,0,0:0:0:0:
64,192,5410,1,0,0:0:0:0:
320,192,5461,1,0,0:0:0:0:
448,192,5511,1,0,0:0:0:0:
448,192,5612,1,0,0:0:0:0:
64,192,5719,1,0,0:0:0:0:
320,192,5772,1,0,0:0:0:0:
448,192,5825,128,0,5892:0:0:0:0:
192,192,5825,128,0,5892:0:0:0:0:
64,192,5825,128,0,5892:0:0:0:0:
448,192,5960,128,0,6027:0:0:0:0:
192,192,5960,128,0,6027:0:0:0:0:
64,192,5960,128,0,6027:0:0:0:0:
448,192,6095,128,0,6162:0:0:0:0:
192,192,6095,128,0,6162:0:0:0:0:
64,192,6095,128,0,6162:0:0:0:0:
320,192,6230,128,0,6299:0:0:0:0:
192,192,6230,128,0,6299:0:0:0:0:
64,192,6282,1,0,0:0:0:0:
192,192,6412,128,0,6650:0:0:0:0:
448,192,6650,1,0,0:0:0:0:
320,192,6695,1,0,0:0:0:0:
192,192,6739,1,0,0:0:0:0:
64,192,6739,1,0,0:0:0:0:
320,192,6783,1,0,0:0:0:0:
448,192,6827,1,0,0:0:0:0:
64,192,6875,1,0,0:0:0:0:
448,192,6921,1,0,0:0:0:0:
192,192,6921,1,0,0:0:0:0:
64,192,6968,1,0,0:0:0:0:
320,192,7015,1,0,0:0:0:0:
448,192,7067,1,0,0:0:0:0:
192,192,7120,1,0,0:0:0:0:
64,192,7120,1,0,0:0:0:0:
448,192,7172,1,0,0:0:0:0:
320,192,7225,1,0,0:0:0:0:
192,192,7271,1,0,0:0:0:0:
320,192,7318,1,0,0:0:0:0:
64,192,7318,1,0,0:0:0:0:
448,192,7365,1,0,0:0:0:0:
192,192,7412,1,0,0:0:0:0:
64,192,7464,1,0,0:0:0:0:
448,192,7516,1,0,0:0:0:0:
320,192,7516,1,0,0:0:0:0:
64,192,7567,1,0,0:0:0:0:
192,192,7619,1,0,0:0:0:0:
448,192,7667,1,0,0:0:0:0:
320,192,7716,1,0,0:0:0:0:
192,192,7716,1,0,0:0:0:0:
448,192,7765,1,0,0:0:0:0:
64,192,7813,1,0,0:0:0:0:
192,192,7864,1,0,0:0:0:0:
448,192,7915,1,0,0:0:0:0:
320,192,7915,1,0,0:0:0:0:
192,192,7965,1,0,0:0:0:0:
64,192,8016,1,0,0:0:0:0:
448,192,8064,1,0,0:0:0:0:
320,192,8112,1,0,0:0:0:0:
64,192,8112,1,0,0:0:0:0:
192,192,8160,1,0,0:0:0:0:
448,192,8208,1,0,0:0:0:0:
320,192,8257,1,0,0:0:0:0:
192,192,8307,1,0,0:0:0:0:
64,192,8307,1,0,0:0:0:0:
320,192,8357,1,0,0:0:0:0:
448,192,8407,1,0,0:0:0:0:
64,192,8455,1,0,0:0:0:0:
448,192,8502,1,0,0:0:0:0:
192,192,8502,1,0,0:0:0:0:
64,192,8551,1,0,0:0:0:0:
320,192,8599,1,0,0:0:0:0:
448,192,8651,1,0,0:0:0:0:
192,192,8703,1,0,0:0:0:0:
64,192,8703,1,0,0:0:0:0:
448,192,8755,1,0,0:0:0:0:
320,192,8807,1,0,0:0:0:0:
192,192,8857,1,0,0:0:0:0:
320,192,8906,1,0,0:0:0:0:
64,192,8906,1,0,0:0:0:0:
448,192,8955,1,0,0:0:0:0:
192,192,9004,1,0,0:0:0:0:
64,192,9056,1,0,0:0:0:0:
448,192,9108,1,0,0:0:0:0:
320,192,9108,1,0,0:0:0:0:
64,192,9160,1,0,0:0:0:0:
192,192,9212,1,0,0:0:0:0:
448,192,9262,1,0,0:0:0:0:
320,192,9312,1,0,0:0:0:0:
192,192,9312,1,0,0:0:0:0:
448,192,9362,1,0,0:0:0:0:
64,192,9411,1,0,0:0:0:0:
192,192,9460,1,0,0:0:0:0:
448,192,9510,1,0,0:0:0:0:
320,192,9510,1,0,0:0:0:0:
192,192,9560,1,0,0:0:0:0:
64,192,9610,1,0,0:0:0:0:
448,192,9658,1,0,0:0:0:0:
320,192,9707,1,0,0:0:0:0:
64,192,9707,1,0,0:0:0:0:
192,192,9755,1,0,0:0:0:0:
448,192,9804,128,0,9852:0:0:0:0:
320,192,9852,1,0,0:0:0:0:
192,192,9900,1,0,0:0:0:0:
64,192,9900,1,0,0:0:0:0:
320,192,9948,1,0,0:0:0:0:
448,192,9996,1,0,0:0:0:0:
64,192,10045,1,0,0:0:0:0:
448,192,10095,1,0,0:0:0:0:
192,192,10095,1,0,0:0:0:0:
64,192,10145,1,0,0:0:0:0:
320,192,10195,1,0,0:0:0:0:
448,192,10244,1,0,0:0:0:0:
192,192,10293,1,0,0:0:0:0:
64,192,10293,1,0,0:0:0:0:
448,192,10343,1,0,0:0:0:0:
320,192,10392,1,0,0:0:0:0:
192,192,10441,1,0,0:0:0:0:
320,192,10490,1,0,0:0:0:0:
64,192,10490,1,0,0:0:0:0:
448,192,10538,1,0,0:0:0:0:
192,192,10587,1,0,0:0:0:0:
64,192,10637,1,0,0:0:0:0:
448,192,10688,1,0,0:0:0:0:
320,192,10688,1,0,0:0:0:0:
64,192,10739,1,0,0:0:0:0:
192,192,10790,1,0,0:0:0:0:
448,192,10838,1,0,0:0:0:0:
320,192,10887,1,0,0:0:0:0:
192,192,10887,1,0,0:0:0:0:
448,192,10935,1,0,0:0:0:0:
64,192,10984,1,0,0:0:0:0:
192,192,11035,1,0,0:0:0:0:
448,192,11085,1,0,0:0:0:0:
320,192,11085,1,0,0:0:0:0:
192,192,11136,1,0,0:0:0:0:
64,192,11186,1,0,0:0:0:0:
448,192,11235,1,0,0:0:0:0:
320,192,11283,1,0,0:0:0:0:
64,192,11283,1,0,0:0:0:0:
192,192,11332,1,0,0:0:0:0:
448,192,11380,1,0,0:0:0:0:
320,192,11433,1,0,0:0:0:0:
192,192,11486,1,0,0:0:0:0:
64,192,11486,1,0,0:0:0:0:
320,192,11539,1,0,0:0:0:0:
448,192,11592,1,0,0:0:0:0:
64,192,11640,1,0,0:0:0:0:
448,192,11687,1,0,0:0:0:0:
192,192,11687,1,0,0:0:0:0:
64,192,11736,1,0,0:0:0:0:
320,192,11784,1,0,0:0:0:0:
448,192,11834,1,0,0:0:0:0:
192,192,11884,1,0,0:0:0:0:
64,192,11884,1,0,0:0:0:0:
448,192,11934,1,0,0:0:0:0:
320,192,11984,1,0,0:0:0:0:
192,192,12032,1,0,0:0:0:0:
320,192,12081,1,0,0:0:0:0:
64,192,12081,1,0,0:0:0:0:
448,192,12130,1,0,0:0:0:0:
192,192,12178,1,0,0:0:0:0:
64,192,12227,1,0,0:0:0:0:
448,192,12275,1,0,0:0:0:0:
320,192,12275,1,0,0:0:0:0:
64,192,12324,1,0,0:0:0:0:
192,192,12372,1,0,0:0:0:0:
448,192,12421,1,0,0:0:0:0:
320,192,12469,1,0,0:0:0:0:
192,192,12469,1,0,0:0:0:0:
448,192,12517,1,0,0:0:0:0:
320,192,12565,1,0,0:0:0:0:
64,192,12565,1,0,0:0:0:0:
192,192,12615,1,0,0:0:0:0:
448,192,12664,1,0,0:0:0:0:
320,192,12664,1,0,0:0:0:0:
192,192,12714,1,0,0:0:0:0:
64,192,12714,1,0,0:0:0:0:
448,192,12763,1,0,0:0:0:0:
320,192,12763,1,0,0:0:0:0:
192,192,12811,1,0,0:0:0:0:
64,192,12811,1,0,0:0:0:0:
448,192,12858,1,0,0:0:0:0:
320,192,12858,1,0,0:0:0:0:
192,192,12906,1,0,0:0:0:0:
64,192,12906,1,0,0:0:0:0:
448,192,12953,1,0,0:0:0:0:
320,192,12953,1,0,0:0:0:0:
192,192,13000,1,0,0:0:0:0:
64,192,13047,1,0,0:0:0:0:
320,192,13093,1,0,0:0:0:0:
448,192,13140,1,0,0:0:0:0:
192,192,13140,1,0,0:0:0:0:
64,192,13188,1,0,0:0:0:0:
448,192,13237,1,0,0:0:0:0:
320,192,13237,1,0,0:0:0:0:
192,192,13287,1,0,0:0:0:0:
64,192,13336,1,0,0:0:0:0:
448,192,13385,1,0,0:0:0:0:
320,192,13435,1,0,0:0:0:0:
192,192,13435,1,0,0:0:0:0:
448,192,13485,1,0,0:0:0:0:
192,192,13534,1,0,0:0:0:0:
64,192,13534,1,0,0:0:0:0:
320,192,13583,1,0,0:0:0:0:
448,192,13632,1,0,0:0:0:0:
64,192,13632,1,0,0:0:0:0:
192,192,13682,1,0,0:0:0:0:
448,192,13732,1,0,0:0:0:0:
320,192,13732,1,0,0:0:0:0:
64,192,13781,1,0,0:0:0:0:
192,192,13831,1,0,0:0:0:0:
448,192,13881,1,0,0:0:0:0:
320,192,13931,1,0,0:0:0:0:
64,192,13931,1,0,0:0:0:0:
448,192,13980,1,0,0:0:0:0:
192,192,14030,1,0,0:0:0:0:
64,192,14030,1,0,0:0:0:0:
320,192,14079,1,0,0:0:0:0:
448,192,14129,1,0,0:0:0:0:
64,192,14178,1,0,0:0:0:0:
320,192,14227,1,0,0:0:0:0:
192,192,14227,1,0,0:0:0:0:
64,192,14277,1,0,0:0:0:0:
448,192,14326,1,0,0:0:0:0:
320,192,14326,1,0,0:0:0:0:
192,192,14375,1,0,0:0:0:0:
448,192,14422,1,0,0:0:0:0:
64,192,14422,1,0,0:0:0:0:
320,192,14471,1,0,0:0:0:0:
192,192,14520,1,0,0:0:0:0:
64,192,14520,1,0,0:0:0:0:
448,192,14572,1,0,0:0:0:0:
192,192,14625,1,0,0:0:0:0:
448,192,14678,1,0,0:0:0:0:
320,192,14732,1,0,0:0:0:0:
64,192,14732,1,0,0:0:0:0:
192,192,14780,1,0,0:0:0:0:
448,192,14827,1,0,0:0:0:0:
320,192,14827,1,0,0:0:0:0:
192,192,14875,1,0,0:0:0:0:
64,192,14922,1,0,0:0:0:0:
448,192,14974,1,0,0:0:0:0:
320,192,15025,1,0,0:0:0:0:
192,192,15025,1,0,0:0:0:0:
448,192,15075,1,0,0:0:0:0:
192,192,15127,1,0,0:0:0:0:
64,192,15127,1,0,0:0:0:0:
320,192,15175,1,0,0:0:0:0:
448,192,15223,1,0,0:0:0:0:
64,192,15223,1,0,0:0:0:0:
192,192,15272,1,0,0:0:0:0:
448,192,15320,1,0,0:0:0:0:
320,192,15320,1,0,0:0:0:0:
64,192,15369,1,0,0:0:0:0:
192,192,15418,1,0,0:0:0:0:
448,192,15468,1,0,0:0:0:0:
320,192,15517,1,0,0:0:0:0:
64,192,15517,1,0,0:0:0:0:
448,192,15567,1,0,0:0:0:0:
192,192,15616,1,0,0:0:0:0:
64,192,15616,1,0,0:0:0:0:
320,192,15665,1,0,0:0:0:0:
448,192,15715,1,0,0:0:0:0:
64,192,15765,1,0,0:0:0:0:
320,192,15815,1,0,0:0:0:0:
192,192,15815,1,0,0:0:0:0:
64,192,15865,1,0,0:0:0:0:
448,192,15915,1,0,0:0:0:0:
320,192,15915,1,0,0:0:0:0:
192,192,15962,1,0,0:0:0:0:
448,192,16009,1,0,0:0:0:0:
64,192,16009,1,0,0:0:0:0:
320,192,16056,1,0,0:0:0:0:
192,192,16103,1,0,0:0:0:0:
64,192,16103,1,0,0:0:0:0:
448,192,16150,1,0,0:0:0:0:
192,192,16197,1,0,0:0:0:0:
448,192,16244,1,0,0:0:0:0:
320,192,16290,1,0,0:0:0:0:
64,192,16290,1,0,0:0:0:0:
192,192,16341,1,0,0:0:0:0:
448,192,16392,1,0,0:0:0:0:
320,192,16392,1,0,0:0:0:0:
192,192,16442,1,0,0:0:0:0:
64,192,16492,1,0,0:0:0:0:
448,192,16544,1,0,0:0:0:0:
320,192,16595,1,0,0:0:0:0:
192,192,16595,1,0,0:0:0:0:
448,192,16647,1,0,0:0:0:0:
192,192,16698,1,0,0:0:0:0:
64,192,16698,1,0,0:0:0:0:
320,192,16747,1,0,0:0:0:0:
448,192,16797,1,0,0:0:0:0:
64,192,16797,1,0,0:0:0:0:
192,192,16846,1,0,0:0:0:0:
448,192,16895,1,0,0:0:0:0:
320,192,16895,1,0,0:0:0:0:
64,192,16946,1,0,0:0:0:0:
192,192,16997,1,0,0:0:0:0:
448,192,17047,1,0,0:0:0:0:
320,192,17097,1,0,0:0:0:0:
64,192,17097,1,0,0:0:0:0:
448,192,17147,1,0,0:0:0:0:
192,192,17196,1,0,0:0:0:0:
64,192,17196,1,0,0:0:0:0:
320,192,17245,1,0,0:0:0:0:
448,192,17295,1,0,0:0:0:0:
64,192,17345,1,0,0:0:0:0:
320,192,17395,1,0,0:0:0:0:
192,192,17395,1,0,0:0:0:0:
64,192,17446,1,0,0:0:0:0:
448,192,17497,1,0,0:0:0:0:
320,192,17497,1,0,0:0:0:0:
192,192,17546,1,0,0:0:0:0:
448,192,17596,1,0,0:0:0:0:
64,192,17596,1,0,0:0:0:0:
320,192,17646,1,0,0:0:0:0:
192,192,17696,1,0,0:0:0:0:
64,192,17696,1,0,0:0:0:0:
448,192,17742,1,0,0:0:0:0:
192,192,17790,1,0,0:0:0:0:
448,192,17836,1,0,0:0:0:0:
320,192,17883,1,0,0:0:0:0:
64,192,17883,1,0,0:0:0:0:
192,192,17931,1,0,0:0:0:0:
448,192,17979,1,0,0:0:0:0:
320,192,17979,1,0,0:0:0:0:
192,192,18027,1,0,0:0:0:0:
64,192,18075,1,0,0:0:0:0:
448,192,18125,1,0,0:0:0:0:
320,192,18176,1,0,0:0:0:0:
192,192,18176,1,0,0:0:0:0:
448,192,18227,1,0,0:0:0:0:
192,192,18278,1,0,0:0:0:0:
64,192,18278,1,0,0:0:0:0:
320,192,18325,1,0,0:0:0:0:
448,192,18372,1,0,0:0:0:0:
64,192,18372,1,0,0:0:0:0:
192,192,18420,1,0,0:0:0:0:
448,192,18467,1,0,0:0:0:0:
320,192,18467,1,0,0:0:0:0:
64,192,18517,1,0,0:0:0:0:
192,192,18566,1,0,0:0:0:0:
448,192,18615,1,0,0:0:0:0:
320,192,18665,1,0,0:0:0:0:
64,192,18665,1,0,0:0:0:0:
448,192,18712,1,0,0:0:0:0:
192,192,18760,1,0,0:0:0:0:
64,192,18760,1,0,0:0:0:0:
320,192,18808,1,0,0:0:0:0:
448,192,18856,1,0,0:0:0:0:
192,192,18905,1,0,0:0:0:0:
320,192,18952,1,0,0:0:0:0:
64,192,18952,1,0,0:0:0:0:
448,192,19001,1,0,0:0:0:0:
192,192,19050,1,0,0:0:0:0:
64,192,19050,1,0,0:0:0:0:
448,192,19100,1,0,0:0:0:0:
320,192,19100,1,0,0:0:0:0:
192,192,19150,1,0,0:0:0:0:
64,192,19201,1,0,0:0:0:0:
448,192,19255,1,0,0:0:0:0:
320,192,19300,1,0,0:0:0:0:
448,192,19350,1,0,0:0:0:0:
192,192,19350,1,0,0:0:0:0:
320,192,19403,1,0,0:0:0:0:
64,192,19449,1,0,0:0:0:0:
448,192,19497,1,0,0:0:0:0:
192,192,19549,1,0,0:0:0:0:
64,192,19549,1,0,0:0:0:0:
448,192,19594,1,0,0:0:0:0:
64,192,19642,1,0,0:0:0:0:
192,192,19682,1,0,0:0:0:0:
320,192,19719,1,0,0:0:0:0:
448,192,19760,1,0,0:0:0:0:
192,192,19796,1,0,0:0:0:0:
64,192,19837,1,0,0:0:0:0:
448,192,19887,1,0,0:0:0:0:
192,192,19936,1,0,0:0:0:0:
64,192,19936,1,0,0:0:0:0:
448,192,19985,1,0,0:0:0:0:
64,192,20035,1,0,0:0:0:0:
192,192,20075,1,0,0:0:0:0:
448,192,20112,1,0,0:0:0:0:
320,192,20153,1,0,0:0:0:0:
192,192,20190,1,0,0:0:0:0:
64,192,20231,1,0,0:0:0:0:
448,192,20280,1,0,0:0:0:0:
192,192,20327,1,0,0:0:0:0:
64,192,20327,1,0,0:0:0:0:
448,192,20376,1,0,0:0:0:0:
64,192,20424,1,0,0:0:0:0:
320,192,20466,1,0,0:0:0:0:
448,192,20505,1,0,0:0:0:0:
192,192,20547,1,0,0:0:0:0:
320,192,20585,1,0,0:0:0:0:
64,192,20627,1,0,0:0:0:0:
448,192,20677,1,0,0:0:0:0:
192,192,20726,1,0,0:0:0:0:
64,192,20726,1,0,0:0:0:0:
448,192,20775,1,0,0:0:0:0:
320,192,20825,1,0,0:0:0:0:
64,192,20865,1,0,0:0:0:0:
448,192,20902,1,0,0:0:0:0:
320,192,20943,1,0,0:0:0:0:
192,192,20980,1,0,0:0:0:0:
64,192,21022,1,0,0:0:0:0:
448,192,21071,1,0,0:0:0:0:
192,192,21120,1,0,0:0:0:0:
64,192,21120,1,0,0:0:0:0:
448,192,21170,1,0,0:0:0:0:
320,192,21222,1,0,0:0:0:0:
64,192,21268,1,0,0:0:0:0:
448,192,21318,1,0,0:0:0:0:
192,192,21318,1,0,0:0:0:0:
320,192,21368,1,0,0:0:0:0:
64,192,21421,1,0,0:0:0:0:
448,192,21465,1,0,0:0:0:0:
192,192,21513,1,0,0:0:0:0:
64,192,21513,1,0,0:0:0:0:
448,192,21561,1,0,0:0:0:0:
320,192,21609,1,0,0:0:0:0:
64,192,21650,1,0,0:0:0:0:
192,192,21689,1,0,0:0:0:0:
448,192,21731,1,0,0:0:0:0:
320,192,21769,1,0,0:0:0:0:
64,192,21812,1,0,0:0:0:0:
448,192,21861,1,0,0:0:0:0:
192,192,21910,1,0,0:0:0:0:
64,192,21910,1,0,0:0:0:0:
448,192,21960,1,0,0:0:0:0:
320,192,22009,1,0,0:0:0:0:
64,192,22058,1,0,0:0:0:0:
448,192,22107,1,0,0:0:0:0:
192,192,22107,1,0,0:0:0:0:
320,192,22157,1,0,0:0:0:0:
64,192,22206,1,0,0:0:0:0:
448,192,22256,1,0,0:0:0:0:
192,192,22305,1,0,0:0:0:0:
64,192,22305,1,0,0:0:0:0:
448,192,22355,1,0,0:0:0:0:
64,192,22405,1,0,0:0:0:0:
192,192,22445,1,0,0:0:0:0:
448,192,22480,1,0,0:0:0:0:
192,192,22520,1,0,0:0:0:0:
320,192,22556,1,0,0:0:0:0:
448,192,22596,1,0,0:0:0:0:
64,192,22635,1,0,0:0:0:0:
192,192,22670,1,0,0:0:0:0:
320,192,22710,1,0,0:0:0:0:
64,192,22745,1,0,0:0:0:0:
320,192,22785,1,0,0:0:0:0:
448,192,22827,1,0,0:0:0:0:
64,192,22865,1,0,0:0:0:0:
192,192,22908,1,0,0:0:0:0:
320,192,22947,1,0,0:0:0:0:
64,192,22990,1,0,0:0:0:0:
448,192,23039,1,0,0:0:0:0:
192,192,23088,1,0,0:0:0:0:
64,192,23088,1,0,0:0:0:0:
448,192,23137,1,0,0:0:0:0:
64,192,23187,1,0,0:0:0:0:
320,192,23230,1,0,0:0:0:0:
448,192,23269,1,0,0:0:0:0:
320,192,23312,1,0,0:0:0:0:
192,192,23351,1,0,0:0:0:0:
64,192,23395,1,0,0:0:0:0:
448,192,23435,1,0,0:0:0:0:
320,192,23470,1,0,0:0:0:0:
192,192,23510,1,0,0:0:0:0:
448,192,23547,1,0,0:0:0:0:
192,192,23587,1,0,0:0:0:0:
64,192,23629,1,0,0:0:0:0:
448,192,23667,1,0,0:0:0:0:
320,192,23708,1,0,0:0:0:0:
192,192,23746,1,0,0:0:0:0:
64,192,23788,1,0,0:0:0:0:
448,192,23836,1,0,0:0:0:0:
192,192,23884,1,0,0:0:0:0:
64,192,23884,1,0,0:0:0:0:
448,192,23932,1,0,0:0:0:0:
64,192,23980,128,0,24377:0:0:0:0:
320,192,24030,1,0,0:0:0:0:
192,192,24082,1,0,0:0:0:0:
448,192,24133,1,0,0:0:0:0:
320,192,24185,1,0,0:0:0:0:
192,192,24233,1,0,0:0:0:0:
448,192,24281,1,0,0:0:0:0:
320,192,24281,1,0,0:0:0:0:
192,192,24330,1,0,0:0:0:0:
448,192,24377,128,0,24776:0:0:0:0:
64,192,24429,1,0,0:0:0:0:
192,192,24480,1,0,0:0:0:0:
320,192,24532,1,0,0:0:0:0:
64,192,24583,1,0,0:0:0:0:
192,192,24631,1,0,0:0:0:0:
64,192,24680,1,0,0:0:0:0:
192,192,24727,1,0,0:0:0:0:
320,192,24776,128,0,25176:0:0:0:0:
448,192,24827,1,0,0:0:0:0:
192,192,24877,1,0,0:0:0:0:
64,192,24877,1,0,0:0:0:0:
448,192,24928,1,0,0:0:0:0:
64,192,24979,1,0,0:0:0:0:
192,192,25028,1,0,0:0:0:0:
64,192,25077,1,0,0:0:0:0:
448,192,25127,1,0,0:0:0:0:
192,192,25176,128,0,25416:0:0:0:0:
64,192,25225,1,0,0:0:0:0:
448,192,25272,1,0,0:0:0:0:
320,192,25272,1,0,0:0:0:0:
64,192,25321,1,0,0:0:0:0:
448,192,25369,1,0,0:0:0:0:
320,192,25369,1,0,0:0:0:0:
64,192,25416,1,0,0:0:0:0:
448,192,25463,1,0,0:0:0:0:
192,192,25463,1,0,0:0:0:0:
64,192,25510,1,0,0:0:0:0:
448,192,25561,1,0,0:0:0:0:
320,192,25603,1,0,0:0:0:0:
64,192,25648,1,0,0:0:0:0:
448,192,25697,1,0,0:0:0:0:
320,192,25738,1,0,0:0:0:0:
192,192,25788,1,0,0:0:0:0:
448,192,25842,1,0,0:0:0:0:
320,192,25842,1,0,0:0:0:0:
192,192,25887,1,0,0:0:0:0:
448,192,25937,1,0,0:0:0:0:
64,192,25937,1,0,0:0:0:0:
192,192,25980,1,0,0:0:0:0:
320,192,26017,1,0,0:0:0:0:
448,192,26060,1,0,0:0:0:0:
64,192,26098,1,0,0:0:0:0:
320,192,26140,1,0,0:0:0:0:
192,192,26190,1,0,0:0:0:0:
448,192,26239,1,0,0:0:0:0:
320,192,26239,1,0,0:0:0:0:
192,192,26288,1,0,0:0:0:0:
448,192,26337,1,0,0:0:0:0:
64,192,26337,1,0,0:0:0:0:
320,192,26377,1,0,0:0:0:0:
192,192,26414,1,0,0:0:0:0:
64,192,26454,1,0,0:0:0:0:
448,192,26490,1,0,0:0:0:0:
320,192,26530,1,0,0:0:0:0:
192,192,26580,1,0,0:0:0:0:
448,192,26630,1,0,0:0:0:0:
320,192,26630,1,0,0:0:0:0:
192,192,26680,1,0,0:0:0:0:
448,192,26730,1,0,0:0:0:0:
64,192,26730,1,0,0:0:0:0:
192,192,26772,1,0,0:0:0:0:
320,192,26810,1,0,0:0:0:0:
448,192,26852,1,0,0:0:0:0:
64,192,26890,1,0,0:0:0:0:
320,192,26933,1,0,0:0:0:0:
192,192,26982,1,0,0:0:0:0:
448,192,27032,1,0,0:0:0:0:
320,192,27032,1,0,0:0:0:0:
192,192,27081,1,0,0:0:0:0:
320,192,27130,1,0,0:0:0:0:
64,192,27130,1,0,0:0:0:0:
448,192,27171,1,0,0:0:0:0:
192,192,27208,1,0,0:0:0:0:
64,192,27250,1,0,0:0:0:0:
448,192,27287,1,0,0:0:0:0:
320,192,27329,1,0,0:0:0:0:
192,192,27376,1,0,0:0:0:0:
448,192,27423,1,0,0:0:0:0:
320,192,27423,1,0,0:0:0:0:
192,192,27470,1,0,0:0:0:0:
320,192,27522,1,0,0:0:0:0:
64,192,27522,1,0,0:0:0:0:
448,192,27571,1,0,0:0:0:0:
192,192,27624,1,0,0:0:0:0:
64,192,27677,1,0,0:0:0:0:
320,192,27733,1,0,0:0:0:0:
192,192,27777,1,0,0:0:0:0:
448,192,27824,1,0,0:0:0:0:
320,192,27824,1,0,0:0:0:0:
192,192,27871,1,0,0:0:0:0:
320,192,27918,1,0,0:0:0:0:
64,192,27918,1,0,0:0:0:0:
192,192,27962,1,0,0:0:0:0:
448,192,28001,1,0,0:0:0:0:
64,192,28045,1,0,0:0:0:0:
192,192,28084,1,0,0:0:0:0:
320,192,28127,1,0,0:0:0:0:
192,192,28175,1,0,0:0:0:0:
448,192,28223,1,0,0:0:0:0:
320,192,28223,1,0,0:0:0:0:
192,192,28271,1,0,0:0:0:0:
320,192,28318,1,0,0:0:0:0:
64,192,28318,1,0,0:0:0:0:
448,192,28368,1,0,0:0:0:0:
192,192,28418,1,0,0:0:0:0:
64,192,28467,1,0,0:0:0:0:
320,192,28517,1,0,0:0:0:0:
192,192,28565,1,0,0:0:0:0:
448,192,28613,1,0,0:0:0:0:
320,192,28613,1,0,0:0:0:0:
192,192,28660,1,0,0:0:0:0:
448,192,28708,1,0,0:0:0:0:
64,192,28708,1,0,0:0:0:0:
320,192,28747,1,0,0:0:0:0:
448,192,28782,1,0,0:0:0:0:
64,192,28821,1,0,0:0:0:0:
192,192,28856,1,0,0:0:0:0:
320,192,28895,1,0,0:0:0:0:
192,192,28935,1,0,0:0:0:0:
320,192,28971,1,0,0:0:0:0:
448,192,29011,1,0,0:0:0:0:
64,192,29047,1,0,0:0:0:0:
192,192,29088,1,0,0:0:0:0:
320,192,29131,1,0,0:0:0:0:
192,192,29170,1,0,0:0:0:0:
448,192,29214,1,0,0:0:0:0:
64,192,29253,1,0,0:0:0:0:
320,192,29297,1,0,0:0:0:0:
192,192,29345,1,0,0:0:0:0:
448,192,29392,1,0,0:0:0:0:
320,192,29392,1,0,0:0:0:0:
192,192,29439,1,0,0:0:0:0:
448,192,29486,1,0,0:0:0:0:
64,192,29486,1,0,0:0:0:0:
320,192,29528,1,0,0:0:0:0:
448,192,29566,1,0,0:0:0:0:
192,192,29609,1,0,0:0:0:0:
64,192,29647,1,0,0:0:0:0:
448,192,29690,1,0,0:0:0:0:
320,192,29730,1,0,0:0:0:0:
192,192,29768,1,0,0:0:0:0:
320,192,29810,1,0,0:0:0:0:
192,192,29847,1,0,0:0:0:0:
64,192,29889,1,0,0:0:0:0:
448,192,29930,1,0,0:0:0:0:
192,192,29966,1,0,0:0:0:0:
448,192,30007,1,0,0:0:0:0:
64,192,30044,1,0,0:0:0:0:
320,192,30085,1,0,0:0:0:0:
192,192,30134,1,0,0:0:0:0:
448,192,30182,1,0,0:0:0:0:
320,192,30182,1,0,0:0:0:0:
192,192,30230,1,0,0:0:0:0:
448,192,30278,1,0,0:0:0:0:
64,192,30278,128,0,30679:0:0:0:0:
320,192,30330,1,0,0:0:0:0:
192,192,30380,1,0,0:0:0:0:
448,192,30431,1,0,0:0:0:0:
320,192,30482,1,0,0:0:0:0:
192,192,30531,1,0,0:0:0:0:
448,192,30580,1,0,0:0:0:0:
320,192,30580,1,0,0:0:0:0:
192,192,30630,1,0,0:0:0:0:
448,192,30679,128,0,31081:0:0:0:0:
64,192,30730,1,0,0:0:0:0:
192,192,30782,1,0,0:0:0:0:
320,192,30832,1,0,0:0:0:0:
64,192,30884,1,0,0:0:0:0:
192,192,30933,1,0,0:0:0:0:
64,192,30982,1,0,0:0:0:0:
192,192,31032,1,0,0:0:0:0:
320,192,31081,128,0,31460:0:0:0:0:
448,192,31130,1,0,0:0:0:0:
192,192,31180,1,0,0:0:0:0:
64,192,31180,1,0,0:0:0:0:
448,192,31229,1,0,0:0:0:0:
64,192,31278,1,0,0:0:0:0:
192,192,31324,1,0,0:0:0:0:
64,192,31369,1,0,0:0:0:0:
448,192,31415,1,0,0:0:0:0:
192,192,31460,128,0,31510:0:0:0:0:
320,192,31510,1,0,0:0:0:0:
192,192,31560,1,0,0:0:0:0:
64,192,31560,1,0,0:0:0:0:
448,192,31610,1,0,0:0:0:0:
320,192,31610,1,0,0:0:0:0:
192,192,31660,1,0,0:0:0:0:
64,192,31660,1,0,0:0:0:0:
448,192,31709,1,0,0:0:0:0:
320,192,31709,1,0,0:0:0:0:
192,192,31758,1,0,0:0:0:0:
64,192,31758,1,0,0:0:0:0:
320,192,31807,1,0,0:0:0:0:
448,192,31857,1,0,0:0:0:0:
192,192,31857,1,0,0:0:0:0:
64,192,31955,1,0,0:0:0:0:
320,192,32054,1,0,0:0:0:0:
448,192,32150,1,0,0:0:0:0:
192,192,32245,1,0,0:0:0:0:
64,192,32339,1,0,0:0:0:0:
320,192,32432,1,0,0:0:0:0:
448,192,32524,1,0,0:0:0:0:
192,192,32615,1,0,0:0:0:0:
64,192,32716,1,0,0:0:0:0:
320,192,32817,1,0,0:0:0:0:
448,192,32920,1,0,0:0:0:0:
192,192,33022,1,0,0:0:0:0:
64,192,33122,1,0,0:0:0:0:
320,192,33222,1,0,0:0:0:0:
448,192,33324,1,0,0:0:0:0:
448,192,33427,1,0,0:0:0:0:
192,192,33427,1,0,0:0:0:0:
64,192,33427,1,0,0:0:0:0:
448,192,33846,1,0,0:0:0:0:
192,192,33846,1,0,0:0:0:0:
64,192,33846,1,0,0:0:0:0:
448,192,34264,128,0,34330:0:0:0:0:
320,192,34264,128,0,34330:0:0:0:0:
64,192,34264,128,0,34330:0:0:0:0:
448,192,34397,128,0,34463:0:0:0:0:
320,192,34397,128,0,34463:0:0:0:0:
64,192,34397,128,0,34463:0:0:0:0:
448,192,34524,128,0,34585:0:0:0:0:
320,192,34524,128,0,34585:0:0:0:0:
64,192,34524,128,0,34585:0:0:0:0:
448,192,34646,128,0,34710:0:0:0:0:
320,192,34646,128,0,34710:0:0:0:0:
192,192,34646,128,0,34710:0:0:0:0:
64,192,34694,1,0,0:0:0:0:
448,192,34814,128,0,35039:0:0:0:0:
64,192,35039,1,0,0:0:0:0:
192,192,35072,1,0,0:0:0:0:
320,192,35106,1,0,0:0:0:0:
448,192,35140,1,0,0:0:0:0:
64,192,35140,1,0,0:0:0:0:
192,192,35173,1,0,0:0:0:0:
320,192,35207,1,0,0:0:0:0:
64,192,35240,1,0,0:0:0:0:
192,192,35287,1,0,0:0:0:0:
448,192,35335,1,0,0:0:0:0:
320,192,35335,1,0,0:0:0:0:
64,192,35382,1,0,0:0:0:0:
192,192,35429,1,0,0:0:0:0:
320,192,35462,1,0,0:0:0:0:
64,192,35495,1,0,0:0:0:0:
448,192,35529,1,0,0:0:0:0:
192,192,35529,1,0,0:0:0:0:
320,192,35562,1,0,0:0:0:0:
64,192,35595,1,0,0:0:0:0:
448,192,35629,1,0,0:0:0:0:
320,192,35675,1,0,0:0:0:0:
192,192,35722,1,0,0:0:0:0:
64,192,35722,1,0,0:0:0:0:
448,192,35769,1,0,0:0:0:0:
64,192,35815,1,0,0:0:0:0:
192,192,35856,1,0,0:0:0:0:
448,192,35892,1,0,0:0:0:0:
320,192,35933,1,0,0:0:0:0:
64,192,35933,1,0,0:0:0:0:
192,192,35970,1,0,0:0:0:0:
448,192,36010,1,0,0:0:0:0:
320,192,36061,1,0,0:0:0:0:
192,192,36112,1,0,0:0:0:0:
64,192,36112,1,0,0:0:0:0:
320,192,36163,1,0,0:0:0:0:
448,192,36214,1,0,0:0:0:0:
64,192,36247,1,0,0:0:0:0:
320,192,36281,1,0,0:0:0:0:
448,192,36315,1,0,0:0:0:0:
192,192,36315,1,0,0:0:0:0:
64,192,36348,1,0,0:0:0:0:
320,192,36382,1,0,0:0:0:0:
192,192,36415,1,0,0:0:0:0:
64,192,36463,1,0,0:0:0:0:
448,192,36512,1,0,0:0:0:0:
320,192,36512,1,0,0:0:0:0:
192,192,36560,1,0,0:0:0:0:
448,192,36608,1,0,0:0:0:0:
320,192,36641,1,0,0:0:0:0:
192,192,36674,1,0,0:0:0:0:
448,192,36707,1,0,0:0:0:0:
64,192,36707,1,0,0:0:0:0:
320,192,36740,1,0,0:0:0:0:
192,192,36772,1,0,0:0:0:0:
64,192,36805,1,0,0:0:0:0:
320,192,36854,1,0,0:0:0:0:
192,192,36902,1,0,0:0:0:0:
64,192,36902,1,0,0:0:0:0:
448,192,36940,1,0,0:0:0:0:
320,192,36976,1,0,0:0:0:0:
64,192,37013,1,0,0:0:0:0:
192,192,37052,1,0,0:0:0:0:
320,192,37090,1,0,0:0:0:0:
448,192,37129,1,0,0:0:0:0:
64,192,37129,1,0,0:0:0:0:
192,192,37167,1,0,0:0:0:0:
64,192,37206,1,0,0:0:0:0:
448,192,37242,1,0,0:0:0:0:
320,192,37277,1,0,0:0:0:0:
192,192,37313,1,0,0:0:0:0:
64,192,37313,1,0,0:0:0:0:
448,192,37349,1,0,0:0:0:0:
320,192,37385,1,0,0:0:0:0:
192,192,37422,1,0,0:0:0:0:
448,192,37461,1,0,0:0:0:0:
320,192,37500,1,0,0:0:0:0:
64,192,37500,1,0,0:0:0:0:
192,192,37538,1,0,0:0:0:0:
448,192,37577,1,0,0:0:0:0:
64,192,37602,1,0,0:0:0:0:
192,192,37651,1,0,0:0:0:0:
448,192,37700,1,0,0:0:0:0:
320,192,37700,1,0,0:0:0:0:
64,192,37750,1,0,0:0:0:0:
192,192,37799,1,0,0:0:0:0:
320,192,37851,1,0,0:0:0:0:
448,192,37903,1,0,0:0:0:0:
64,192,37903,1,0,0:0:0:0:
192,192,37955,1,0,0:0:0:0:
448,192,38007,1,0,0:0:0:0:
320,192,38054,1,0,0:0:0:0:
192,192,38101,1,0,0:0:0:0:
64,192,38101,1,0,0:0:0:0:
448,192,38148,1,0,0:0:0:0:
64,192,38195,1,0,0:0:0:0:
320,192,38227,1,0,0:0:0:0:
192,192,38260,1,0,0:0:0:0:
448,192,38292,1,0,0:0:0:0:
64,192,38292,1,0,0:0:0:0:
320,192,38325,1,0,0:0:0:0:
192,192,38357,1,0,0:0:0:0:
448,192,38389,1,0,0:0:0:0:
320,192,38437,1,0,0:0:0:0:
192,192,38485,1,0,0:0:0:0:
64,192,38485,1,0,0:0:0:0:
448,192,38533,1,0,0:0:0:0:
64,192,38582,1,0,0:0:0:0:
192,192,38615,1,0,0:0:0:0:
320,192,38650,1,0,0:0:0:0:
448,192,38683,1,0,0:0:0:0:
64,192,38683,1,0,0:0:0:0:
192,192,38717,1,0,0:0:0:0:
320,192,38751,1,0,0:0:0:0:
448,192,38785,1,0,0:0:0:0:
64,192,38830,1,0,0:0:0:0:
320,192,38876,1,0,0:0:0:0:
192,192,38876,1,0,0:0:0:0:
64,192,38922,1,0,0:0:0:0:
448,192,38967,1,0,0:0:0:0:
192,192,39003,1,0,0:0:0:0:
320,192,39039,1,0,0:0:0:0:
448,192,39075,1,0,0:0:0:0:
64,192,39075,1,0,0:0:0:0:
192,192,39110,1,0,0:0:0:0:
320,192,39145,1,0,0:0:0:0:
64,192,39181,1,0,0:0:0:0:
192,192,39230,1,0,0:0:0:0:
448,192,39280,1,0,0:0:0:0:
320,192,39280,1,0,0:0:0:0:
64,192,39329,1,0,0:0:0:0:
448,192,39378,1,0,0:0:0:0:
320,192,39412,1,0,0:0:0:0:
192,192,39446,1,0,0:0:0:0:
448,192,39480,1,0,0:0:0:0:
64,192,39480,1,0,0:0:0:0:
320,192,39514,1,0,0:0:0:0:
192,192,39548,1,0,0:0:0:0:
64,192,39582,1,0,0:0:0:0:
448,192,39631,1,0,0:0:0:0:
320,192,39680,1,0,0:0:0:0:
192,192,39680,1,0,0:0:0:0:
448,192,39730,1,0,0:0:0:0:
64,192,39779,1,0,0:0:0:0:
320,192,39813,1,0,0:0:0:0:
192,192,39847,1,0,0:0:0:0:
448,192,39882,1,0,0:0:0:0:
64,192,39882,1,0,0:0:0:0:
320,192,39916,1,0,0:0:0:0:
192,192,39950,1,0,0:0:0:0:
448,192,39985,1,0,0:0:0:0:
320,192,40032,1,0,0:0:0:0:
192,192,40080,1,0,0:0:0:0:
64,192,40080,1,0,0:0:0:0:
320,192,40115,1,0,0:0:0:0:
448,192,40151,1,0,0:0:0:0:
192,192,40188,1,0,0:0:0:0:
320,192,40226,1,0,0:0:0:0:
64,192,40264,1,0,0:0:0:0:
448,192,40302,1,0,0:0:0:0:
192,192,40302,1,0,0:0:0:0:
320,192,40340,1,0,0:0:0:0:
64,192,40379,1,0,0:0:0:0:
448,192,40415,1,0,0:0:0:0:
320,192,40450,1,0,0:0:0:0:
192,192,40486,1,0,0:0:0:0:
64,192,40486,1,0,0:0:0:0:
448,192,40522,1,0,0:0:0:0:
320,192,40557,1,0,0:0:0:0:
192,192,40594,1,0,0:0:0:0:
64,192,40631,1,0,0:0:0:0:
448,192,40668,1,0,0:0:0:0:
320,192,40668,1,0,0:0:0:0:
192,192,40717,1,0,0:0:0:0:
64,192,40717,1,0,0:0:0:0:
448,192,40767,1,0,0:0:0:0:
320,192,40767,1,0,0:0:0:0:
192,192,40812,1,0,0:0:0:0:
64,192,40812,1,0,0:0:0:0:
448,192,40859,1,0,0:0:0:0:
320,192,40859,1,0,0:0:0:0:
192,192,40905,1,0,0:0:0:0:
64,192,40905,1,0,0:0:0:0:
448,192,40951,1,0,0:0:0:0:
320,192,40951,1,0,0:0:0:0:
192,192,40998,1,0,0:0:0:0:
64,192,41045,1,0,0:0:0:0:
192,192,41092,1,0,0:0:0:0:
448,192,41138,1,0,0:0:0:0:
320,192,41138,1,0,0:0:0:0:
64,192,41188,1,0,0:0:0:0:
192,192,41239,1,0,0:0:0:0:
448,192,41289,1,0,0:0:0:0:
64,192,41340,1,0,0:0:0:0:
192,192,41371,1,0,0:0:0:0:
320,192,41403,1,0,0:0:0:0:
448,192,41435,1,0,0:0:0:0:
64,192,41435,1,0,0:0:0:0:
192,192,41467,1,0,0:0:0:0:
320,192,41498,1,0,0:0:0:0:
448,192,41530,1,0,0:0:0:0:
192,192,41579,1,0,0:0:0:0:
320,192,41627,1,0,0:0:0:0:
64,192,41627,1,0,0:0:0:0:
192,192,41675,1,0,0:0:0:0:
448,192,41723,1,0,0:0:0:0:
64,192,41758,1,0,0:0:0:0:
320,192,41792,1,0,0:0:0:0:
448,192,41827,1,0,0:0:0:0:
192,192,41827,1,0,0:0:0:0:
64,192,41862,1,0,0:0:0:0:
320,192,41896,1,0,0:0:0:0:
192,192,41931,1,0,0:0:0:0:
64,192,41979,1,0,0:0:0:0:
448,192,42027,1,0,0:0:0:0:
320,192,42027,1,0,0:0:0:0:
192,192,42075,1,0,0:0:0:0:
320,192,42124,1,0,0:0:0:0:
64,192,42166,1,0,0:0:0:0:
448,192,42204,1,0,0:0:0:0:
320,192,42246,1,0,0:0:0:0:
192,192,42246,1,0,0:0:0:0:
64,192,42285,1,0,0:0:0:0:
448,192,42327,1,0,0:0:0:0:
320,192,42377,1,0,0:0:0:0:
192,192,42427,1,0,0:0:0:0:
64,192,42427,1,0,0:0:0:0:
448,192,42477,1,0,0:0:0:0:
320,192,42526,1,0,0:0:0:0:
192,192,42559,1,0,0:0:0:0:
448,192,42592,1,0,0:0:0:0:
320,192,42625,1,0,0:0:0:0:
64,192,42625,1,0,0:0:0:0:
192,192,42657,1,0,0:0:0:0:
448,192,42690,1,0,0:0:0:0:
64,192,42723,1,0,0:0:0:0:
192,192,42772,1,0,0:0:0:0:
448,192,42820,1,0,0:0:0:0:
320,192,42820,1,0,0:0:0:0:
64,192,42868,1,0,0:0:0:0:
448,192,42917,1,0,0:0:0:0:
192,192,42950,1,0,0:0:0:0:
320,192,42984,1,0,0:0:0:0:
448,192,43018,1,0,0:0:0:0:
64,192,43018,1,0,0:0:0:0:
192,192,43052,1,0,0:0:0:0:
320,192,43086,1,0,0:0:0:0:
64,192,43120,1,0,0:0:0:0:
192,192,43167,1,0,0:0:0:0:
448,192,43215,1,0,0:0:0:0:
320,192,43215,1,0,0:0:0:0:
64,192,43251,1,0,0:0:0:0:
192,192,43287,1,0,0:0:0:0:
448,192,43324,1,0,0:0:0:0:
320,192,43363,1,0,0:0:0:0:
192,192,43402,1,0,0:0:0:0:
448,192,43442,1,0,0:0:0:0:
64,192,43442,1,0,0:0:0:0:
320,192,43481,1,0,0:0:0:0:
448,192,43520,1,0,0:0:0:0:
192,192,43557,1,0,0:0:0:0:
64,192,43592,1,0,0:0:0:0:
448,192,43629,1,0,0:0:0:0:
320,192,43629,1,0,0:0:0:0:
192,192,43665,1,0,0:0:0:0:
64,192,43701,1,0,0:0:0:0:
320,192,43738,1,0,0:0:0:0:
192,192,43775,1,0,0:0:0:0:
448,192,43813,1,0,0:0:0:0:
64,192,43813,1,0,0:0:0:0:
320,192,43850,1,0,0:0:0:0:
192,192,43887,1,0,0:0:0:0:
448,192,43912,1,0,0:0:0:0:
64,192,43949,1,0,0:0:0:0:
192,192,43985,1,0,0:0:0:0:
448,192,44009,1,0,0:0:0:0:
320,192,44009,1,0,0:0:0:0:
64,192,44057,1,0,0:0:0:0:
192,192,44105,1,0,0:0:0:0:
320,192,44155,1,0,0:0:0:0:
448,192,44204,1,0,0:0:0:0:
64,192,44204,1,0,0:0:0:0:
192,192,44253,1,0,0:0:0:0:
320,192,44302,1,0,0:0:0:0:
448,192,44349,1,0,0:0:0:0:
192,192,44395,1,0,0:0:0:0:
64,192,44395,1,0,0:0:0:0:
448,192,44441,1,0,0:0:0:0:
64,192,44487,1,0,0:0:0:0:
192,192,44520,1,0,0:0:0:0:
320,192,44552,1,0,0:0:0:0:
448,192,44584,1,0,0:0:0:0:
64,192,44584,1,0,0:0:0:0:
192,192,44616,1,0,0:0:0:0:
320,192,44648,1,0,0:0:0:0:
64,192,44680,1,0,0:0:0:0:
192,192,44731,1,0,0:0:0:0:
448,192,44782,1,0,0:0:0:0:
320,192,44782,1,0,0:0:0:0:
64,192,44833,1,0,0:0:0:0:
192,192,44884,1,0,0:0:0:0:
320,192,44916,1,0,0:0:0:0:
64,192,44949,1,0,0:0:0:0:
448,192,44981,1,0,0:0:0:0:
192,192,44981,1,0,0:0:0:0:
320,192,45014,1,0,0:0:0:0:
64,192,45046,1,0,0:0:0:0:
448,192,45079,1,0,0:0:0:0:
192,192,45127,1,0,0:0:0:0:
320,192,45176,1,0,0:0:0:0:
64,192,45176,1,0,0:0:0:0:
192,192,45225,1,0,0:0:0:0:
448,192,45274,1,0,0:0:0:0:
320,192,45308,1,0,0:0:0:0:
64,192,45343,1,0,0:0:0:0:
448,192,45377,1,0,0:0:0:0:
192,192,45377,1,0,0:0:0:0:
320,192,45412,1,0,0:0:0:0:
64,192,45447,1,0,0:0:0:0:
448,192,45481,1,0,0:0:0:0:
192,192,45530,1,0,0:0:0:0:
320,192,45580,1,0,0:0:0:0:
64,192,45580,1,0,0:0:0:0:
192,192,45629,1,0,0:0:0:0:
448,192,45678,1,0,0:0:0:0:
320,192,45712,1,0,0:0:0:0:
192,192,45746,1,0,0:0:0:0:
448,192,45780,1,0,0:0:0:0:
64,192,45780,1,0,0:0:0:0:
320,192,45814,1,0,0:0:0:0:
192,192,45848,1,0,0:0:0:0:
448,192,45882,1,0,0:0:0:0:
320,192,45932,1,0,0:0:0:0:
192,192,45981,1,0,0:0:0:0:
64,192,45981,1,0,0:0:0:0:
448,192,46031,1,0,0:0:0:0:
64,192,46081,1,0,0:0:0:0:
320,192,46114,1,0,0:0:0:0:
192,192,46147,1,0,0:0:0:0:
448,192,46180,1,0,0:0:0:0:
64,192,46180,1,0,0:0:0:0:
320,192,46212,1,0,0:0:0:0:
192,192,46245,1,0,0:0:0:0:
448,192,46278,1,0,0:0:0:0:
320,192,46328,1,0,0:0:0:0:
192,192,46379,1,0,0:0:0:0:
64,192,46379,1,0,0:0:0:0:
320,192,46417,1,0,0:0:0:0:
448,192,46454,1,0,0:0:0:0:
64,192,46492,1,0,0:0:0:0:
192,192,46531,1,0,0:0:0:0:
448,192,46570,1,0,0:0:0:0:
320,192,46607,1,0,0:0:0:0:
64,192,46607,1,0,0:0:0:0:
192,192,46646,1,0,0:0:0:0:
448,192,46685,1,0,0:0:0:0:
64,192,46722,1,0,0:0:0:0:
192,192,46759,1,0,0:0:0:0:
448,192,46796,1,0,0:0:0:0:
320,192,46796,1,0,0:0:0:0:
192,192,46832,1,0,0:0:0:0:
64,192,46870,1,0,0:0:0:0:
448,192,46907,1,0,0:0:0:0:
192,192,46944,1,0,0:0:0:0:
320,192,46980,1,0,0:0:0:0:
64,192,46980,1,0,0:0:0:0:
448,192,47017,1,0,0:0:0:0:
192,192,47055,1,0,0:0:0:0:
320,192,47092,1,0,0:0:0:0:
64,192,47128,1,0,0:0:0:0:
448,192,47165,1,0,0:0:0:0:
192,192,47202,1,0,0:0:0:0:
64,192,47202,1,0,0:0:0:0:
320,192,47240,1,0,0:0:0:0:
448,192,47276,1,0,0:0:0:0:
192,192,47312,1,0,0:0:0:0:
64,192,47347,1,0,0:0:0:0:
320,192,47382,1,0,0:0:0:0:
448,192,47418,1,0,0:0:0:0:
192,192,47418,1,0,0:0:0:0:
64,192,47453,1,0,0:0:0:0:
320,192,47490,1,0,0:0:0:0:
192,192,47527,1,0,0:0:0:0:
448,192,47564,1,0,0:0:0:0:
320,192,47600,1,0,0:0:0:0:
192,192,47637,1,0,0:0:0:0:
448,192,47662,128,0,48254:0:0:0:0:
64,192,47662,1,0,0:0:0:0:
320,192,47761,1,0,0:0:0:0:
192,192,47860,1,0,0:0:0:0:
320,192,47909,1,0,0:0:0:0:
64,192,47958,1,0,0:0:0:0:
192,192,48007,1,0,0:0:0:0:
320,192,48057,1,0,0:0:0:0:
192,192,48155,1,0,0:0:0:0:
320,192,48254,1,0,0:0:0:0:
64,192,48254,1,0,0:0:0:0:
448,192,48353,1,0,0:0:0:0:
320,192,48402,1,0,0:0:0:0:
64,192,48452,128,0,48750:0:0:0:0:
192,192,48551,1,0,0:0:0:0:
320,192,48650,1,0,0:0:0:0:
192,192,48750,128,0,49047:0:0:0:0:
320,192,48849,1,0,0:0:0:0:
64,192,48898,1,0,0:0:0:0:
448,192,48948,1,0,0:0:0:0:
320,192,48997,1,0,0:0:0:0:
64,192,49047,128,0,49243:0:0:0:0:
448,192,49145,1,0,0:0:0:0:
448,192,49243,128,0,50024:0:0:0:0:
320,192,49243,128,0,49534:0:0:0:0:
64,192,49338,1,0,0:0:0:0:
64,192,49433,1,0,0:0:0:0:
192,192,49534,128,0,49830:0:0:0:0:
64,192,49635,1,0,0:0:0:0:
320,192,49732,1,0,0:0:0:0:
64,192,49830,128,0,50024:0:0:0:0:
192,192,49927,1,0,0:0:0:0:
320,192,50024,128,0,50317:0:0:0:0:
64,192,50072,1,0,0:0:0:0:
448,192,50122,1,0,0:0:0:0:
64,192,50171,1,0,0:0:0:0:
192,192,50220,1,0,0:0:0:0:
448,192,50317,128,0,50612:0:0:0:0:
192,192,50414,1,0,0:0:0:0:
320,192,50463,1,0,0:0:0:0:
192,192,50513,1,0,0:0:0:0:
64,192,50562,1,0,0:0:0:0:
320,192,50612,128,0,50815:0:0:0:0:
448,192,50713,1,0,0:0:0:0:
448,192,50815,1,0,0:0:0:0:
192,192,50815,1,0,0:0:0:0:
64,192,50815,1,0,0:0:0:0:
64,192,50915,1,0,0:0:0:0:
320,192,51017,1,0,0:0:0:0:
448,192,51113,1,0,0:0:0:0:
192,192,51209,1,0,0:0:0:0:
64,192,51308,1,0,0:0:0:0:
320,192,51407,1,0,0:0:0:0:
192,192,51457,1,0,0:0:0:0:
448,192,51506,1,0,0:0:0:0:
320,192,51556,1,0,0:0:0:0:
192,192,51605,1,0,0:0:0:0:
64,192,51708,1,0,0:0:0:0:
320,192,51812,1,0,0:0:0:0:
192,192,51860,1,0,0:0:0:0:
448,192,51909,1,0,0:0:0:0:
320,192,51957,1,0,0:0:0:0:
192,192,52006,1,0,0:0:0:0:
64,192,52107,1,0,0:0:0:0:
320,192,52208,1,0,0:0:0:0:
192,192,52257,1,0,0:0:0:0:
448,192,52306,1,0,0:0:0:0:
320,192,52355,1,0,0:0:0:0:
192,192,52405,1,0,0:0:0:0:
64,192,52503,1,0,0:0:0:0:
320,192,52602,1,0,0:0:0:0:
448,192,52705,1,0,0:0:0:0:
320,192,52756,1,0,0:0:0:0:
192,192,52807,1,0,0:0:0:0:
64,192,52906,1,0,0:0:0:0:
320,192,53005,1,0,0:0:0:0:
192,192,53055,1,0,0:0:0:0:
448,192,53105,1,0,0:0:0:0:
448,192,53205,128,0,53274:0:0:0:0:
320,192,53205,128,0,53274:0:0:0:0:
64,192,53205,128,0,53274:0:0:0:0:
448,192,53342,128,0,53410:0:0:0:0:
320,192,53342,128,0,53410:0:0:0:0:
64,192,53342,128,0,53410:0:0:0:0:
448,192,53476,128,0,53542:0:0:0:0:
320,192,53476,128,0,53542:0:0:0:0:
64,192,53476,128,0,53542:0:0:0:0:
320,192,53608,128,0,53674:0:0:0:0:
192,192,53608,128,0,53674:0:0:0:0:
64,192,53657,1,0,0:0:0:0:
320,192,53805,128,0,54002:0:0:0:0:
448,192,54002,1,0,0:0:0:0:
192,192,54051,1,0,0:0:0:0:
448,192,54099,1,0,0:0:0:0:
64,192,54099,1,0,0:0:0:0:
320,192,54147,1,0,0:0:0:0:
448,192,54195,1,0,0:0:0:0:
192,192,54240,1,0,0:0:0:0:
448,192,54287,1,0,0:0:0:0:
320,192,54287,1,0,0:0:0:0:
64,192,54332,1,0,0:0:0:0:
448,192,54378,1,0,0:0:0:0:
192,192,54428,1,0,0:0:0:0:
320,192,54477,1,0,0:0:0:0:
64,192,54477,1,0,0:0:0:0:
448,192,54527,1,0,0:0:0:0:
64,192,54577,1,0,0:0:0:0:
320,192,54626,1,0,0:0:0:0:
192,192,54676,1,0,0:0:0:0:
64,192,54676,1,0,0:0:0:0:
448,192,54725,1,0,0:0:0:0:
64,192,54775,1,0,0:0:0:0:
320,192,54826,1,0,0:0:0:0:
448,192,54877,1,0,0:0:0:0:
192,192,54877,1,0,0:0:0:0:
64,192,54915,1,0,0:0:0:0:
448,192,54980,1,0,0:0:0:0:
192,192,55028,1,0,0:0:0:0:
448,192,55076,1,0,0:0:0:0:
320,192,55076,1,0,0:0:0:0:
64,192,55125,1,0,0:0:0:0:
448,192,55173,1,0,0:0:0:0:
192,192,55226,1,0,0:0:0:0:
320,192,55279,1,0,0:0:0:0:
64,192,55279,1,0,0:0:0:0:
448,192,55332,1,0,0:0:0:0:
64,192,55384,1,0,0:0:0:0:
320,192,55434,1,0,0:0:0:0:
192,192,55485,1,0,0:0:0:0:
64,192,55485,1,0,0:0:0:0:
448,192,55535,1,0,0:0:0:0:
64,192,55585,1,0,0:0:0:0:
320,192,55633,1,0,0:0:0:0:
448,192,55682,1,0,0:0:0:0:
192,192,55682,1,0,0:0:0:0:
64,192,55730,1,0,0:0:0:0:
448,192,55778,1,0,0:0:0:0:
320,192,55827,1,0,0:0:0:0:
192,192,55875,1,0,0:0:0:0:
64,192,55875,1,0,0:0:0:0:
320,192,55924,1,0,0:0:0:0:
448,192,55972,1,0,0:0:0:0:
192,192,56027,1,0,0:0:0:0:
448,192,56081,1,0,0:0:0:0:
64,192,56081,1,0,0:0:0:0:
192,192,56135,1,0,0:0:0:0:
320,192,56190,1,0,0:0:0:0:
64,192,56237,1,0,0:0:0:0:
448,192,56285,1,0,0:0:0:0:
320,192,56285,1,0,0:0:0:0:
192,192,56332,1,0,0:0:0:0:
64,192,56380,1,0,0:0:0:0:
320,192,56432,1,0,0:0:0:0:
448,192,56486,1,0,0:0:0:0:
64,192,56486,1,0,0:0:0:0:
192,192,56539,1,0,0:0:0:0:
320,192,56592,1,0,0:0:0:0:
64,192,56639,1,0,0:0:0:0:
448,192,56685,1,0,0:0:0:0:
320,192,56685,1,0,0:0:0:0:
192,192,56732,1,0,0:0:0:0:
64,192,56778,1,0,0:0:0:0:
320,192,56830,1,0,0:0:0:0:
448,192,56881,1,0,0:0:0:0:
64,192,56881,1,0,0:0:0:0:
192,192,56932,1,0,0:0:0:0:
320,192,56985,1,0,0:0:0:0:
64,192,57032,1,0,0:0:0:0:
448,192,57080,1,0,0:0:0:0:
320,192,57080,1,0,0:0:0:0:
192,192,57127,1,0,0:0:0:0:
64,192,57175,1,0,0:0:0:0:
448,192,57220,1,0,0:0:0:0:
320,192,57265,1,0,0:0:0:0:
192,192,57265,1,0,0:0:0:0:
64,192,57300,1,0,0:0:0:0:
192,192,57333,1,0,0:0:0:0:
448,192,57356,1,0,0:0:0:0:
320,192,57407,1,0,0:0:0:0:
192,192,57458,1,0,0:0:0:0:
64,192,57458,1,0,0:0:0:0:
320,192,57510,1,0,0:0:0:0:
448,192,57560,1,0,0:0:0:0:
64,192,57610,1,0,0:0:0:0:
448,192,57660,1,0,0:0:0:0:
192,192,57660,1,0,0:0:0:0:
64,192,57709,1,0,0:0:0:0:
320,192,57759,1,0,0:0:0:0:
192,192,57792,1,0,0:0:0:0:
64,192,57825,1,0,0:0:0:0:
448,192,57857,1,0,0:0:0:0:
320,192,57857,1,0,0:0:0:0:
192,192,57907,1,0,0:0:0:0:
64,192,57957,1,0,0:0:0:0:
448,192,58010,1,0,0:0:0:0:
320,192,58062,1,0,0:0:0:0:
192,192,58062,1,0,0:0:0:0:
64,192,58102,1,0,0:0:0:0:
192,192,58141,1,0,0:0:0:0:
448,192,58167,1,0,0:0:0:0:
320,192,58215,1,0,0:0:0:0:
192,192,58262,1,0,0:0:0:0:
64,192,58262,1,0,0:0:0:0:
320,192,58310,1,0,0:0:0:0:
448,192,58357,1,0,0:0:0:0:
64,192,58410,1,0,0:0:0:0:
448,192,58463,1,0,0:0:0:0:
192,192,58463,1,0,0:0:0:0:
64,192,58515,1,0,0:0:0:0:
320,192,58568,1,0,0:0:0:0:
192,192,58603,1,0,0:0:0:0:
64,192,58638,1,0,0:0:0:0:
448,192,58674,1,0,0:0:0:0:
320,192,58674,1,0,0:0:0:0:
192,192,58726,1,0,0:0:0:0:
64,192,58779,1,0,0:0:0:0:
448,192,58826,1,0,0:0:0:0:
320,192,58872,1,0,0:0:0:0:
64,192,58872,1,0,0:0:0:0:
448,192,58920,1,0,0:0:0:0:
320,192,58967,1,0,0:0:0:0:
192,192,58998,1,0,0:0:0:0:
64,192,59030,1,0,0:0:0:0:
448,192,59061,1,0,0:0:0:0:
320,192,59061,1,0,0:0:0:0:
192,192,59107,1,0,0:0:0:0:
64,192,59155,1,0,0:0:0:0:
448,192,59206,1,0,0:0:0:0:
320,192,59257,1,0,0:0:0:0:
64,192,59257,1,0,0:0:0:0:
448,192,59308,1,0,0:0:0:0:
320,192,59359,1,0,0:0:0:0:
192,192,59392,1,0,0:0:0:0:
64,192,59427,1,0,0:0:0:0:
448,192,59460,1,0,0:0:0:0:
320,192,59460,1,0,0:0:0:0:
192,192,59511,1,0,0:0:0:0:
64,192,59562,1,0,0:0:0:0:
448,192,59610,1,0,0:0:0:0:
320,192,59657,1,0,0:0:0:0:
64,192,59657,1,0,0:0:0:0:
448,192,59705,1,0,0:0:0:0:
320,192,59753,1,0,0:0:0:0:
192,192,59785,1,0,0:0:0:0:
64,192,59817,1,0,0:0:0:0:
448,192,59850,1,0,0:0:0:0:
320,192,59850,1,0,0:0:0:0:
192,192,59897,1,0,0:0:0:0:
64,192,59945,1,0,0:0:0:0:
448,192,59994,1,0,0:0:0:0:
320,192,60042,1,0,0:0:0:0:
192,192,60042,1,0,0:0:0:0:
448,192,60091,1,0,0:0:0:0:
192,192,60140,1,0,0:0:0:0:
64,192,60140,1,0,0:0:0:0:
448,192,60187,1,0,0:0:0:0:
320,192,60187,1,0,0:0:0:0:
192,192,60233,1,0,0:0:0:0:
64,192,60233,1,0,0:0:0:0:
448,192,60280,1,0,0:0:0:0:
320,192,60280,1,0,0:0:0:0:
64,192,60327,1,0,0:0:0:0:
192,192,60377,1,0,0:0:0:0:
448,192,60425,1,0,0:0:0:0:
320,192,60425,1,0,0:0:0:0:
64,192,60462,1,0,0:0:0:0:
192,192,60524,1,0,0:0:0:0:
448,192,60570,1,0,0:0:0:0:
320,192,60617,1,0,0:0:0:0:
192,192,60617,1,0,0:0:0:0:
64,192,60665,1,0,0:0:0:0:
448,192,60711,1,0,0:0:0:0:
192,192,60764,1,0,0:0:0:0:
448,192,60816,1,0,0:0:0:0:
320,192,60816,1,0,0:0:0:0:
64,192,60868,1,0,0:0:0:0:
192,192,60920,1,0,0:0:0:0:
320,192,60969,1,0,0:0:0:0:
448,192,61017,1,0,0:0:0:0:
192,192,61017,1,0,0:0:0:0:
64,192,61065,1,0,0:0:0:0:
320,192,61114,1,0,0:0:0:0:
448,192,61167,1,0,0:0:0:0:
192,192,61220,1,0,0:0:0:0:
64,192,61220,1,0,0:0:0:0:
320,192,61256,1,0,0:0:0:0:
192,192,61292,1,0,0:0:0:0:
448,192,61327,1,0,0:0:0:0:
64,192,61374,1,0,0:0:0:0:
320,192,61421,1,0,0:0:0:0:
192,192,61421,1,0,0:0:0:0:
64,192,61467,1,0,0:0:0:0:
448,192,61515,1,0,0:0:0:0:
192,192,61565,1,0,0:0:0:0:
448,192,61616,1,0,0:0:0:0:
320,192,61616,1,0,0:0:0:0:
64,192,61667,1,0,0:0:0:0:
192,192,61717,1,0,0:0:0:0:
320,192,61767,1,0,0:0:0:0:
448,192,61815,1,0,0:0:0:0:
192,192,61815,1,0,0:0:0:0:
64,192,61864,1,0,0:0:0:0:
320,192,61913,1,0,0:0:0:0:
192,192,61965,1,0,0:0:0:0:
448,192,62016,1,0,0:0:0:0:
320,192,62016,1,0,0:0:0:0:
64,192,62050,1,0,0:0:0:0:
192,192,62085,1,0,0:0:0:0:
448,192,62119,1,0,0:0:0:0:
320,192,62166,1,0,0:0:0:0:
192,192,62213,1,0,0:0:0:0:
64,192,62213,1,0,0:0:0:0:
448,192,62260,1,0,0:0:0:0:
320,192,62307,1,0,0:0:0:0:
64,192,62342,1,0,0:0:0:0:
192,192,62376,1,0,0:0:0:0:
448,192,62410,1,0,0:0:0:0:
320,192,62410,1,0,0:0:0:0:
64,192,62462,1,0,0:0:0:0:
192,192,62513,1,0,0:0:0:0:
448,192,62545,1,0,0:0:0:0:
320,192,62610,1,0,0:0:0:0:
64,192,62610,1,0,0:0:0:0:
192,192,62658,1,0,0:0:0:0:
448,192,62706,1,0,0:0:0:0:
320,192,62745,1,0,0:0:0:0:
192,192,62785,1,0,0:0:0:0:
448,192,62824,1,0,0:0:0:0:
320,192,62824,1,0,0:0:0:0:
64,192,62863,1,0,0:0:0:0:
192,192,62902,1,0,0:0:0:0:
320,192,62940,1,0,0:0:0:0:
64,192,62976,1,0,0:0:0:0:
448,192,63012,1,0,0:0:0:0:
192,192,63012,1,0,0:0:0:0:
320,192,63049,1,0,0:0:0:0:
448,192,63085,1,0,0:0:0:0:
64,192,63109,128,0,63257:0:0:0:0:
192,192,63158,1,0,0:0:0:0:
448,192,63207,1,0,0:0:0:0:
320,192,63207,1,0,0:0:0:0:
192,192,63257,1,0,0:0:0:0:
64,192,63306,128,0,63454:0:0:0:0:
320,192,63355,1,0,0:0:0:0:
448,192,63405,1,0,0:0:0:0:
192,192,63405,1,0,0:0:0:0:
320,192,63454,1,0,0:0:0:0:
192,192,63504,1,0,0:0:0:0:
64,192,63550,1,0,0:0:0:0:
448,192,63597,1,0,0:0:0:0:
320,192,63597,1,0,0:0:0:0:
192,192,63644,1,0,0:0:0:0:
64,192,63690,1,0,0:0:0:0:
448,192,63741,1,0,0:0:0:0:
320,192,63791,1,0,0:0:0:0:
64,192,63791,1,0,0:0:0:0:
192,192,63842,1,0,0:0:0:0:
448,192,63892,1,0,0:0:0:0:
64,192,63942,1,0,0:0:0:0:
448,192,63994,1,0,0:0:0:0:
320,192,63994,1,0,0:0:0:0:
192,192,64045,1,0,0:0:0:0:
64,192,64095,1,0,0:0:0:0:
320,192,64128,1,0,0:0:0:0:
192,192,64160,1,0,0:0:0:0:
448,192,64193,1,0,0:0:0:0:
64,192,64193,1,0,0:0:0:0:
320,192,64242,1,0,0:0:0:0:
192,192,64290,1,0,0:0:0:0:
64,192,64342,1,0,0:0:0:0:
448,192,64393,1,0,0:0:0:0:
320,192,64393,1,0,0:0:0:0:
192,192,64432,1,0,0:0:0:0:
320,192,64470,1,0,0:0:0:0:
64,192,64496,1,0,0:0:0:0:
448,192,64546,1,0,0:0:0:0:
320,192,64596,1,0,0:0:0:0:
64,192,64596,1,0,0:0:0:0:
192,192,64645,1,0,0:0:0:0:
448,192,64695,1,0,0:0:0:0:
64,192,64747,1,0,0:0:0:0:
448,192,64799,1,0,0:0:0:0:
320,192,64799,1,0,0:0:0:0:
192,192,64851,1,0,0:0:0:0:
64,192,64903,1,0,0:0:0:0:
320,192,64935,1,0,0:0:0:0:
192,192,64967,1,0,0:0:0:0:
448,192,65000,1,0,0:0:0:0:
64,192,65000,1,0,0:0:0:0:
320,192,65048,1,0,0:0:0:0:
64,192,65096,1,0,0:0:0:0:
192,192,65149,1,0,0:0:0:0:
448,192,65202,1,0,0:0:0:0:
320,192,65202,1,0,0:0:0:0:
192,192,65255,1,0,0:0:0:0:
64,192,65308,1,0,0:0:0:0:
320,192,65341,1,0,0:0:0:0:
192,192,65374,1,0,0:0:0:0:
448,192,65407,1,0,0:0:0:0:
64,192,65407,1,0,0:0:0:0:
320,192,65456,1,0,0:0:0:0:
64,192,65505,1,0,0:0:0:0:
192,192,65557,1,0,0:0:0:0:
448,192,65610,1,0,0:0:0:0:
320,192,65610,1,0,0:0:0:0:
192,192,65662,1,0,0:0:0:0:
64,192,65715,1,0,0:0:0:0:
320,192,65747,1,0,0:0:0:0:
192,192,65780,1,0,0:0:0:0:
448,192,65813,1,0,0:0:0:0:
64,192,65813,1,0,0:0:0:0:
320,192,65863,1,0,0:0:0:0:
64,192,65912,1,0,0:0:0:0:
192,192,65962,1,0,0:0:0:0:
448,192,66011,1,0,0:0:0:0:
320,192,66011,1,0,0:0:0:0:
192,192,66060,1,0,0:0:0:0:
64,192,66110,1,0,0:0:0:0:
320,192,66142,1,0,0:0:0:0:
192,192,66176,1,0,0:0:0:0:
448,192,66209,1,0,0:0:0:0:
64,192,66209,1,0,0:0:0:0:
320,192,66259,1,0,0:0:0:0:
64,192,66309,1,0,0:0:0:0:
192,192,66359,1,0,0:0:0:0:
448,192,66410,1,0,0:0:0:0:
320,192,66410,1,0,0:0:0:0:
192,192,66460,1,0,0:0:0:0:
64,192,66460,1,0,0:0:0:0:
448,192,66510,1,0,0:0:0:0:
320,192,66510,1,0,0:0:0:0:
192,192,66562,1,0,0:0:0:0:
64,192,66562,1,0,0:0:0:0:
448,192,66613,1,0,0:0:0:0:
320,192,66613,1,0,0:0:0:0:
192,192,66665,1,0,0:0:0:0:
64,192,66665,1,0,0:0:0:0:
448,192,66716,128,0,67321:0:0:0:0:
64,192,66923,1,0,0:0:0:0:
64,192,67129,1,0,0:0:0:0:
320,192,67321,128,0,67520:0:0:0:0:
192,192,67520,128,0,67850:0:0:0:0:
448,192,67748,1,0,0:0:0:0:
64,192,67850,128,0,68166:0:0:0:0:
448,192,67951,1,0,0:0:0:0:
192,192,68166,128,0,68373:0:0:0:0:
448,192,68373,128,0,69197:0:0:0:0:
320,192,68373,128,0,68684:0:0:0:0:
64,192,68580,1,0,0:0:0:0:
192,192,68684,128,0,68995:0:0:0:0:
64,192,68787,1,0,0:0:0:0:
64,192,68995,128,0,69197:0:0:0:0:
320,192,69197,128,0,69502:0:0:0:0:
64,192,69400,1,0,0:0:0:0:
192,192,69502,128,0,69810:0:0:0:0:
64,192,69603,1,0,0:0:0:0:
320,192,69810,128,0,70005:0:0:0:0:
448,192,70005,1,0,0:0:0:0:
64,192,70005,1,0,0:0:0:0:
192,192,70052,1,0,0:0:0:0:
448,192,70100,1,0,0:0:0:0:
64,192,70147,1,0,0:0:0:0:
320,192,70195,1,0,0:0:0:0:
192,192,70195,1,0,0:0:0:0:
448,192,70247,1,0,0:0:0:0:
192,192,70299,1,0,0:0:0:0:
320,192,70350,1,0,0:0:0:0:
448,192,70402,1,0,0:0:0:0:
64,192,70402,1,0,0:0:0:0:
192,192,70454,1,0,0:0:0:0:
448,192,70505,1,0,0:0:0:0:
64,192,70557,1,0,0:0:0:0:
320,192,70608,1,0,0:0:0:0:
192,192,70608,1,0,0:0:0:0:
448,192,70661,1,0,0:0:0:0:
192,192,70713,1,0,0:0:0:0:
320,192,70765,1,0,0:0:0:0:
448,192,70818,1,0,0:0:0:0:
64,192,70818,1,0,0:0:0:0:
320,192,70868,1,0,0:0:0:0:
64,192,70919,1,0,0:0:0:0:
448,192,70969,1,0,0:0:0:0:
320,192,71020,1,0,0:0:0:0:
192,192,71020,1,0,0:0:0:0:
64,192,71070,1,0,0:0:0:0:
448,192,71120,1,0,0:0:0:0:
192,192,71170,1,0,0:0:0:0:
448,192,71221,1,0,0:0:0:0:
64,192,71221,1,0,0:0:0:0:
320,192,71272,1,0,0:0:0:0:
64,192,71325,1,0,0:0:0:0:
448,192,71377,1,0,0:0:0:0:
320,192,71428,1,0,0:0:0:0:
192,192,71428,1,0,0:0:0:0:
64,192,71480,1,0,0:0:0:0:
320,192,71532,1,0,0:0:0:0:
192,192,71584,1,0,0:0:0:0:
448,192,71636,1,0,0:0:0:0:
64,192,71636,1,0,0:0:0:0:
192,192,71689,1,0,0:0:0:0:
448,192,71741,1,0,0:0:0:0:
64,192,71794,1,0,0:0:0:0:
320,192,71846,1,0,0:0:0:0:
192,192,71846,1,0,0:0:0:0:
448,192,71897,1,0,0:0:0:0:
320,192,71947,1,0,0:0:0:0:
192,192,71998,1,0,0:0:0:0:
448,192,72049,1,0,0:0:0:0:
64,192,72049,1,0,0:0:0:0:
192,192,72100,1,0,0:0:0:0:
320,192,72152,1,0,0:0:0:0:
64,192,72203,1,0,0:0:0:0:
320,192,72255,1,0,0:0:0:0:
192,192,72255,1,0,0:0:0:0:
448,192,72306,1,0,0:0:0:0:
192,192,72357,1,0,0:0:0:0:
320,192,72409,1,0,0:0:0:0:
448,192,72460,1,0,0:0:0:0:
64,192,72460,1,0,0:0:0:0:
192,192,72512,1,0,0:0:0:0:
448,192,72563,1,0,0:0:0:0:
64,192,72615,1,0,0:0:0:0:
320,192,72666,1,0,0:0:0:0:
192,192,72666,1,0,0:0:0:0:
64,192,72719,1,0,0:0:0:0:
320,192,72772,1,0,0:0:0:0:
192,192,72825,1,0,0:0:0:0:
448,192,72877,1,0,0:0:0:0:
64,192,72877,1,0,0:0:0:0:
192,192,72927,1,0,0:0:0:0:
448,192,72977,1,0,0:0:0:0:
64,192,73027,1,0,0:0:0:0:
320,192,73077,1,0,0:0:0:0:
192,192,73077,1,0,0:0:0:0:
64,192,73129,1,0,0:0:0:0:
320,192,73181,1,0,0:0:0:0:
448,192,73233,1,0,0:0:0:0:
192,192,73285,128,0,74127:0:0:0:0:
64,192,73285,1,0,0:0:0:0:
64,192,73490,1,0,0:0:0:0:
64,192,73712,1,0,0:0:0:0:
64,192,73917,1,0,0:0:0:0:
320,192,74127,128,0,74440:0:0:0:0:
64,192,74334,1,0,0:0:0:0:
448,192,74440,128,0,74751:0:0:0:0:
64,192,74545,1,0,0:0:0:0:
64,192,74751,128,0,74957:0:0:0:0:
448,192,74957,128,0,75778:0:0:0:0:
320,192,74957,128,0,75267:0:0:0:0:
64,192,75167,1,0,0:0:0:0:
192,192,75267,128,0,75573:0:0:0:0:
64,192,75367,1,0,0:0:0:0:
64,192,75573,128,0,75778:0:0:0:0:
320,192,75778,128,0,76080:0:0:0:0:
64,192,75981,1,0,0:0:0:0:
192,192,76080,128,0,76382:0:0:0:0:
64,192,76180,1,0,0:0:0:0:
64,192,76382,128,0,76532:0:0:0:0:
448,192,76582,1,0,0:0:0:0:
64,192,76582,1,0,0:0:0:0:
192,192,76630,1,0,0:0:0:0:
448,192,76680,1,0,0:0:0:0:
64,192,76729,1,0,0:0:0:0:
320,192,76778,1,0,0:0:0:0:
192,192,76778,1,0,0:0:0:0:
448,192,76829,1,0,0:0:0:0:
192,192,76880,1,0,0:0:0:0:
320,192,76930,1,0,0:0:0:0:
448,192,76981,1,0,0:0:0:0:
64,192,76981,1,0,0:0:0:0:
192,192,77034,1,0,0:0:0:0:
448,192,77086,1,0,0:0:0:0:
64,192,77138,1,0,0:0:0:0:
320,192,77190,1,0,0:0:0:0:
192,192,77190,1,0,0:0:0:0:
448,192,77240,1,0,0:0:0:0:
192,192,77289,1,0,0:0:0:0:
320,192,77338,1,0,0:0:0:0:
448,192,77388,1,0,0:0:0:0:
64,192,77388,1,0,0:0:0:0:
320,192,77440,1,0,0:0:0:0:
64,192,77491,1,0,0:0:0:0:
448,192,77542,1,0,0:0:0:0:
320,192,77594,1,0,0:0:0:0:
192,192,77594,1,0,0:0:0:0:
64,192,77647,1,0,0:0:0:0:
320,192,77700,1,0,0:0:0:0:
192,192,77753,1,0,0:0:0:0:
448,192,77807,1,0,0:0:0:0:
64,192,77807,1,0,0:0:0:0:
320,192,77856,1,0,0:0:0:0:
64,192,77905,1,0,0:0:0:0:
448,192,77955,1,0,0:0:0:0:
320,192,78005,1,0,0:0:0:0:
192,192,78005,1,0,0:0:0:0:
64,192,78056,1,0,0:0:0:0:
320,192,78107,1,0,0:0:0:0:
192,192,78159,1,0,0:0:0:0:
448,192,78210,1,0,0:0:0:0:
64,192,78210,1,0,0:0:0:0:
192,192,78261,1,0,0:0:0:0:
448,192,78312,1,0,0:0:0:0:
64,192,78363,1,0,0:0:0:0:
320,192,78414,1,0,0:0:0:0:
192,192,78414,1,0,0:0:0:0:
448,192,78465,1,0,0:0:0:0:
320,192,78516,1,0,0:0:0:0:
192,192,78567,1,0,0:0:0:0:
448,192,78618,1,0,0:0:0:0:
64,192,78618,1,0,0:0:0:0:
192,192,78669,1,0,0:0:0:0:
448,192,78720,1,0,0:0:0:0:
64,192,78771,1,0,0:0:0:0:
320,192,78822,1,0,0:0:0:0:
192,192,78822,1,0,0:0:0:0:
448,192,78875,1,0,0:0:0:0:
320,192,78926,1,0,0:0:0:0:
192,192,78977,1,0,0:0:0:0:
448,192,79029,1,0,0:0:0:0:
64,192,79029,1,0,0:0:0:0:
192,192,79080,1,0,0:0:0:0:
448,192,79130,1,0,0:0:0:0:
64,192,79182,1,0,0:0:0:0:
320,192,79232,1,0,0:0:0:0:
192,192,79232,1,0,0:0:0:0:
64,192,79282,1,0,0:0:0:0:
320,192,79332,1,0,0:0:0:0:
192,192,79382,1,0,0:0:0:0:
448,192,79432,1,0,0:0:0:0:
320,192,79432,1,0,0:0:0:0:
192,192,79485,1,0,0:0:0:0:
64,192,79485,1,0,0:0:0:0:
448,192,79536,1,0,0:0:0:0:
320,192,79536,1,0,0:0:0:0:
192,192,79587,1,0,0:0:0:0:
64,192,79587,1,0,0:0:0:0:
448,192,79639,1,0,0:0:0:0:
320,192,79639,1,0,0:0:0:0:
192,192,79688,1,0,0:0:0:0:
64,192,79688,1,0,0:0:0:0:
448,192,79737,1,0,0:0:0:0:
320,192,79737,1,0,0:0:0:0:
64,192,79787,1,0,0:0:0:0:
448,192,79837,1,0,0:0:0:0:
320,192,79837,1,0,0:0:0:0:
192,192,79837,1,0,0:0:0:0:
64,192,79938,1,0,0:0:0:0:
320,192,79990,1,0,0:0:0:0:
448,192,80040,1,0,0:0:0:0:
448,192,80142,1,0,0:0:0:0:
64,192,80219,1,0,0:0:0:0:
320,192,80270,1,0,0:0:0:0:
448,192,80320,1,0,0:0:0:0:
448,192,80420,1,0,0:0:0:0:
64,192,80519,1,0,0:0:0:0:
320,192,80560,1,0,0:0:0:0:
192,192,80600,1,0,0:0:0:0:
64,192,80715,1,0,0:0:0:0:
320,192,80752,1,0,0:0:0:0:
192,192,80801,1,0,0:0:0:0:
192,192,80912,1,0,0:0:0:0:
64,192,81010,1,0,0:0:0:0:
320,192,81047,1,0,0:0:0:0:
192,192,81096,1,0,0:0:0:0:
192,192,81207,1,0,0:0:0:0:
64,192,81305,1,0,0:0:0:0:
320,192,81342,1,0,0:0:0:0:
448,192,81391,1,0,0:0:0:0:
64,192,81502,1,0,0:0:0:0:
320,192,81551,1,0,0:0:0:0:
448,192,81600,1,0,0:0:0:0:
448,192,81698,1,0,0:0:0:0:
64,192,81796,1,0,0:0:0:0:
320,192,81845,1,0,0:0:0:0:
448,192,81907,1,0,0:0:0:0:
448,192,82017,1,0,0:0:0:0:
64,192,82115,1,0,0:0:0:0:
320,192,82152,1,0,0:0:0:0:
192,192,82214,1,0,0:0:0:0:
64,192,82312,1,0,0:0:0:0:
320,192,82365,1,0,0:0:0:0:
192,192,82411,1,0,0:0:0:0:
192,192,82509,1,0,0:0:0:0:
64,192,82607,1,0,0:0:0:0:
320,192,82657,1,0,0:0:0:0:
192,192,82705,1,0,0:0:0:0:
192,192,82804,1,0,0:0:0:0:
64,192,82900,1,0,0:0:0:0:
448,192,82996,1,0,0:0:0:0:
320,192,82996,1,0,0:0:0:0:
192,192,83049,1,0,0:0:0:0:
64,192,83102,1,0,0:0:0:0:
320,192,83155,1,0,0:0:0:0:
448,192,83207,1,0,0:0:0:0:
192,192,83207,1,0,0:0:0:0:
64,192,83256,1,0,0:0:0:0:
320,192,83305,1,0,0:0:0:0:
64,192,83355,1,0,0:0:0:0:
448,192,83404,1,0,0:0:0:0:
320,192,83404,1,0,0:0:0:0:
192,192,83455,1,0,0:0:0:0:
64,192,83505,1,0,0:0:0:0:
320,192,83555,1,0,0:0:0:0:
448,192,83605,1,0,0:0:0:0:
192,192,83605,1,0,0:0:0:0:
64,192,83656,1,0,0:0:0:0:
320,192,83707,1,0,0:0:0:0:
64,192,83757,1,0,0:0:0:0:
448,192,83808,1,0,0:0:0:0:
320,192,83808,1,0,0:0:0:0:
192,192,83857,1,0,0:0:0:0:
64,192,83906,1,0,0:0:0:0:
320,192,83955,1,0,0:0:0:0:
448,192,84005,1,0,0:0:0:0:
192,192,84005,1,0,0:0:0:0:
64,192,84053,1,0,0:0:0:0:
320,192,84102,1,0,0:0:0:0:
64,192,84150,1,0,0:0:0:0:
448,192,84199,1,0,0:0:0:0:
320,192,84199,1,0,0:0:0:0:
192,192,84250,1,0,0:0:0:0:
64,192,84300,1,0,0:0:0:0:
320,192,84350,1,0,0:0:0:0:
448,192,84400,1,0,0:0:0:0:
192,192,84400,1,0,0:0:0:0:
64,192,84449,1,0,0:0:0:0:
320,192,84497,1,0,0:0:0:0:
64,192,84546,1,0,0:0:0:0:
448,192,84595,1,0,0:0:0:0:
320,192,84595,1,0,0:0:0:0:
192,192,84646,1,0,0:0:0:0:
64,192,84697,1,0,0:0:0:0:
320,192,84747,1,0,0:0:0:0:
448,192,84798,1,0,0:0:0:0:
192,192,84798,1,0,0:0:0:0:
64,192,84849,1,0,0:0:0:0:
320,192,84900,1,0,0:0:0:0:
64,192,84950,1,0,0:0:0:0:
448,192,85001,1,0,0:0:0:0:
320,192,85001,1,0,0:0:0:0:
192,192,85050,1,0,0:0:0:0:
64,192,85099,1,0,0:0:0:0:
320,192,85148,1,0,0:0:0:0:
448,192,85197,1,0,0:0:0:0:
192,192,85197,1,0,0:0:0:0:
64,192,85250,1,0,0:0:0:0:
320,192,85302,1,0,0:0:0:0:
64,192,85355,1,0,0:0:0:0:
448,192,85407,128,0,85472:0:0:0:0:
320,192,85407,128,0,85472:0:0:0:0:
192,192,85407,128,0,85472:0:0:0:0:
448,192,85537,128,0,85602:0:0:0:0:
320,192,85537,128,0,85602:0:0:0:0:
192,192,85537,128,0,85602:0:0:0:0:
448,192,85668,128,0,85735:0:0:0:0:
320,192,85668,128,0,85735:0:0:0:0:
192,192,85668,128,0,85735:0:0:0:0:
448,192,85802,128,0,85867:0:0:0:0:
320,192,85802,128,0,85867:0:0:0:0:
64,192,85802,128,0,85867:0:0:0:0:
192,192,85852,1,0,0:0:0:0:
448,192,85997,128,0,86175:0:0:0:0:
64,192,86175,1,0,0:0:0:0:
192,192,86206,1,0,0:0:0:0:
448,192,86237,1,0,0:0:0:0:
320,192,86267,1,0,0:0:0:0:
64,192,86267,1,0,0:0:0:0:
192,192,86297,1,0,0:0:0:0:
448,192,86327,1,0,0:0:0:0:
64,192,86358,1,0,0:0:0:0:
192,192,86410,1,0,0:0:0:0:
448,192,86462,1,0,0:0:0:0:
320,192,86462,1,0,0:0:0:0:
64,192,86515,1,0,0:0:0:0:
192,192,86567,1,0,0:0:0:0:
320,192,86600,1,0,0:0:0:0:
64,192,86634,1,0,0:0:0:0:
448,192,86667,1,0,0:0:0:0:
192,192,86667,1,0,0:0:0:0:
320,192,86700,1,0,0:0:0:0:
64,192,86734,1,0,0:0:0:0:
448,192,86767,1,0,0:0:0:0:
320,192,86818,1,0,0:0:0:0:
192,192,86870,1,0,0:0:0:0:
64,192,86870,1,0,0:0:0:0:
448,192,86921,1,0,0:0:0:0:
64,192,86972,1,0,0:0:0:0:
192,192,87014,1,0,0:0:0:0:
448,192,87051,1,0,0:0:0:0:
320,192,87092,1,0,0:0:0:0:
64,192,87092,1,0,0:0:0:0:
192,192,87130,1,0,0:0:0:0:
448,192,87172,1,0,0:0:0:0:
320,192,87222,1,0,0:0:0:0:
192,192,87272,1,0,0:0:0:0:
64,192,87272,1,0,0:0:0:0:
448,192,87322,1,0,0:0:0:0:
320,192,87372,1,0,0:0:0:0:
448,192,87405,1,0,0:0:0:0:
192,192,87439,1,0,0:0:0:0:
320,192,87473,1,0,0:0:0:0:
64,192,87473,1,0,0:0:0:0:
448,192,87507,1,0,0:0:0:0:
192,192,87541,1,0,0:0:0:0:
64,192,87575,1,0,0:0:0:0:
320,192,87625,1,0,0:0:0:0:
192,192,87675,1,0,0:0:0:0:
64,192,87675,1,0,0:0:0:0:
448,192,87726,1,0,0:0:0:0:
320,192,87776,1,0,0:0:0:0:
192,192,87810,1,0,0:0:0:0:
448,192,87845,1,0,0:0:0:0:
320,192,87879,1,0,0:0:0:0:
64,192,87879,1,0,0:0:0:0:
192,192,87913,1,0,0:0:0:0:
448,192,87947,1,0,0:0:0:0:
64,192,87982,1,0,0:0:0:0:
192,192,88032,1,0,0:0:0:0:
448,192,88082,1,0,0:0:0:0:
320,192,88082,1,0,0:0:0:0:
192,192,88120,1,0,0:0:0:0:
64,192,88157,1,0,0:0:0:0:
320,192,88195,1,0,0:0:0:0:
192,192,88234,1,0,0:0:0:0:
448,192,88272,1,0,0:0:0:0:
320,192,88310,1,0,0:0:0:0:
64,192,88310,1,0,0:0:0:0:
192,192,88348,1,0,0:0:0:0:
448,192,88386,1,0,0:0:0:0:
64,192,88424,1,0,0:0:0:0:
192,192,88461,1,0,0:0:0:0:
448,192,88498,1,0,0:0:0:0:
320,192,88498,1,0,0:0:0:0:
192,192,88536,1,0,0:0:0:0:
64,192,88573,1,0,0:0:0:0:
448,192,88612,1,0,0:0:0:0:
192,192,88650,1,0,0:0:0:0:
320,192,88690,1,0,0:0:0:0:
64,192,88690,1,0,0:0:0:0:
448,192,88728,1,0,0:0:0:0:
192,192,88767,1,0,0:0:0:0:
320,192,88806,1,0,0:0:0:0:
448,192,88845,1,0,0:0:0:0:
192,192,88896,1,0,0:0:0:0:
64,192,88896,1,0,0:0:0:0:
320,192,88947,1,0,0:0:0:0:
448,192,88999,1,0,0:0:0:0:
64,192,89049,1,0,0:0:0:0:
320,192,89099,1,0,0:0:0:0:
192,192,89099,1,0,0:0:0:0:
64,192,89149,1,0,0:0:0:0:
320,192,89199,1,0,0:0:0:0:
448,192,89247,1,0,0:0:0:0:
192,192,89295,1,0,0:0:0:0:
64,192,89295,1,0,0:0:0:0:
448,192,89343,1,0,0:0:0:0:
64,192,89392,1,0,0:0:0:0:
192,192,89425,1,0,0:0:0:0:
320,192,89460,1,0,0:0:0:0:
448,192,89494,1,0,0:0:0:0:
64,192,89494,1,0,0:0:0:0:
192,192,89528,1,0,0:0:0:0:
320,192,89562,1,0,0:0:0:0:
448,192,89597,1,0,0:0:0:0:
192,192,89646,1,0,0:0:0:0:
320,192,89695,1,0,0:0:0:0:
64,192,89695,1,0,0:0:0:0:
192,192,89743,1,0,0:0:0:0:
448,192,89792,1,0,0:0:0:0:
64,192,89825,1,0,0:0:0:0:
320,192,89859,1,0,0:0:0:0:
448,192,89892,1,0,0:0:0:0:
192,192,89892,1,0,0:0:0:0:
64,192,89925,1,0,0:0:0:0:
320,192,89958,1,0,0:0:0:0:
192,192,89992,1,0,0:0:0:0:
64,192,90042,1,0,0:0:0:0:
448,192,90093,1,0,0:0:0:0:
320,192,90093,1,0,0:0:0:0:
192,192,90144,1,0,0:0:0:0:
448,192,90195,1,0,0:0:0:0:
320,192,90228,1,0,0:0:0:0:
192,192,90262,1,0,0:0:0:0:
448,192,90295,1,0,0:0:0:0:
64,192,90295,1,0,0:0:0:0:
320,192,90329,1,0,0:0:0:0:
192,192,90362,1,0,0:0:0:0:
64,192,90396,1,0,0:0:0:0:
320,192,90445,1,0,0:0:0:0:
448,192,90493,1,0,0:0:0:0:
192,192,90493,1,0,0:0:0:0:
320,192,90541,1,0,0:0:0:0:
64,192,90590,1,0,0:0:0:0:
448,192,90623,1,0,0:0:0:0:
192,192,90657,1,0,0:0:0:0:
320,192,90692,1,0,0:0:0:0:
64,192,90692,1,0,0:0:0:0:
448,192,90726,1,0,0:0:0:0:
192,192,90760,1,0,0:0:0:0:
320,192,90795,1,0,0:0:0:0:
448,192,90846,1,0,0:0:0:0:
192,192,90897,1,0,0:0:0:0:
64,192,90897,1,0,0:0:0:0:
320,192,90947,1,0,0:0:0:0:
64,192,90998,1,0,0:0:0:0:
192,192,91032,1,0,0:0:0:0:
320,192,91065,1,0,0:0:0:0:
448,192,91099,1,0,0:0:0:0:
64,192,91099,1,0,0:0:0:0:
192,192,91132,1,0,0:0:0:0:
320,192,91166,1,0,0:0:0:0:
448,192,91200,1,0,0:0:0:0:
64,192,91250,1,0,0:0:0:0:
448,192,91300,1,0,0:0:0:0:
320,192,91300,1,0,0:0:0:0:
192,192,91337,1,0,0:0:0:0:
64,192,91375,1,0,0:0:0:0:
320,192,91412,1,0,0:0:0:0:
192,192,91448,1,0,0:0:0:0:
448,192,91485,1,0,0:0:0:0:
320,192,91521,1,0,0:0:0:0:
64,192,91521,1,0,0:0:0:0:
192,192,91558,1,0,0:0:0:0:
448,192,91595,1,0,0:0:0:0:
64,192,91632,1,0,0:0:0:0:
192,192,91669,1,0,0:0:0:0:
448,192,91706,1,0,0:0:0:0:
320,192,91706,1,0,0:0:0:0:
64,192,91744,1,0,0:0:0:0:
192,192,91781,1,0,0:0:0:0:
320,192,91818,1,0,0:0:0:0:
448,192,91855,1,0,0:0:0:0:
192,192,91892,1,0,0:0:0:0:
64,192,91892,1,0,0:0:0:0:
448,192,91991,1,0,0:0:0:0:
320,192,91991,1,0,0:0:0:0:
192,192,92037,1,0,0:0:0:0:
64,192,92037,1,0,0:0:0:0:
448,192,92082,1,0,0:0:0:0:
320,192,92082,1,0,0:0:0:0:
192,192,92127,1,0,0:0:0:0:
64,192,92127,1,0,0:0:0:0:
320,192,92172,1,0,0:0:0:0:
448,192,92272,1,0,0:0:0:0:
64,192,92272,1,0,0:0:0:0:
448,192,92373,128,0,92573:0:0:0:0:
320,192,92373,128,0,92573:0:0:0:0:
192,192,92373,1,0,0:0:0:0:
64,192,92573,1,0,0:0:0:0:
192,192,92602,1,0,0:0:0:0:
320,192,92631,1,0,0:0:0:0:
448,192,92660,1,0,0:0:0:0:
64,192,92660,1,0,0:0:0:0:
192,192,92689,1,0,0:0:0:0:
320,192,92718,1,0,0:0:0:0:
448,192,92747,1,0,0:0:0:0:
192,192,92797,1,0,0:0:0:0:
320,192,92847,1,0,0:0:0:0:
64,192,92847,1,0,0:0:0:0:
192,192,92897,1,0,0:0:0:0:
448,192,92947,1,0,0:0:0:0:
320,192,92980,1,0,0:0:0:0:
192,192,93013,1,0,0:0:0:0:
448,192,93046,1,0,0:0:0:0:
64,192,93046,1,0,0:0:0:0:
320,192,93080,1,0,0:0:0:0:
192,192,93112,1,0,0:0:0:0:
448,192,93146,1,0,0:0:0:0:
320,192,93195,1,0,0:0:0:0:
192,192,93245,1,0,0:0:0:0:
64,192,93245,1,0,0:0:0:0:
448,192,93295,1,0,0:0:0:0:
320,192,93345,1,0,0:0:0:0:
192,192,93379,1,0,0:0:0:0:
448,192,93412,1,0,0:0:0:0:
320,192,93447,1,0,0:0:0:0:
64,192,93447,1,0,0:0:0:0:
192,192,93480,1,0,0:0:0:0:
448,192,93515,1,0,0:0:0:0:
64,192,93548,1,0,0:0:0:0:
320,192,93599,1,0,0:0:0:0:
192,192,93649,1,0,0:0:0:0:
64,192,93649,1,0,0:0:0:0:
448,192,93700,1,0,0:0:0:0:
320,192,93750,1,0,0:0:0:0:
448,192,93785,1,0,0:0:0:0:
192,192,93819,1,0,0:0:0:0:
320,192,93854,1,0,0:0:0:0:
64,192,93854,1,0,0:0:0:0:
448,192,93888,1,0,0:0:0:0:
192,192,93923,1,0,0:0:0:0:
64,192,93957,1,0,0:0:0:0:
320,192,94007,1,0,0:0:0:0:
448,192,94057,1,0,0:0:0:0:
192,192,94057,1,0,0:0:0:0:
320,192,94107,1,0,0:0:0:0:
64,192,94157,1,0,0:0:0:0:
448,192,94192,1,0,0:0:0:0:
192,192,94226,1,0,0:0:0:0:
320,192,94261,1,0,0:0:0:0:
64,192,94261,1,0,0:0:0:0:
448,192,94295,1,0,0:0:0:0:
192,192,94330,1,0,0:0:0:0:
320,192,94365,1,0,0:0:0:0:
448,192,94414,1,0,0:0:0:0:
192,192,94463,1,0,0:0:0:0:
64,192,94463,1,0,0:0:0:0:
320,192,94500,1,0,0:0:0:0:
448,192,94537,1,0,0:0:0:0:
64,192,94575,1,0,0:0:0:0:
320,192,94613,1,0,0:0:0:0:
192,192,94652,1,0,0:0:0:0:
448,192,94690,1,0,0:0:0:0:
64,192,94690,1,0,0:0:0:0:
320,192,94729,1,0,0:0:0:0:
448,192,94767,1,0,0:0:0:0:
192,192,94804,1,0,0:0:0:0:
64,192,94841,1,0,0:0:0:0:
448,192,94878,1,0,0:0:0:0:
320,192,94878,1,0,0:0:0:0:
192,192,94915,1,0,0:0:0:0:
64,192,94952,1,0,0:0:0:0:
320,192,94989,1,0,0:0:0:0:
192,192,95027,1,0,0:0:0:0:
448,192,95064,1,0,0:0:0:0:
64,192,95064,1,0,0:0:0:0:
320,192,95101,1,0,0:0:0:0:
192,192,95139,1,0,0:0:0:0:
448,192,95177,1,0,0:0:0:0:
320,192,95215,1,0,0:0:0:0:
192,192,95265,1,0,0:0:0:0:
64,192,95265,1,0,0:0:0:0:
448,192,95315,1,0,0:0:0:0:
320,192,95365,1,0,0:0:0:0:
64,192,95413,1,0,0:0:0:0:
448,192,95461,1,0,0:0:0:0:
192,192,95461,1,0,0:0:0:0:
64,192,95509,1,0,0:0:0:0:
320,192,95557,1,0,0:0:0:0:
448,192,95605,1,0,0:0:0:0:
192,192,95653,1,0,0:0:0:0:
64,192,95653,1,0,0:0:0:0:
448,192,95701,1,0,0:0:0:0:
64,192,95750,1,0,0:0:0:0:
192,192,95782,1,0,0:0:0:0:
320,192,95816,1,0,0:0:0:0:
448,192,95849,1,0,0:0:0:0:
64,192,95849,1,0,0:0:0:0:
192,192,95882,1,0,0:0:0:0:
320,192,95915,1,0,0:0:0:0:
64,192,95949,1,0,0:0:0:0:
192,192,95994,1,0,0:0:0:0:
448,192,96040,1,0,0:0:0:0:
320,192,96040,1,0,0:0:0:0:
64,192,96085,1,0,0:0:0:0:
192,192,96131,1,0,0:0:0:0:
320,192,96166,1,0,0:0:0:0:
64,192,96200,1,0,0:0:0:0:
448,192,96235,1,0,0:0:0:0:
192,192,96235,1,0,0:0:0:0:
320,192,96270,1,0,0:0:0:0:
64,192,96305,1,0,0:0:0:0:
448,192,96339,1,0,0:0:0:0:
192,192,96388,1,0,0:0:0:0:
320,192,96437,1,0,0:0:0:0:
64,192,96437,1,0,0:0:0:0:
192,192,96485,1,0,0:0:0:0:
448,192,96535,1,0,0:0:0:0:
320,192,96569,1,0,0:0:0:0:
192,192,96603,1,0,0:0:0:0:
448,192,96638,1,0,0:0:0:0:
64,192,96638,1,0,0:0:0:0:
320,192,96672,1,0,0:0:0:0:
192,192,96707,1,0,0:0:0:0:
448,192,96742,1,0,0:0:0:0:
320,192,96790,1,0,0:0:0:0:
192,192,96837,1,0,0:0:0:0:
64,192,96837,1,0,0:0:0:0:
448,192,96884,1,0,0:0:0:0:
320,192,96931,1,0,0:0:0:0:
192,192,96967,1,0,0:0:0:0:
448,192,97003,1,0,0:0:0:0:
320,192,97040,1,0,0:0:0:0:
64,192,97040,1,0,0:0:0:0:
192,192,97076,1,0,0:0:0:0:
448,192,97112,1,0,0:0:0:0:
64,192,97149,1,0,0:0:0:0:
192,192,97199,1,0,0:0:0:0:
448,192,97248,1,0,0:0:0:0:
320,192,97248,1,0,0:0:0:0:
192,192,97297,1,0,0:0:0:0:
64,192,97347,1,0,0:0:0:0:
320,192,97380,1,0,0:0:0:0:
192,192,97415,1,0,0:0:0:0:
448,192,97449,1,0,0:0:0:0:
64,192,97449,1,0,0:0:0:0:
320,192,97483,1,0,0:0:0:0:
192,192,97517,1,0,0:0:0:0:
448,192,97552,1,0,0:0:0:0:
320,192,97602,1,0,0:0:0:0:
192,192,97651,1,0,0:0:0:0:
64,192,97651,1,0,0:0:0:0:
448,192,97687,1,0,0:0:0:0:
320,192,97725,1,0,0:0:0:0:
64,192,97762,1,0,0:0:0:0:
192,192,97800,1,0,0:0:0:0:
448,192,97837,1,0,0:0:0:0:
320,192,97875,1,0,0:0:0:0:
64,192,97875,1,0,0:0:0:0:
192,192,97913,1,0,0:0:0:0:
448,192,97950,1,0,0:0:0:0:
192,192,97988,1,0,0:0:0:0:
64,192,98025,1,0,0:0:0:0:
448,192,98062,1,0,0:0:0:0:
320,192,98062,1,0,0:0:0:0:
192,192,98100,1,0,0:0:0:0:
64,192,98137,1,0,0:0:0:0:
448,192,98175,1,0,0:0:0:0:
192,192,98213,1,0,0:0:0:0:
320,192,98250,1,0,0:0:0:0:
64,192,98250,1,0,0:0:0:0:
448,192,98288,1,0,0:0:0:0:
192,192,98326,1,0,0:0:0:0:
64,192,98364,1,0,0:0:0:0:
320,192,98401,1,0,0:0:0:0:
448,192,98439,1,0,0:0:0:0:
192,192,98476,1,0,0:0:0:0:
64,192,98476,1,0,0:0:0:0:
448,192,98513,1,0,0:0:0:0:
320,192,98551,1,0,0:0:0:0:
192,192,98587,1,0,0:0:0:0:
64,192,98625,1,0,0:0:0:0:
320,192,98662,1,0,0:0:0:0:
448,192,98699,1,0,0:0:0:0:
192,192,98699,1,0,0:0:0:0:
64,192,98735,1,0,0:0:0:0:
320,192,98773,1,0,0:0:0:0:
192,192,98812,1,0,0:0:0:0:
448,192,98850,1,0,0:0:0:0:
320,192,98887,1,0,0:0:0:0:
192,192,98926,1,0,0:0:0:0:
448,192,98951,1,0,0:0:0:0:
64,192,98951,1,0,0:0:0:0:
320,192,98981,1,0,0:0:0:0:
192,192,99025,1,0,0:0:0:0:
448,192,99050,1,0,0:0:0:0:
320,192,99085,1,0,0:0:0:0:
64,192,99107,1,0,0:0:0:0:
192,192,99159,1,0,0:0:0:0:
64,192,99211,1,0,0:0:0:0:
448,192,99263,1,0,0:0:0:0:
320,192,99263,1,0,0:0:0:0:
192,192,99315,1,0,0:0:0:0:
448,192,99367,1,0,0:0:0:0:
320,192,99367,1,0,0:0:0:0:
64,192,99417,1,0,0:0:0:0:
192,192,99468,1,0,0:0:0:0:
320,192,99519,1,0,0:0:0:0:
64,192,99570,1,0,0:0:0:0:
448,192,99600,1,0,0:0:0:0:
320,192,99643,1,0,0:0:0:0:
192,192,99674,1,0,0:0:0:0:
64,192,99674,1,0,0:0:0:0:
448,192,99726,1,0,0:0:0:0:
192,192,99777,1,0,0:0:0:0:
64,192,99777,1,0,0:0:0:0:
448,192,99807,1,0,0:0:0:0:
320,192,99850,1,0,0:0:0:0:
64,192,99885,1,0,0:0:0:0:
448,192,99910,1,0,0:0:0:0:
320,192,99932,1,0,0:0:0:0:
192,192,99984,1,0,0:0:0:0:
64,192,100036,1,0,0:0:0:0:
448,192,100088,1,0,0:0:0:0:
320,192,100088,1,0,0:0:0:0:
64,192,100141,1,0,0:0:0:0:
448,192,100193,1,0,0:0:0:0:
320,192,100193,1,0,0:0:0:0:
192,192,100222,1,0,0:0:0:0:
64,192,100265,1,0,0:0:0:0:
320,192,100298,1,0,0:0:0:0:
192,192,100323,1,0,0:0:0:0:
448,192,100345,1,0,0:0:0:0:
64,192,100395,1,0,0:0:0:0:
320,192,100446,1,0,0:0:0:0:
192,192,100497,1,0,0:0:0:0:
64,192,100497,1,0,0:0:0:0:
448,192,100526,1,0,0:0:0:0:
320,192,100569,1,0,0:0:0:0:
192,192,100599,1,0,0:0:0:0:
64,192,100599,1,0,0:0:0:0:
448,192,100627,1,0,0:0:0:0:
320,192,100698,1,0,0:0:0:0:
192,192,100748,1,0,0:0:0:0:
448,192,100798,1,0,0:0:0:0:
64,192,100827,1,0,0:0:0:0:
192,192,100870,1,0,0:0:0:0:
448,192,100900,1,0,0:0:0:0:
320,192,100900,1,0,0:0:0:0:
64,192,100951,1,0,0:0:0:0:
448,192,101002,1,0,0:0:0:0:
320,192,101002,1,0,0:0:0:0:
192,192,101032,1,0,0:0:0:0:
64,192,101075,1,0,0:0:0:0:
320,192,101100,1,0,0:0:0:0:
192,192,101135,1,0,0:0:0:0:
448,192,101157,1,0,0:0:0:0:
64,192,101208,1,0,0:0:0:0:
320,192,101260,1,0,0:0:0:0:
192,192,101311,1,0,0:0:0:0:
64,192,101311,1,0,0:0:0:0:
448,192,101362,1,0,0:0:0:0:
192,192,101414,1,0,0:0:0:0:
64,192,101414,1,0,0:0:0:0:
320,192,101443,1,0,0:0:0:0:
448,192,101486,1,0,0:0:0:0:
64,192,101517,1,0,0:0:0:0:
320,192,101568,1,0,0:0:0:0:
448,192,101597,1,0,0:0:0:0:
192,192,101640,1,0,0:0:0:0:
64,192,101673,1,0,0:0:0:0:
448,192,101720,1,0,0:0:0:0:
320,192,101720,1,0,0:0:0:0:
192,192,101749,1,0,0:0:0:0:
64,192,101791,1,0,0:0:0:0:
448,192,101821,1,0,0:0:0:0:
320,192,101821,1,0,0:0:0:0:
64,192,101890,1,0,0:0:0:0:
192,192,101922,1,0,0:0:0:0:
320,192,101967,1,0,0:0:0:0:
448,192,102016,1,0,0:0:0:0:
192,192,102045,1,0,0:0:0:0:
64,192,102085,1,0,0:0:0:0:
448,192,102115,1,0,0:0:0:0:
320,192,102115,1,0,0:0:0:0:
192,192,102143,1,0,0:0:0:0:
448,192,102213,1,0,0:0:0:0:
320,192,102213,1,0,0:0:0:0:
64,192,102265,1,0,0:0:0:0:
320,192,102315,1,0,0:0:0:0:
448,192,102366,1,0,0:0:0:0:
192,192,102366,1,0,0:0:0:0:
64,192,102417,1,0,0:0:0:0:
448,192,102445,1,0,0:0:0:0:
320,192,102486,1,0,0:0:0:0:
192,192,102515,1,0,0:0:0:0:
64,192,102515,1,0,0:0:0:0:
448,192,102564,1,0,0:0:0:0:
192,192,102612,1,0,0:0:0:0:
64,192,102612,1,0,0:0:0:0:
320,192,102642,1,0,0:0:0:0:
192,192,102685,1,0,0:0:0:0:
448,192,102715,1,0,0:0:0:0:
320,192,102766,1,0,0:0:0:0:
64,192,102766,1,0,0:0:0:0:
192,192,102817,1,0,0:0:0:0:
64,192,102867,1,0,0:0:0:0:
448,192,102915,1,0,0:0:0:0:
320,192,102915,1,0,0:0:0:0:
192,192,102964,1,0,0:0:0:0:
448,192,103012,1,0,0:0:0:0:
320,192,103012,1,0,0:0:0:0:
64,192,103042,1,0,0:0:0:0:
192,192,103085,1,0,0:0:0:0:
320,192,103115,1,0,0:0:0:0:
448,192,103167,1,0,0:0:0:0:
192,192,103167,1,0,0:0:0:0:
64,192,103196,1,0,0:0:0:0:
320,192,103239,1,0,0:0:0:0:
448,192,103269,1,0,0:0:0:0:
192,192,103320,1,0,0:0:0:0:
64,192,103320,1,0,0:0:0:0:
320,192,103349,1,0,0:0:0:0:
448,192,103391,1,0,0:0:0:0:
192,192,103421,1,0,0:0:0:0:
64,192,103421,1,0,0:0:0:0:
320,192,103451,1,0,0:0:0:0:
192,192,103525,1,0,0:0:0:0:
320,192,103576,1,0,0:0:0:0:
64,192,103576,1,0,0:0:0:0:
448,192,103628,1,0,0:0:0:0:
192,192,103678,1,0,0:0:0:0:
448,192,103728,1,0,0:0:0:0:
320,192,103728,1,0,0:0:0:0:
64,192,103756,1,0,0:0:0:0:
192,192,103797,1,0,0:0:0:0:
448,192,103827,1,0,0:0:0:0:
320,192,103827,1,0,0:0:0:0:
64,192,103880,1,0,0:0:0:0:
320,192,103932,1,0,0:0:0:0:
448,192,103985,1,0,0:0:0:0:
192,192,103985,1,0,0:0:0:0:
64,192,104016,1,0,0:0:0:0:
320,192,104060,1,0,0:0:0:0:
448,192,104094,1,0,0:0:0:0:
192,192,104141,1,0,0:0:0:0:
64,192,104141,1,0,0:0:0:0:
320,192,104192,1,0,0:0:0:0:
192,192,104244,1,0,0:0:0:0:
64,192,104244,1,0,0:0:0:0:
448,192,104295,1,0,0:0:0:0:
192,192,104347,1,0,0:0:0:0:
320,192,104399,1,0,0:0:0:0:
64,192,104399,1,0,0:0:0:0:
448,192,104451,1,0,0:0:0:0:
192,192,104496,1,0,0:0:0:0:
64,192,104529,1,0,0:0:0:0:
448,192,104549,1,0,0:0:0:0:
320,192,104549,1,0,0:0:0:0:
192,192,104598,1,0,0:0:0:0:
448,192,104647,1,0,0:0:0:0:
320,192,104647,1,0,0:0:0:0:
64,192,104677,1,0,0:0:0:0:
192,192,104720,1,0,0:0:0:0:
320,192,104753,1,0,0:0:0:0:
448,192,104800,1,0,0:0:0:0:
192,192,104800,1,0,0:0:0:0:
64,192,104851,1,0,0:0:0:0:
320,192,104902,1,0,0:0:0:0:
192,192,104953,1,0,0:0:0:0:
64,192,104953,1,0,0:0:0:0:
448,192,105004,1,0,0:0:0:0:
192,192,105055,1,0,0:0:0:0:
64,192,105055,1,0,0:0:0:0:
320,192,105083,1,0,0:0:0:0:
448,192,105126,1,0,0:0:0:0:
192,192,105156,1,0,0:0:0:0:
64,192,105156,1,0,0:0:0:0:
448,192,105207,1,0,0:0:0:0:
320,192,105207,1,0,0:0:0:0:
192,192,105257,1,0,0:0:0:0:
64,192,105257,1,0,0:0:0:0:
448,192,105287,1,0,0:0:0:0:
320,192,105329,1,0,0:0:0:0:
192,192,105359,1,0,0:0:0:0:
64,192,105359,1,0,0:0:0:0:
448,192,105388,1,0,0:0:0:0:
320,192,105430,1,0,0:0:0:0:
448,192,105461,128,0,106070:0:0:0:0:
192,192,105461,128,0,106172:0:0:0:0:
64,192,105461,128,0,106222:0:0:0:0:
