osu file format v14

[General]
AudioFilename: audio.mp3
AudioLeadIn: 0
PreviewTime: 52382
Countdown: 1
SampleSet: Soft
StackLeniency: 0.7
Mode: 0
LetterboxInBreaks: 0
WidescreenStoryboard: 1

[Editor]
DistanceSpacing: 1.1
BeatDivisor: 2
GridSize: 8
TimelineZoom: 1.2

[Metadata]
Title:Inferno
TitleUnicode:Inferno
Artist:9mm Parabellum Bullet
ArtistUnicode:9mm Parabellum Bullet
Creator:fartownik
Version:Tomadoi's Easy
Source:Berserk 2016
Tags:tomadoi davided chalwa
BeatmapID:1158645
BeatmapSetID:494683

[Difficulty]
HPDrainRate:3
CircleSize:2.5
OverallDifficulty:3
ApproachRate:3
SliderMultiplier:0.799999999999999
SliderTickRate:1

[Events]
//Background and Video events
0,0,"749693.jpg",0,0
//Break Periods
2,36889,43557
//Storyboard Layer 0 (Background)
//Storyboard Layer 1 (Fail)
//Storyboard Layer 2 (Pass)
//Storyboard Layer 3 (Foreground)
//Storyboard Sound Samples

[TimingPoints]
690,307.692307692308,3,2,1,60,1,0

[Colours]
Combo1 : 255,106,17
Combo2 : 175,1,1

[HitObjects]
152,256,690,6,0,P|264:304|376:240,1,240
424,192,1920,2,0,P|432:152|424:104,1,79.9999999999999
368,48,2536,2,0,B|256:16|264:128|128:88,1,240
64,136,3766,2,0,P|56:176|64:224,1,79.9999999999999
112,288,4382,6,0,B|160:288|200:272|200:272|248:296|248:296|296:280|344:280,1,240
408,224,5613,2,0,P|416:176|400:128,1,79.9999999999999
360,72,6228,2,0,B|336:40|280:24|280:24|256:104|296:184,1,240
240,240,7459,2,0,P|200:248|160:240,1,79.9999999999999
96,184,8074,5,0,0:0:0:0:
336,64,8997,1,0,0:0:0:0:
319,331,9920,1,0,0:0:0:0:
200,96,10843,1,0,0:0:0:0:
463,110,11766,6,0,P|472:160|456:200,1,79.9999999999999
392,240,12382,1,0,0:0:0:0:
320,184,12690,2,0,P|272:144|168:152,1,160
96,184,13613,2,0,P|87:145|96:106,1,79.9999999999999
144,32,14228,1,0,0:0:0:0:
232,48,14536,2,0,L|416:56,1,160
464,112,15459,6,0,L|472:200,2,79.9999999999999
376,144,16382,2,0,L|368:232,2,79.9999999999999
296,104,17305,2,0,L|273:189,2,79.9999999999999
232,40,18228,2,0,P|168:24|48:64,1,160
32,120,19151,6,0,P|32:168|40:200,2,79.9999999999999
120,144,20074,2,0,P|128:191|141:221,2,79.9999999999999
208,152,20997,2,0,P|224:197|242:224,2,79.9999999999999
272,88,21920,2,0,P|352:80|448:136,1,160
472,184,22843,6,0,L|464:312,2,120
208,176,24690,2,0,L|216:304,2,120
248,96,25920,1,0,0:0:0:0:
328,128,26228,1,0,0:0:0:0:
416,112,26536,6,0,L|424:280,1,160
360,336,27459,2,0,P|278:348|191:283,1,160
152,248,28382,2,0,L|144:104,2,120
272,160,30228,6,0,P|280:120|264:64,2,79.9999999999999
208,224,31151,2,0,P|169:237|128:278,2,79.9999999999999
296,248,32074,1,0,0:0:0:0:
376,208,32382,2,0,P|408:136|368:48,1,160
304,24,33305,2,0,L|192:32,1,79.9999999999999
152,80,33920,6,0,L|160:256,1,160
216,312,34843,2,0,L|392:304,1,160
440,240,35766,2,0,L|432:96,2,120
448,280,44997,6,0,B|352:272|352:272|312:304|312:304|208:296,1,240
144,248,46228,2,0,B|136:208|136:208|144:160,1,79.9999999999999
192,96,46843,2,0,B|296:40|296:40|432:88,1,240
464,152,48074,2,0,B|464:192|464:192|448:238,1,79.9999999999999
376,280,48690,6,0,B|192:272|192:272|128:304,1,240
56,264,49920,2,0,B|48:224|48:224|64:168,1,79.9999999999999
120,120,50536,2,0,L|112:0,2,120
192,176,51766,2,0,B|232:184|232:184|288:168,1,79.9999999999999
352,136,52382,6,0,B|408:176|472:152|472:152|512:208|480:288,1,240
456,344,53613,2,0,P|408:344|352:320,1,79.9999999999999
304,288,54228,2,0,L|176:296,2,120
384,240,55459,1,0,0:0:0:0:
344,160,55766,1,0,0:0:0:0:
368,72,56074,6,0,P|328:40|224:40,1,160
152,96,56997,2,0,P|120:136|120:240,1,160
176,312,57920,2,0,P|216:344|320:344,1,160
400,296,58843,2,0,P|432:256|432:152,1,160
384,80,59766,6,0,L|392:0,2,79.9999999999999
296,104,60690,2,0,L|304:288,1,160
376,320,61613,2,0,L|456:312,2,79.9999999999999
288,360,62537,2,0,L|104:352,1,160
80,280,63459,6,0,L|-8:272,2,79.9999999999999
160,240,64382,2,0,L|248:232,2,79.9999999999999
104,168,65305,2,0,L|16:160,2,79.9999999999999
168,104,66228,2,0,L|352:88,1,160
408,128,67151,6,0,P|416:72|400:40,2,79.9999999999999
368,208,68074,2,0,P|424:216|456:200,2,79.9999999999999
288,168,68997,2,0,P|280:224|296:256,2,79.9999999999999
328,88,69920,2,0,P|280:56|160:56,1,160
112,104,70843,6,0,L|120:272,1,160
200,304,71766,2,0,L|192:384,2,79.9999999999999
264,240,72690,2,0,P|328:208|432:232,1,160
488,272,73613,2,0,P|496:312|496:352,2,79.9999999999999
496,184,74536,5,0,0:0:0:0:
248,104,75459,1,0,0:0:0:0:
303,359,76382,1,0,0:0:0:0:
384,112,77305,1,0,0:0:0:0:
130,166,78228,6,0,L|48:160,2,79.9999999999999
200,224,79151,2,0,L|282:218,2,79.9999999999999
128,280,80074,2,0,L|46:274,2,79.9999999999999
192,344,80997,2,0,L|384:328,1,160
416,264,81920,6,0,P|424:224|424:176,2,79.9999999999999
336,224,82843,2,0,P|336:183|328:135,2,79.9999999999999
248,200,83766,2,0,P|241:159|225:114,2,79.9999999999999
160,216,84690,2,0,P|88:248|48:352,1,160
120,376,85613,6,0,L|248:368,2,120
49,316,86843,2,0,P|41:268|65:212,1,79.9999999999999
112,176,87459,2,0,L|200:168,2,79.9999999999999
48,112,88382,1,0,0:0:0:0:
