osu file format v14

[General]
AudioFilename: audio.mp3
AudioLeadIn: 0
PreviewTime: 52382
Countdown: 1
SampleSet: Normal
StackLeniency: 0.7
Mode: 0
LetterboxInBreaks: 0
WidescreenStoryboard: 1

[Editor]
Bookmarks: 78843
DistanceSpacing: 1
BeatDivisor: 4
GridSize: 8
TimelineZoom: 2.5

[Metadata]
Title:Inferno
TitleUnicode:Inferno
Artist:9mm Parabellum Bullet
ArtistUnicode:9mm Parabellum Bullet
Creator:fartownik
Version:Normal
Source:Berserk 2016
Tags:tomadoi davided chalwa
BeatmapID:1214671
BeatmapSetID:494683

[Difficulty]
HPDrainRate:4
CircleSize:3
OverallDifficulty:4
ApproachRate:5
SliderMultiplier:1.15
SliderTickRate:1

[Events]
//Background and Video events
0,0,"749693.jpg",0,0
//Break Periods
2,17505,21643
//Storyboard Layer 0 (Background)
//Storyboard Layer 1 (Fail)
//Storyboard Layer 2 (Pass)
//Storyboard Layer 3 (Foreground)
//Storyboard Sound Samples

[TimingPoints]
690,307.692307692308,3,1,1,60,1,0
8074,-133.333333333333,3,2,1,60,0,0
11690,-100,3,2,1,60,0,0
37459,-133.333333333333,3,2,1,60,0,0
44920,-100,3,2,1,60,0,0
55920,-133.333333333333,3,2,1,60,0,0
59690,-100,3,2,1,60,0,0
63459,-86.9565217391304,3,2,1,60,0,0
75074,-100,3,2,1,60,0,0
76228,-86.9565217391304,3,2,1,60,0,0

[Colours]
Combo1 : 255,106,17
Combo2 : 175,1,1

[HitObjects]
88,104,690,6,0,P|136:96|200:128,1,115,14|0,0:0|0:0,0:0:0:0:
248,104,1151,2,0,P|232:152|240:216,1,115,10|0,0:0|0:0,0:0:0:0:
272,264,1613,2,0,B|320:256|320:256|352:264|352:264|400:256,2,115,10|10|10,0:0|0:0|0:0,0:0:0:0:
64,344,2536,6,0,L|72:224,1,115,10|0,0:0|0:0,0:0:0:0:
40,176,2997,2,0,P|80:144|152:152,1,115,10|0,0:0|0:0,0:0:0:0:
192,176,3459,2,0,B|184:136|184:136|192:104|192:104|184:48,2,115,10|10|10,0:0|0:0|0:0,0:0:0:0:
304,144,4382,6,0,P|320:192|296:256,1,115,10|0,0:0|0:0,0:0:0:0:
320,304,4843,2,0,P|272:304|208:336,1,115,10|0,0:0|0:0,0:0:0:0:
160,312,5305,2,0,B|120:304|120:304|80:312|80:312|40:304,2,115,10|10|10,0:0|0:0|0:0,0:0:0:0:
216,208,6228,6,0,L|208:88,1,115,10|0,0:0|0:0,0:0:0:0:
184,40,6690,2,0,P|136:64|72:48,1,115,10|0,0:0|0:0,0:0:0:0:
32,88,7151,2,0,L|40:144,1,57.5,10|0,0:0|0:0,0:0:0:0:
80,184,7459,2,0,L|88:240,1,57.5,10|0,0:0|0:0,0:0:0:0:
128,280,7766,2,0,L|136:336,1,57.5,10|0,0:0|0:0,0:0:0:0:
184,368,8074,6,0,B|248:352|288:376|360:360,1,172.500006580353,4|0,1:0|0:0,0:0:0:0:
416,280,8997,6,0,B|352:264|312:288|240:272,1,172.500006580353,4|0,1:0|0:0,0:0:0:0:
200,192,9920,6,0,B|264:176|304:200|376:184,1,172.500006580353,4|0,1:0|0:0,0:0:0:0:
416,104,10843,6,0,B|352:88|312:112|240:96,1,172.500006580353,4|0,1:0|1:0,0:0:0:0:
244,96,11766,6,0,P|208:88|160:232,1,230,12|0,1:0|1:0,0:0:0:0:
272,224,12690,2,0,P|288:264|152:344,1,230,8|8,1:0|1:0,0:0:0:0:
72,280,13613,6,0,B|48:224|96:176|96:176|168:192|168:264,1,230,4|8,1:0|1:0,0:0:0:0:
256,144,14536,2,0,B|280:88|232:40|232:40|160:56|160:128,1,230,8|8,1:0|1:0,0:0:0:0:
192,208,15459,6,2,P|203:253|384:40,1,690,6|0,1:0|0:0,1:0:0:0:
256,296,22843,5,8,1:0:0:0:
256,296,23151,2,0,B|264:256|248:224|256:176,1,115,8|8,1:0|1:0,0:0:0:0:
192,88,23766,2,0,P|144:120|80:112,1,115,2|0,0:0|0:0,0:0:0:0:
40,152,24228,2,0,B|56:200|48:232|64:272,1,115,2|2,0:0|0:0,0:0:0:0:
56,320,24690,6,0,P|104:304|200:368,1,172.5,8|8,1:0|1:0,0:0:0:0:
304,312,25459,1,0,1:0:0:0:
304,312,25613,2,0,L|312:184,2,115,8|8|8,3:0|3:0|3:0,0:0:0:0:
208,64,26536,6,0,P|152:64|56:200,1,230,8|8,1:0|1:0,0:0:0:0:
16,344,27459,2,0,B|96:304|152:376|256:336,1,230,8|8,1:0|1:0,0:0:0:0:
352,312,28382,6,0,P|368:280|344:200,1,115,8|8,1:0|1:0,0:0:0:0:
320,160,28843,2,0,P|360:160|424:120,1,115,8|8,1:0|1:0,0:0:0:0:
456,72,29305,6,0,P|448:40|440:16,5,57.5,8|8|8|8|8|8,3:0|3:0|3:0|3:0|3:0|3:0,0:0:0:0:
400,56,30228,5,6,0:0:0:0:
288,32,30536,1,2,0:0:0:0:
184,72,30843,1,2,0:0:0:0:
72,40,31151,2,0,P|64:96|96:160,1,115,2|2,0:0|0:0,0:0:0:0:
144,160,31613,2,8,L|136:216,1,57.5,8|8,1:0|1:0,1:0:0:0:
160,328,32074,6,0,P|192:304|280:304,1,115,2|2,0:0|0:0,0:0:0:0:
376,328,32690,1,2,0:0:0:0:
344,216,32997,2,0,P|336:160|336:96,1,115,2|2,0:0|0:0,0:0:0:0:
376,56,33459,2,8,L|368:-8,1,57.5,8|8,1:0|1:0,1:0:0:0:
224,16,33920,6,8,L|240:136,1,115,8|8,1:0|1:0,1:0:0:0:
256,248,34536,1,2,0:0:0:0:
144,208,34843,6,8,P|104:216|48:264,1,115,8|8,1:0|1:0,1:0:0:0:
24,376,35459,1,2,0:0:0:0:
136,344,35766,6,8,L|264:352,1,115,8|8,1:0|1:0,1:0:0:0:
304,368,36228,2,8,P|312:320|280:264,1,115,8|8,1:0|1:0,1:0:0:0:
312,216,36690,6,0,B|352:208|352:208|384:216|384:216|440:208,2,115,8|8|8,3:0|3:0|3:0,0:0:0:0:
504,264,37613,6,0,P|512:232|440:120,1,172.500006580353,4|0,0:0|0:0,0:0:0:0:
360,32,38536,2,0,P|331:48|300:178,1,172.500006580353,2|0,0:0|0:0,0:0:0:0:
368,288,39459,2,0,B|320:272|288:304|232:288,1,129.375004935265,2|0,0:0|0:0,0:0:0:0:
112,320,40228,1,0,0:0:0:0:
112,320,40382,2,0,P|104:280|128:232,1,86.2500032901765,2|0,0:0|0:0,0:0:0:0:
160,216,40843,6,0,L|152:184,2,21.5625008225441,8|8|8,3:0|3:0|3:0,0:0:0:0:
88,80,41305,6,0,P|144:96|256:56,1,172.500006580353,4|2,0:0|0:0,0:0:0:0:
360,144,42228,2,0,P|344:200|384:312,1,172.500006580353,2|2,0:0|0:0,0:0:0:0:
256,352,43151,5,6,0:0:0:0:
248,266,43459,2,0,L|256:354,1,86.2500032901765,6|6,0:0|0:0,0:0:0:0:
128,304,44074,5,6,0:0:0:0:
136,218,44382,2,0,L|128:306,1,86.2500032901765,6|6,0:0|0:0,0:0:0:0:
208,152,44997,6,0,P|160:128|48:184,2,172.5,14|10|10,1:0|1:0|1:0,0:0:0:0:
296,224,46228,1,10,1:0:0:0:
408,192,46536,1,10,1:0:0:0:
384,304,46843,6,0,P|352:328|272:336,1,115,10|0,1:0|1:0,0:0:0:0:
224,360,47305,2,0,L|232:240,1,115,10|0,1:0|1:0,0:0:0:0:
200,192,47766,2,0,P|256:184|320:224,2,115,10|10|10,1:0|1:0|1:0,0:0:0:0:
104,256,48690,5,10,1:0:0:0:
88,144,48997,1,10,1:0:0:0:
104,256,49305,1,10,1:0:0:0:
200,192,49613,5,10,1:0:0:0:
216,80,49920,1,10,1:0:0:0:
200,192,50228,1,10,1:0:0:0:
312,152,50536,6,0,P|376:160|440:256,2,172.5,10|10|10,1:0|1:0|1:0,0:0:0:0:
200,192,51766,1,10,1:0:0:0:
288,264,52074,2,0,P|296:304|304:320,1,57.5,10|0,1:0|0:0,0:0:0:0:
344,360,52382,6,0,P|376:352|408:184,1,230,6|2,0:0|0:0,0:0:0:0:
376,80,53305,2,0,B|264:56|248:120|144:80,1,230,2|2,0:0|0:0,0:0:0:0:
128,192,54228,5,4,1:2:0:0:
128,192,54382,1,4,1:2:0:0:
256,208,54690,5,4,1:2:0:0:
256,208,54844,1,4,1:2:0:0:
384,192,55151,5,4,1:2:0:0:
384,192,55459,1,4,1:2:0:0:
440,312,55766,5,8,1:0:0:0:
304,288,56074,6,0,P|208:288|136:336,1,172.500006580353,4|2,1:0|0:0,0:0:0:0:
72,240,56997,6,0,P|168:240|240:288,1,172.500006580353,4|2,1:0|0:0,0:0:0:0:
312,192,57920,6,0,P|216:192|144:240,1,172.500006580353,4|2,1:0|0:0,0:0:0:0:
80,144,58843,6,0,P|176:144|248:192,1,172.500006580353,4|2,1:0|0:0,0:0:0:0:
344,232,59766,6,0,P|352:184|336:120,2,115,8|8|8,1:0|1:0|1:0,0:0:0:0:
272,320,60690,2,0,P|224:320|160:360,1,115,8|8,1:0|1:0,0:0:0:0:
64,296,61305,1,8,1:0:0:0:
40,184,61613,6,0,P|32:136|48:72,2,115,8|8|8,1:0|1:0|1:0,0:0:0:0:
144,144,62536,2,0,P|192:144|256:184,1,115,8|8,1:0|1:0,0:0:0:0:
352,120,63151,1,8,1:0:0:0:
416,216,63459,5,12,1:0:0:0:
320,280,63766,1,8,1:0:0:0:
416,216,64074,1,8,1:0:0:0:
320,280,64382,5,8,1:0:0:0:
248,192,64690,1,8,1:0:0:0:
320,280,64997,1,8,1:0:0:0:
248,192,65305,6,0,L|272:-16,1,198.375003783703,12|8,1:0|1:0,0:0:0:0:
152,88,66074,1,0,1:0:0:0:
152,88,66228,2,0,P|112:104|160:272,1,264.500005044937,8|8,1:0|1:0,0:0:0:0:
280,304,67151,6,0,P|280:264|256:176,1,132.250002522469,8|8,1:0|1:0,0:0:0:0:
152,88,67766,1,8,1:0:0:0:
264,24,68074,2,0,P|336:24|432:176,1,264.500005044937,8|8,1:0|1:0,0:0:0:0:
392,296,68997,5,8,1:0:0:0:
264,272,69305,2,0,P|208:280|144:328,1,132.250002522469,8|8,1:0|1:0,0:0:0:0:
87,205,69920,6,0,B|103:109|103:109|191:85|191:85|180:165,1,264.500005044937,8|0,1:0|1:0,0:0:0:0:
264,272,70843,6,0,P|320:296|464:168,1,264.500005044937,12|8,1:0|1:0,0:0:0:0:
448,56,71766,1,8,1:0:0:0:
328,0,72074,2,0,L|344:200,1,198.375003783703,8|8,1:0|1:0,0:0:0:0:
288,168,72690,6,0,P|240:176|168:360,1,264.500005044937,12|8,1:0|1:0,0:0:0:0:
288,312,73613,1,8,1:0:0:0:
192,224,73920,2,0,B|136:176|112:72|24:8,1,264.500005044937,8|6,1:0|1:0,0:0:0:0:
168,8,74843,5,2,1:0:0:0:
288,72,75151,1,8,1:0:0:0:
176,96,75459,2,0,B|144:104|120:104|96:112,1,57.5,0|0,1:0|1:0,0:0:0:0:
88,152,75766,2,0,P|88:192|136:256,1,115,0|0,1:0|0:0,0:0:0:0:
256,216,76382,6,0,P|256:272|152:368,1,198.375003783703,8|8,1:0|1:0,0:0:0:0:
56,288,77151,1,0,1:0:0:0:
40,224,77305,6,0,L|112:232,2,66.1250012612343,12|12|12,1:2|1:2|1:2,0:0:0:0:
296,264,77920,6,8,L|288:192,1,66.1250012612343,8|8,1:0|1:0,1:0:0:0:
272,136,78228,6,0,P|344:96|464:216,1,264.500005044937,14|10,1:0|1:0,0:0:0:0:
424,328,79151,2,0,P|352:368|232:248,1,264.500005044937,10|10,1:0|1:0,0:0:0:0:
272,136,80074,6,0,P|200:96|80:216,1,264.500005044937,10|10,1:0|1:0,0:0:0:0:
96,336,80997,2,0,B|144:328|144:328|192:328|192:328|256:320|256:320|288:336|288:336|384:328,1,264.500005044937,14|10,1:0|1:0,0:0:0:0:
448,200,81920,6,0,B|464:128|408:80|408:80|336:112|336:192,1,264.500005044937,10|10,1:0|1:0,0:0:0:0:
232,264,82843,6,0,B|248:336|192:384|192:384|120:352|120:272,1,264.500005044937,10|10,1:0|1:0,0:0:0:0:
72,160,83766,6,0,B|56:88|112:40|112:40|184:72|184:152,1,264.500005044937,10|10,1:0|1:0,0:0:0:0:
304,192,84690,6,0,P|312:160|320:128,2,66.1250012612343,10|10|10,1:0|1:0|1:0,0:0:0:0:
272,320,85305,1,10,1:0:0:0:
400,304,85613,5,14,1:0:0:0:
400,304,85766,1,10,1:0:0:0:
320,200,86074,5,10,1:0:0:0:
320,200,86227,1,10,1:0:0:0:
272,320,86536,5,10,1:0:0:0:
272,320,86843,1,10,1:0:0:0:
272,320,87151,1,10,1:0:0:0:
400,304,87459,6,0,L|424:232,6,66.1250012612343,10|10|10|10|10|10|10,1:0|1:0|1:0|1:0|1:0|1:0|1:0,1:0:0:0:
