osu file format v14

[General]
AudioFilename: audio.mp3
AudioLeadIn: 0
PreviewTime: 8039
Countdown: 0
SampleSet: None
StackLeniency: 0.7
Mode: 0
LetterboxInBreaks: 0
WidescreenStoryboard: 0

[Editor]
DistanceSpacing: 1.2
BeatDivisor: 4
GridSize: 8
TimelineZoom: 4.099998

[Metadata]
Title:Inferno
TitleUnicode:インフェルノ
Artist:9mm Parabellum Bullet
ArtistUnicode:9mm Parabellum Bullet
Creator:Monstrata
Version:Tortured Soul Extra
Source:ベルセルク
Tags:BERSERK guts casca griffith 2016 tv size opening
BeatmapID:1029562
BeatmapSetID:482090

[Difficulty]
HPDrainRate:6.6
CircleSize:4.8
OverallDifficulty:9.7
ApproachRate:9.7
SliderMultiplier:1.8
SliderTickRate:1

[Events]
//Background and Video events
0,0,"BERSERK.(Kentaro.Miura).full.1559669.jpg",0,0
//Break Periods
//Storyboard Layer 0 (Background)
//Storyboard Layer 1 (Fail)
//Storyboard Layer 2 (Pass)
//Storyboard Layer 3 (Foreground)
//Storyboard Sound Samples

[TimingPoints]
690,307.692307692308,3,3,1,90,1,0
8074,-200,3,3,0,50,0,0
11305,-200,3,3,1,75,0,0
11766,-100,3,3,1,90,0,0
22843,-100,3,3,1,70,0,0
25766,-100,3,3,0,50,0,0
26536,-100,3,3,1,70,0,0
29459,-100,3,3,0,50,0,0
30228,-100,3,3,1,70,0,0
32382,-100,3,3,0,70,0,0
32997,-100,3,3,1,70,0,0
37613,-200,3,3,1,35,0,0
40690,-200,3,3,0,35,0,0
41305,-200,3,3,1,50,0,0
44997,-100,3,3,1,90,0,0
56074,-166.666666666667,3,3,1,45,0,0
59766,-100,3,3,1,90,0,0
75459,-133.333333333333,3,3,1,90,0,0
75613,-133.333333333333,3,3,1,50,0,0
75766,-100,3,3,1,90,0,0
77920,-100,3,3,1,50,0,0
78228,-100,3,3,1,90,0,0
85305,-100,3,3,0,70,0,0
85382,-100,3,3,1,90,0,0
86536,-100,3,3,0,70,0,0
87459,-100,3,3,1,100,0,0

[Colours]
Combo1 : 182,156,214
Combo2 : 227,172,187
Combo3 : 227,182,136
Combo4 : 157,172,221

[HitObjects]
276,250,690,5,8,0:0:0:0:
298,248,766,1,0,0:0:0:0:
320,246,843,1,0,0:0:0:0:
343,245,920,1,0,0:0:0:0:
365,243,997,1,2,0:0:0:0:
269,160,1151,2,0,L|276:265,1,90,8|8,0:0|0:0,0:0:0:0:
358,153,1459,1,2,0:0:0:0:
218,86,1613,5,8,0:0:0:0:
200,99,1690,1,0,0:0:0:0:
187,118,1766,1,0,0:0:0:0:
181,139,1843,1,0,0:0:0:0:
178,162,1920,1,8,0:0:0:0:
175,184,1997,1,0,0:0:0:0:
168,205,2074,1,0,0:0:0:0:
154,223,2151,1,0,0:0:0:0:
136,237,2228,2,0,P|93:247|51:233,1,90,4|0,0:0|0:0,0:0:0:0:
157,324,2536,5,8,0:0:0:0:
354,324,2690,2,0,L|455:274,1,90,8|2,0:0|0:0,0:0:0:0:
237,131,2997,1,8,0:0:0:0:
268,296,3151,2,0,L|374:331,1,90,8|2,0:0|0:0,0:0:0:0:
190,236,3459,5,8,0:0:0:0:
164,248,3536,1,0,0:0:0:0:
137,254,3613,1,0,0:0:0:0:
109,252,3690,1,0,0:0:0:0:
83,242,3766,1,8,0:0:0:0:
60,226,3843,1,0,0:0:0:0:
42,205,3920,1,0,0:0:0:0:
30,179,3997,1,0,0:0:0:0:
26,151,4074,2,0,P|38:108|69:76,1,90,4|0,0:0|0:0,0:0:0:0:
441,77,4382,5,8,0:0:0:0:
273,256,4536,2,0,P|233:234|189:235,1,90,8|2,0:0|0:0,0:0:0:0:
105,292,4843,1,8,0:0:0:0:
372,265,4997,2,0,P|409:241|431:202,1,90,8|2,0:0|0:0,0:0:0:0:
330,46,5305,5,8,0:0:0:0:
334,79,5382,1,0,0:0:0:0:
338,112,5459,1,2,0:0:0:0:
342,146,5536,1,0,0:0:0:0:
347,179,5613,1,8,0:0:0:0:
317,165,5690,1,0,0:0:0:0:
283,162,5766,1,0,0:0:0:0:
251,170,5843,1,0,0:0:0:0:
225,189,5920,2,0,L|235:291,1,90,4|0,0:0|0:0,0:0:0:0:
431,202,6228,5,8,0:0:0:0:
260,92,6382,2,0,L|139:103,1,90,8|2,0:0|0:0,0:0:0:0:
58,297,6690,1,8,0:0:0:0:
225,189,6843,2,0,L|346:200,1,90,8|2,0:0|0:0,0:0:0:0:
328,356,7151,5,8,0:0:0:0:
312,366,7228,1,0,0:0:0:0:
294,369,7305,1,0,0:0:0:0:
275,367,7382,1,0,0:0:0:0:
259,357,7459,1,8,0:0:0:0:
248,342,7536,1,0,0:0:0:0:
242,325,7613,1,0,0:0:0:0:
243,306,7690,1,0,0:0:0:0:
251,289,7766,1,8,0:0:0:0:
265,276,7843,1,0,0:0:0:0:
282,269,7920,1,0,0:0:0:0:
300,269,7997,1,0,0:0:0:0:
318,275,8074,6,0,P|394:298|480:232,1,180,2|0,0:0|0:0,0:0:0:0:
324,193,8997,2,0,P|378:250|485:236,1,180,2|0,0:0|0:0,0:0:0:0:
370,125,9920,2,0,P|388:202|488:243,1,180,10|0,0:0|0:0,0:0:0:0:
472,51,10843,6,0,L|472:141,1,90,6|0,0:0|0:0,0:0:0:0:
284,50,11305,1,0,0:0:0:0:
284,50,11382,1,8,0:0:0:0:
284,50,11459,1,8,0:0:0:0:
284,50,11766,5,8,0:0:0:0:
196,110,11920,1,0,0:0:0:0:
297,151,12074,1,8,0:0:0:0:
182,211,12228,1,8,0:0:0:0:
312,253,12382,1,8,0:0:0:0:
167,313,12536,1,2,0:0:0:0:
325,354,12690,5,8,0:0:0:0:
167,313,12843,1,0,0:0:0:0:
338,253,12997,1,8,0:0:0:0:
152,211,13151,1,8,0:0:0:0:
354,151,13305,1,8,0:0:0:0:
138,110,13459,1,2,0:0:0:0:
367,50,13613,5,8,0:0:0:0:
138,110,13766,1,0,0:0:0:0:
380,151,13920,1,8,0:0:0:0:
125,211,14074,1,8,0:0:0:0:
395,253,14228,1,8,0:0:0:0:
110,313,14382,1,2,0:0:0:0:
408,354,14536,6,0,L|522:375,1,90,8|0,0:1|0:0,0:0:0:0:
125,211,14843,2,0,L|11:232,1,90,8|0,0:1|0:0,0:0:0:0:
278,33,15151,2,0,L|392:54,1,90,8|0,0:1|0:0,0:0:0:0:
488,294,15459,5,2,0:0:0:0:
415,240,15613,1,2,0:0:0:0:
392,235,15690,1,0,0:0:0:0:
370,235,15766,1,8,0:0:0:0:
348,239,15843,1,0,0:0:0:0:
327,246,15920,1,2,0:0:0:0:
308,258,15997,1,0,0:0:0:0:
291,273,16074,1,8,0:0:0:0:
277,291,16151,1,0,0:0:0:0:
267,311,16228,1,8,0:0:0:0:
261,333,16305,1,0,0:0:0:0:
259,355,16382,5,10,0:0:0:0:
178,314,16536,1,2,0:0:0:0:
167,294,16613,1,0,0:0:0:0:
160,272,16690,1,8,0:0:0:0:
158,250,16766,1,0,0:0:0:0:
163,228,16843,1,2,0:0:0:0:
170,207,16920,1,0,0:0:0:0:
176,185,16997,1,8,0:0:0:0:
178,163,17074,1,0,0:0:0:0:
173,141,17151,1,8,0:0:0:0:
166,120,17228,1,0,0:0:0:0:
155,100,17305,5,10,0:0:0:0:
95,167,17459,1,2,0:0:0:0:
113,180,17536,1,0,0:0:0:0:
134,188,17613,1,8,0:0:0:0:
156,191,17690,1,0,0:0:0:0:
178,189,17766,1,2,0:0:0:0:
199,181,17843,1,0,0:0:0:0:
218,168,17920,1,8,0:0:0:0:
232,151,17997,1,0,0:0:0:0:
243,131,18074,1,8,0:0:0:0:
248,109,18151,1,0,0:0:0:0:
248,87,18228,5,8,0:0:0:0:
282,59,18305,1,0,0:0:0:0:
326,54,18382,1,8,0:0:0:0:
366,73,18459,1,8,0:0:0:0:
390,111,18536,1,8,0:0:0:0:
390,155,18613,1,0,0:0:0:0:
366,193,18690,1,8,0:0:0:0:
326,212,18766,1,8,0:0:0:0:
282,207,18843,1,8,0:0:0:0:
243,187,18920,1,8,0:0:0:0:
199,196,18997,1,8,0:0:0:0:
170,229,19074,1,0,0:0:0:0:
168,273,19151,5,10,0:0:0:0:
234,334,19305,1,2,0:0:0:0:
252,346,19382,1,0,0:0:0:0:
273,355,19459,1,8,0:0:0:0:
295,360,19536,1,0,0:0:0:0:
317,361,19613,1,2,0:0:0:0:
339,358,19690,1,0,0:0:0:0:
361,351,19766,1,8,0:0:0:0:
380,340,19843,1,0,0:0:0:0:
398,326,19920,1,8,0:0:0:0:
412,309,19997,1,0,0:0:0:0:
423,289,20074,5,10,0:0:0:0:
345,245,20228,1,2,0:0:0:0:
328,230,20305,1,0,0:0:0:0:
316,211,20382,1,8,0:0:0:0:
310,189,20459,1,0,0:0:0:0:
311,167,20536,1,2,0:0:0:0:
319,146,20613,1,0,0:0:0:0:
332,128,20690,1,8,0:0:0:0:
351,115,20766,1,0,0:0:0:0:
372,108,20843,1,8,0:0:0:0:
394,108,20920,1,0,0:0:0:0:
416,115,20997,5,10,0:0:0:0:
402,204,21151,1,2,0:0:0:0:
379,202,21228,1,0,0:0:0:0:
357,201,21305,1,8,0:0:0:0:
334,199,21382,1,0,0:0:0:0:
312,198,21459,1,2,0:0:0:0:
289,196,21536,1,0,0:0:0:0:
267,195,21613,1,8,0:0:0:0:
244,193,21690,1,0,0:0:0:0:
222,192,21766,1,8,0:0:0:0:
199,190,21843,1,0,0:0:0:0:
177,189,21920,5,8,0:0:0:0:
185,196,21997,1,8,0:0:0:0:
193,204,22074,1,0,0:0:0:0:
199,213,22151,1,8,0:0:0:0:
204,223,22228,1,8,0:0:0:0:
208,234,22305,1,0,0:0:0:0:
210,245,22382,1,8,0:0:0:0:
210,256,22459,1,0,0:0:0:0:
208,267,22536,1,8,0:0:0:0:
205,278,22613,1,0,0:0:0:0:
200,288,22690,1,8,0:0:0:0:
194,298,22766,1,0,0:0:0:0:
187,306,22843,6,0,L|142:303,2,45,4|0|0,0:0|0:0|0:0,0:0:0:0:
254,354,23151,2,0,P|290:327|335:325,1,90,8|0,0:0|0:0,0:0:0:0:
426,266,23459,1,8,0:0:0:0:
423,277,23536,1,0,0:0:0:0:
421,288,23613,1,0,0:0:0:0:
418,299,23690,1,0,0:0:0:0:
416,310,23766,5,2,0:0:0:0:
341,38,24074,5,2,0:0:0:0:
416,310,24382,5,2,0:0:0:0:
436,25,24690,6,0,L|419:91,2,45,8|0|0,0:0|0:0|0:0,0:0:0:0:
330,84,24997,1,8,0:0:0:0:
396,184,25151,2,0,L|407:140,2,45,8|0|0,0:0|0:0|0:0,0:0:0:0:
330,84,25459,1,8,0:0:0:0:
296,269,25613,5,8,0:0:0:0:
233,161,25766,1,8,0:0:0:0:
185,365,25920,5,0,0:0:0:0:
216,243,26074,1,8,0:0:0:0:
359,377,26228,5,4,0:0:0:0:
313,187,26382,1,0,0:0:0:0:
105,339,26536,5,8,0:0:0:0:
105,339,26613,1,0,0:0:0:0:
105,339,26690,1,8,0:0:0:0:
105,339,26766,1,8,0:0:0:0:
105,339,26843,2,0,L|85:228,1,90,8|0,0:0|0:0,0:0:0:0:
176,261,27151,2,0,L|160:172,1,90,0|0,0:0|0:0,0:0:0:0:
231,94,27459,5,8,0:0:0:0:
231,94,27536,1,0,0:0:0:0:
231,94,27613,1,8,0:0:0:0:
231,94,27690,1,8,0:0:0:0:
231,94,27766,2,0,L|247:183,1,90,8|0,0:0|0:0,0:0:0:0:
302,16,28074,2,0,L|317:104,1,90,0|0,0:0|0:0,0:0:0:0:
411,155,28382,6,0,L|396:66,1,90,8|0,0:0|0:0,0:0:0:0:
332,192,28690,1,8,0:0:0:0:
333,203,28766,1,0,0:0:0:0:
335,214,28843,1,8,0:0:0:0:
337,225,28920,1,0,0:0:0:0:
339,236,28997,1,0,0:0:0:0:
341,247,29074,1,0,0:0:0:0:
343,258,29151,1,8,0:0:0:0:
345,269,29228,1,0,0:0:0:0:
347,280,29305,5,8,0:0:0:0:
411,155,29459,1,8,0:0:0:0:
285,91,29613,1,0,0:0:0:0:
257,292,29766,5,8,0:0:0:0:
320,166,29920,1,4,0:0:0:0:
194,102,30074,1,0,0:0:0:0:
347,280,30228,6,0,L|478:263,1,90,8|0,0:0|0:0,0:0:0:0:
325,254,30536,2,0,L|456:236,1,90,8|0,0:0|0:0,0:0:0:0:
302,227,30843,2,0,L|433:209,1,90,8|0,0:0|0:0,0:0:0:0:
164,280,31151,6,0,L|33:263,1,90,8|0,0:0|0:0,0:0:0:0:
187,254,31459,1,8,0:0:0:0:
109,351,31613,1,2,0:0:0:0:
109,351,31690,1,2,0:0:0:0:
109,351,31766,1,6,0:0:0:0:
109,351,32074,5,8,0:0:0:0:
123,194,32228,1,0,0:0:0:0:
123,194,32305,1,8,0:0:0:0:
123,194,32382,1,8,0:0:0:0:
187,254,32536,1,8,0:0:0:0:
289,142,32690,1,4,0:0:0:0:
206,168,32843,1,0,0:0:0:0:
251,313,32997,5,2,0:0:0:0:
289,142,33151,1,2,0:0:0:0:
187,254,33305,1,8,0:0:0:0:
353,200,33459,1,8,0:0:0:0:
353,200,33536,1,0,0:0:0:0:
353,200,33613,1,8,0:0:0:0:
353,200,33920,5,2,0:0:0:0:
187,254,34074,1,2,0:0:0:0:
372,116,34228,5,8,0:0:0:0:
375,103,34536,5,0,0:0:0:0:
378,90,34843,5,8,0:0:0:0:
212,144,34997,1,8,0:0:0:0:
397,6,35151,5,8,0:0:0:0:
394,19,35459,5,0,0:0:0:0:
391,32,35766,6,0,L|259:14,1,90,8|0,0:0|0:0,0:0:0:0:
211,8,36074,1,8,0:0:0:0:
281,174,36228,1,8,0:0:0:0:
299,150,36305,1,0,0:0:0:0:
317,126,36382,1,0,0:0:0:0:
335,102,36459,1,0,0:0:0:0:
354,78,36536,1,8,0:0:0:0:
372,55,36613,1,0,0:0:0:0:
390,31,36690,5,8,0:0:0:0:
437,110,36997,5,0,0:0:0:0:
483,188,37305,5,0,0:0:0:0:
390,31,37613,6,0,P|247:45|194:163,1,270,4|0,0:1|0:0,0:0:0:0:
122,31,39459,6,0,P|265:45|318:163,1,270,8|0,0:0|0:0,0:0:0:0:
178,322,40690,6,0,L|171:267,1,45,2|2,0:0|0:0,0:0:0:0:
172,277,40920,1,8,0:0:0:0:
172,277,40997,1,8,0:0:0:0:
248,367,41305,6,0,L|288:261,2,90,10|2|2,0:0|0:0|0:0,0:0:0:0:
310,197,42228,2,0,L|341:112,2,90,10|2|2,0:0|0:0|0:0,0:0:0:0:
372,27,43151,5,2,0:0:0:0:
228,217,43459,1,2,0:0:0:0:
456,147,43766,1,2,0:0:0:0:
230,68,44074,1,2,0:0:0:0:
367,263,44382,1,2,0:0:0:0:
372,27,44690,1,2,0:0:0:0:
140,357,44997,6,0,L|197:367,1,45,8|0,0:0|0:0,0:0:0:0:
114,284,45151,2,0,L|69:291,1,45,8|0,0:0|0:0,0:0:0:0:
18,358,45305,2,0,L|75:368,1,45,0|0,0:0|0:0,0:0:0:0:
192,293,45459,1,8,0:0:0:0:
219,281,45536,1,0,0:0:0:0:
249,279,45613,1,8,0:0:0:0:
278,285,45690,1,0,0:0:0:0:
304,301,45766,1,8,0:0:0:0:
324,323,45843,1,8,0:0:0:0:
336,350,45920,6,0,L|408:342,3,45,8|0|2|0,0:0|0:0|0:0|0:0,0:0:0:0:
378,254,46228,1,8,0:0:0:0:
385,232,46305,1,0,0:0:0:0:
392,211,46382,1,2,0:0:0:0:
399,189,46459,1,0,0:0:0:0:
406,167,46536,2,0,L|524:153,1,90,8|2,0:0|0:0,0:0:0:0:
346,108,46843,6,0,L|302:113,1,45,8|0,0:0|0:0,0:0:0:0:
229,199,46997,2,0,L|274:204,1,45,8|8,0:0|0:0,0:0:0:0:
353,90,47151,2,0,L|308:94,1,45,10|0,0:0|0:0,0:0:0:0:
222,216,47305,5,8,0:0:0:0:
251,219,47382,1,0,0:0:0:0:
281,222,47459,1,8,0:0:0:0:
311,225,47536,1,0,0:0:0:0:
341,229,47613,1,8,0:0:0:0:
371,232,47690,1,0,0:0:0:0:
400,235,47766,6,0,L|420:310,1,45,2|0,0:0|0:0,0:0:0:0:
330,359,47920,1,8,0:0:0:0:
330,359,47997,1,8,0:0:0:0:
330,359,48074,2,0,L|341:315,1,45,2|0,0:0|0:0,0:0:0:0:
288,138,48228,1,8,0:0:0:0:
288,138,48305,1,8,0:0:0:0:
288,138,48382,2,0,L|318:257,1,90,2|8,0:0|0:0,0:0:0:0:
406,109,48690,6,0,L|336:126,1,45,2|0,0:0|0:0,0:0:0:0:
269,54,48843,2,0,L|225:42,1,45,8|8,0:0|0:0,0:0:0:0:
132,109,48997,2,0,L|41:132,1,90,8|8,0:0|0:0,0:0:0:0:
44,131,49228,1,0,0:0:0:0:
44,131,49305,2,0,L|134:154,1,90,8|8,0:0|0:0,0:0:0:0:
288,138,49613,6,0,L|309:221,1,45,10|0,0:0|0:0,0:0:0:0:
194,241,49766,1,0,0:0:0:0:
194,241,49843,1,0,0:0:0:0:
194,241,49920,2,0,L|162:361,1,90,10|0,0:0|0:0,0:0:0:0:
257,301,50151,1,0,0:0:0:0:
257,301,50228,2,0,L|327:291,1,45,8|0,0:0|0:0,0:0:0:0:
406,244,50382,2,0,L|362:238,1,45,8|0,0:0|0:0,0:0:0:0:
267,130,50536,5,8,0:0:0:0:
270,144,50613,1,0,0:0:0:0:
274,159,50690,1,0,0:0:0:0:
278,173,50766,1,0,0:0:0:0:
281,188,50843,1,2,0:0:0:0:
285,202,50920,1,0,0:0:0:0:
288,217,50997,1,8,0:0:0:0:
299,197,51074,1,0,0:0:0:0:
314,180,51151,1,0,0:0:0:0:
333,169,51228,1,0,0:0:0:0:
355,164,51305,1,2,0:0:0:0:
378,165,51382,1,0,0:0:0:0:
399,172,51459,6,0,L|407:230,3,45,8|0|8|0,0:0|0:0|0:0|0:0,0:0:0:0:
479,168,51766,2,0,L|473:124,3,45,8|0|8|0,0:0|0:0|0:0|0:0,0:0:0:0:
388,46,52074,2,0,L|396:104,3,45,2|0|2|0,0:0|0:0|0:0|0:0,0:0:0:0:
459,3,52382,5,2,0:0:0:0:
459,3,52536,1,8,0:0:0:0:
459,3,52690,1,8,0:0:0:0:
459,3,52843,1,2,0:0:0:0:
388,46,52997,5,8,0:0:0:0:
388,46,53151,1,8,0:0:0:0:
334,177,53305,5,2,0:0:0:0:
334,177,53459,1,8,0:0:0:0:
334,177,53613,1,8,0:0:0:0:
334,177,53766,1,2,0:0:0:0:
405,134,53920,5,8,0:0:0:0:
405,134,54074,1,8,0:0:0:0:
351,265,54228,5,2,0:0:0:0:
209,351,54382,1,10,0:0:0:0:
422,222,54690,5,2,0:0:0:0:
280,308,54843,1,10,0:0:0:0:
493,179,55151,5,10,0:0:0:0:
209,351,55459,1,10,0:0:0:0:
476,91,55766,1,8,0:0:0:0:
192,263,56074,6,0,P|201:195|335:164,1,215.999993408203,4|0,0:1|0:0,0:0:0:0:
192,263,56997,6,0,P|165:199|266:105,1,215.999993408203,4|0,0:1|0:0,0:0:0:0:
192,263,57920,6,0,P|137:221|177:89,1,215.999993408203,4|0,0:1|0:0,0:0:0:0:
192,263,58843,6,0,L|24:283,1,161.999995056153,4|8,0:1|0:0,0:0:0:0:
31,282,59382,1,8,0:0:0:0:
31,282,59459,1,10,0:0:0:0:
266,145,59766,5,8,0:0:0:0:
210,315,59920,1,0,0:0:0:0:
413,193,60074,1,8,0:0:0:0:
238,230,60228,1,8,0:0:0:0:
444,344,60382,1,8,0:0:0:0:
266,145,60536,1,2,0:0:0:0:
129,361,60690,5,8,0:0:0:0:
325,211,60843,1,0,0:0:0:0:
117,96,60997,1,8,0:0:0:0:
297,296,61151,1,8,0:0:0:0:
387,27,61305,1,8,0:0:0:0:
210,315,61459,1,2,0:0:0:0:
473,257,61613,5,8,0:0:0:0:
230,0,61766,1,0,0:0:0:0:
129,361,61920,1,8,0:0:0:0:
353,126,62074,1,8,0:0:0:0:
28,111,62228,1,8,0:0:0:0:
266,383,62382,1,2,0:0:0:0:
387,27,62536,5,8,0:1:0:0:
238,230,62690,1,2,0:0:0:0:
473,256,62843,2,0,P|486:214|472:172,1,90,8|0,0:1|0:0,0:0:0:0:
39,172,63151,2,0,P|25:214|38:256,1,90,8|0,0:1|0:0,0:0:0:0:
397,353,63459,6,0,L|378:237,1,90,8|0,0:0|0:0,0:0:0:0:
115,31,63766,2,0,L|134:147,1,90,8|0,0:0|0:0,0:0:0:0:
115,353,64074,2,0,L|134:237,1,90,8|0,0:0|0:0,0:0:0:0:
397,31,64382,6,0,L|378:147,1,90,8|0,0:0|0:0,0:0:0:0:
213,182,64690,2,0,L|297:150,1,90,8|0,0:0|0:0,0:0:0:0:
435,265,64997,2,0,L|365:207,1,90,8|0,0:0|0:0,0:0:0:0:
228,93,65305,6,0,L|209:209,1,90,8|0,0:0|0:0,0:0:0:0:
44,244,65613,2,0,L|128:212,1,90,2|8,0:0|0:0,0:0:0:0:
266,327,65920,2,0,L|196:269,1,90,0|2,0:0|0:0,0:0:0:0:
58,155,66228,6,0,L|39:271,1,90,8|0,0:0|0:0,0:0:0:0:
228,93,66536,2,0,L|209:209,1,90,8|0,0:0|0:0,0:0:0:0:
397,31,66843,2,0,L|378:147,1,90,8|0,0:0|0:0,0:0:0:0:
126,353,67151,6,0,L|140:264,1,90,8|0,0:0|0:0,0:0:0:0:
310,202,67459,2,0,L|295:290,1,90,8|0,0:0|0:0,0:0:0:0:
464,228,67766,2,0,L|479:140,1,90,8|0,0:0|0:0,0:0:0:0:
163,47,68074,6,0,P|163:91|186:129,1,90,8|0,0:0|0:0,0:0:0:0:
348,47,68382,2,0,P|348:91|325:129,1,90,8|0,0:0|0:0,0:0:0:0:
84,199,68690,6,0,P|122:221|167:221,1,90,8|0,0:0|0:0,0:0:0:0:
427,199,68997,2,0,P|389:221|344:221,1,90,8|0,0:0|0:0,0:0:0:0:
84,322,69305,6,0,L|184:304,1,90,8|0,0:0|0:0,0:0:0:0:
428,322,69613,2,0,L|328:304,1,90,8|0,0:0|0:0,0:0:0:0:
0,192,69920,5,8,0:0:0:0:
512,192,70228,1,8,0:0:0:0:
120,16,70536,5,8,0:0:0:0:
123,45,70613,1,0,0:0:0:0:
127,75,70690,1,0,0:0:0:0:
131,105,70766,1,0,0:0:0:0:
134,135,70843,1,2,0:0:0:0:
137,164,71151,5,8,0:0:0:0:
232,72,71305,1,8,0:0:0:0:
325,263,71459,1,8,0:0:0:0:
195,282,71613,1,0,0:0:0:0:
348,132,71766,2,0,B|388:111|388:111|447:119,1,90,8|0,0:0|0:0,0:0:0:0:
417,39,72074,2,0,B|373:33|373:33|333:55,1,90,8|0,0:0|0:0,0:0:0:0:
95,39,72382,2,0,B|138:33|138:33|178:55,1,90,8|8,0:0|0:0,0:0:0:0:
163,132,72690,6,0,B|124:111|124:111|65:119,1,90,2|0,0:0|0:0,0:0:0:0:
337,343,72997,1,8,0:0:0:0:
320,71,73151,1,8,0:0:0:0:
173,300,73305,1,8,0:0:0:0:
427,200,73459,1,8,0:0:0:0:
163,132,73613,5,8,0:0:0:0:
152,136,73690,1,0,0:0:0:0:
143,142,73766,1,8,0:0:0:0:
134,149,73843,1,0,0:0:0:0:
127,158,73920,1,8,0:0:0:0:
120,167,73997,1,8,0:0:0:0:
115,177,74074,1,8,0:0:0:0:
112,188,74151,1,0,0:0:0:0:
110,199,74228,1,10,0:0:0:0:
109,210,74305,1,8,0:0:0:0:
110,221,74382,1,8,0:0:0:0:
112,232,74459,1,8,0:0:0:0:
116,243,74536,5,2,0:0:0:0:
274,35,75151,5,8,0:0:0:0:
239,118,75459,6,0,L|316:106,1,67.5000025749208,0|8,0:0|0:0,0:0:0:0:
206,201,75766,1,0,0:0:0:0:
172,284,76074,1,0,0:0:0:0:
138,367,76382,5,8,0:0:0:0:
152,370,76459,1,0,0:0:0:0:
167,373,76536,1,0,0:0:0:0:
182,373,76613,1,0,0:0:0:0:
197,372,76690,1,2,0:0:0:0:
211,369,76766,1,0,0:0:0:0:
226,366,76843,1,8,0:0:0:0:
241,363,76920,1,0,0:0:0:0:
256,361,76997,1,0,0:0:0:0:
271,361,77074,1,0,0:0:0:0:
285,364,77151,1,2,0:0:0:0:
300,367,77228,1,0,0:0:0:0:
314,372,77305,6,0,L|329:314,1,45,8|0,0:0|0:0,0:0:0:0:
250,285,77459,2,0,L|235:227,1,45,8|0,0:0|0:0,0:0:0:0:
338,144,77613,1,4,0:0:0:0:
338,144,77920,5,8,0:0:0:0:
339,155,77997,1,8,0:0:0:0:
340,166,78074,1,8,0:0:0:0:
341,177,78151,1,8,0:0:0:0:
342,188,78228,5,10,0:0:0:0:
386,191,78305,1,0,0:0:0:0:
420,219,78382,1,8,0:0:0:0:
431,262,78459,1,8,0:0:0:0:
415,303,78536,1,8,0:0:0:0:
378,328,78613,1,0,0:0:0:0:
334,326,78690,1,2,0:0:0:0:
299,299,78766,1,0,0:0:0:0:
286,257,78843,1,8,0:0:0:0:
293,212,78920,1,0,0:0:0:0:
300,168,78997,1,8,0:0:0:0:
307,124,79074,1,0,0:0:0:0:
314,79,79151,5,10,0:0:0:0:
297,39,79228,1,0,0:0:0:0:
257,19,79305,1,2,0:0:0:0:
214,28,79382,1,0,0:0:0:0:
186,62,79459,1,8,0:0:0:0:
186,106,79536,1,0,0:0:0:0:
214,140,79613,1,2,0:0:0:0:
257,150,79690,1,0,0:0:0:0:
300,144,79766,1,8,0:0:0:0:
338,168,79843,1,0,0:0:0:0:
350,210,79920,1,8,0:0:0:0:
332,250,79997,1,0,0:0:0:0:
292,269,80074,5,10,0:0:0:0:
250,257,80151,1,0,0:0:0:0:
226,219,80228,1,2,0:0:0:0:
227,175,80305,1,0,0:0:0:0:
251,138,80382,1,8,0:0:0:0:
292,120,80459,1,0,0:0:0:0:
336,127,80536,1,2,0:0:0:0:
369,156,80613,1,0,0:0:0:0:
390,195,80690,1,8,0:0:0:0:
392,240,80766,1,0,0:0:0:0:
375,281,80843,1,8,0:0:0:0:
342,311,80920,1,0,0:0:0:0:
302,331,80997,5,8,0:0:0:0:
284,276,81074,1,0,0:0:0:0:
236,245,81151,1,8,0:0:0:0:
178,251,81228,1,8,0:0:0:0:
137,291,81305,1,8,0:0:0:0:
80,303,81382,1,0,0:0:0:0:
28,279,81459,1,8,0:0:0:0:
3,228,81536,1,0,0:0:0:0:
13,172,81613,1,8,0:0:0:0:
57,135,81690,1,8,0:0:0:0:
115,134,81766,1,8,0:0:0:0:
162,167,81843,1,8,0:0:0:0:
180,218,81920,5,10,0:0:0:0:
208,252,81997,1,0,0:0:0:0:
247,273,82074,1,2,0:0:0:0:
292,276,82151,1,0,0:0:0:0:
334,262,82228,1,8,0:0:0:0:
367,232,82305,1,0,0:0:0:0:
386,191,82382,1,2,0:0:0:0:
383,148,82459,1,0,0:0:0:0:
349,120,82536,1,8,0:0:0:0:
306,125,82613,1,0,0:0:0:0:
279,160,82690,1,8,0:0:0:0:
281,203,82766,1,0,0:0:0:0:
299,245,82843,5,10,0:0:0:0:
330,277,82920,1,0,0:0:0:0:
371,296,82997,1,2,0:0:0:0:
415,298,83074,1,0,0:0:0:0:
457,283,83151,1,8,0:0:0:0:
485,249,83228,1,0,0:0:0:0:
491,205,83305,1,2,0:0:0:0:
472,164,83382,1,0,0:0:0:0:
436,139,83459,1,8,0:0:0:0:
391,136,83536,1,0,0:0:0:0:
347,146,83613,1,8,0:0:0:0:
308,168,83690,1,0,0:0:0:0:
272,195,83766,5,10,0:0:0:0:
235,220,83843,1,0,0:0:0:0:
191,225,83920,1,2,0:0:0:0:
150,208,83997,1,0,0:0:0:0:
121,174,84074,1,8,0:0:0:0:
111,131,84151,1,0,0:0:0:0:
123,88,84228,1,2,0:0:0:0:
154,55,84305,1,0,0:0:0:0:
196,41,84382,1,8,0:0:0:0:
240,48,84459,1,0,0:0:0:0:
275,75,84536,1,8,0:0:0:0:
290,116,84613,1,0,0:0:0:0:
284,159,84690,5,10,0:0:0:0:
278,168,84766,1,8,0:0:0:0:
273,178,84843,1,8,0:0:0:0:
269,189,84920,1,0,0:0:0:0:
267,200,84997,1,8,0:0:0:0:
266,211,85074,1,8,0:0:0:0:
265,222,85151,1,8,0:0:0:0:
267,233,85228,1,0,0:0:0:0:
269,244,85305,1,8,0:0:0:0:
273,255,85382,1,8,0:0:0:0:
277,265,85459,1,8,0:0:0:0:
283,275,85536,1,0,0:0:0:0:
290,284,85613,6,0,L|352:278,1,45,8|0,0:0|0:0,0:0:0:0:
357,207,85766,2,0,L|413:232,3,45,8|0|2|0,0:0|0:0|0:0|0:0,0:0:0:0:
453,173,86074,2,0,L|489:223,1,45,8|0,0:0|0:0,0:0:0:0:
379,87,86228,2,0,L|385:147,3,45,8|0|2|0,0:0|0:0|0:0|0:0,0:0:0:0:
475,34,86536,6,0,L|441:135,2,60,8|8|8,0:0|0:0|0:0,0:0:0:0:
302,56,86843,2,0,L|313:161,1,90,4|0,0:0|0:0,0:0:0:0:
210,328,87151,2,0,L|198:222,1,90,4|0,0:0|0:0,0:0:0:0:
379,87,87459,5,8,0:0:0:0:
123,207,87613,1,8,0:0:0:0:
302,56,87766,1,8,0:0:0:0:
200,238,87920,1,8,0:0:0:0:
367,4,88074,1,8,0:0:0:0:
135,290,88228,1,8,0:0:0:0:
456,118,88382,1,8,0:0:0:0:
