osu file format v14

[General]
AudioFilename: audio.mp3
AudioLeadIn: 0
PreviewTime: 8039
Countdown: 0
SampleSet: None
StackLeniency: 0.7
Mode: 0
LetterboxInBreaks: 0
WidescreenStoryboard: 0

[Editor]
Bookmarks: 690,9001,10849,13927,33937,36708,50561,51485,52408,56103,62875,63491
DistanceSpacing: 1.2
BeatDivisor: 8
GridSize: 8
TimelineZoom: 3.999998

[Metadata]
Title:Inferno
TitleUnicode:インフェルノ
Artist:9mm Parabellum Bullet
ArtistUnicode:9mm Parabellum Bullet
Creator:Monstrata
Version:The Eclipse
Source:ベルセルク
Tags:BERSERK guts casca griffith 2016 tv size opening
BeatmapID:1028733
BeatmapSetID:482090

[Difficulty]
HPDrainRate:7
CircleSize:5
OverallDifficulty:10
ApproachRate:10
SliderMultiplier:2
SliderTickRate:1

[Events]
//Background and Video events
0,0,"BERSERK.(Kentaro.Miura).full.1559669.jpg",0,0
//Break Periods
//Storyboard Layer 0 (Background)
//Storyboard Layer 1 (Fail)
//Storyboard Layer 2 (Pass)
//Storyboard Layer 3 (Foreground)
//Storyboard Sound Samples

[TimingPoints]
690,307.692307692308,3,3,1,90,1,0
8074,-200,3,3,0,50,0,0
11305,-200,3,3,1,75,0,0
11766,-100,3,3,1,90,0,0
22843,-133.333333333333,3,3,1,70,0,0
25766,-133.333333333333,3,3,0,50,0,0
26536,-133.333333333333,3,3,1,70,0,0
29459,-133.333333333333,3,3,0,50,0,0
30228,-133.333333333333,3,3,1,70,0,0
32382,-133.333333333333,3,3,0,70,0,0
32997,-133.333333333333,3,3,1,70,0,0
37613,-133.333333333333,3,3,1,35,0,0
40690,-200,3,3,0,35,0,0
41305,-200,3,3,1,50,0,0
44997,-100,3,3,1,90,0,0
56074,-166.666666666667,3,3,1,45,0,0
59766,-100,3,3,1,90,0,0
75459,-200,3,3,1,90,0,0
75613,-200,3,3,1,50,0,0
75766,-200,3,3,1,90,0,0
77305,-100,3,3,1,90,0,0
77920,-100,3,3,1,50,0,0
78228,-100,3,3,1,90,0,0
80997,-95.2380952380952,3,3,1,90,0,0
81920,-100,3,3,1,90,0,0
85305,-100,3,3,0,70,0,0
85382,-100,3,3,1,90,0,0
86536,-100,3,3,0,70,0,0
87459,-100,3,3,1,100,0,0

[Colours]
Combo1 : 182,156,214
Combo2 : 227,172,187
Combo3 : 227,182,136
Combo4 : 157,172,221

[HitObjects]
224,104,690,5,8,0:0:0:0:
225,141,766,1,0,0:0:0:0:
227,178,843,1,0,0:0:0:0:
229,216,920,1,0,0:0:0:0:
231,253,997,1,2,0:0:0:0:
306,173,1151,1,8,0:0:0:0:
152,258,1305,1,8,0:0:0:0:
224,104,1459,1,2,0:0:0:0:
310,248,1613,5,8,0:0:0:0:
330,244,1690,1,0,0:0:0:0:
349,236,1766,1,0,0:0:0:0:
367,225,1843,1,0,0:0:0:0:
382,211,1920,1,8,0:0:0:0:
394,194,1997,1,0,0:0:0:0:
403,175,2074,1,0,0:0:0:0:
408,155,2151,1,0,0:0:0:0:
409,134,2228,2,0,L|536:140,1,100,4|0,0:0|0:0,0:0:0:0:
374,60,2536,5,8,0:0:0:0:
310,248,2690,2,0,L|325:304,2,50,0|0|2,0:0|0:0|0:0,0:0:0:0:
137,60,2997,1,8,0:0:0:0:
202,248,3151,2,0,L|187:304,2,50,8|0|2,0:0|0:0|0:0,0:0:0:0:
255,111,3459,5,8,0:0:0:0:
284,99,3536,1,0,0:0:0:0:
314,95,3613,1,0,0:0:0:0:
345,99,3690,1,0,0:0:0:0:
375,109,3766,1,8,0:0:0:0:
405,119,3843,1,0,0:0:0:0:
436,121,3920,1,0,0:0:0:0:
466,116,3997,1,0,0:0:0:0:
495,105,4074,2,0,P|521:63|507:17,1,100,4|0,0:0|0:0,0:0:0:0:
112,32,4382,5,8,0:0:0:0:
355,243,4536,1,8,0:0:0:0:
355,243,4613,1,0,0:0:0:0:
355,243,4690,1,2,0:0:0:0:
400,32,4843,1,8,0:0:0:0:
157,243,4997,1,8,0:0:0:0:
157,243,5074,1,0,0:0:0:0:
157,243,5151,1,2,0:0:0:0:
483,369,5305,5,8,0:0:0:0:
495,330,5382,1,0,0:0:0:0:
498,289,5459,1,2,0:0:0:0:
489,250,5536,1,0,0:0:0:0:
472,213,5613,1,8,0:0:0:0:
456,176,5690,1,0,0:0:0:0:
452,135,5766,1,0,0:0:0:0:
460,96,5843,1,0,0:0:0:0:
477,59,5920,2,0,B|443:78|443:78|335:74,1,100,4|0,0:0|0:0,0:0:0:0:
77,231,6228,5,8,0:0:0:0:
415,285,6382,1,8,0:0:0:0:
415,285,6459,1,0,0:0:0:0:
415,285,6536,1,2,0:0:0:0:
174,43,6690,1,8,0:0:0:0:
227,381,6843,1,8,0:0:0:0:
227,381,6920,1,0,0:0:0:0:
227,381,6997,1,2,0:0:0:0:
381,75,7151,5,8,0:0:0:0:
414,78,7228,1,0,0:0:0:0:
442,96,7305,1,0,0:0:0:0:
457,125,7382,1,0,0:0:0:0:
456,158,7459,1,8,0:0:0:0:
439,186,7536,1,0,0:0:0:0:
411,202,7613,1,0,0:0:0:0:
378,207,7690,1,0,0:0:0:0:
345,204,7766,1,8,0:0:0:0:
313,193,7843,1,0,0:0:0:0:
281,186,7920,1,0,0:0:0:0:
248,191,7997,1,0,0:0:0:0:
217,203,8074,6,0,P|195:274|296:300,1,200,2|0,0:0|0:0,0:0:0:0:
304,101,8997,2,0,L|293:310,1,200,2|0,0:0|0:0,0:0:0:0:
104,111,9920,2,0,L|313:100,1,200,10|0,0:0|0:0,0:0:0:0:
481,160,10843,6,0,P|444:99|392:133,1,150,6|0,0:0|0:0,0:0:0:0:
391,133,11382,1,8,0:0:0:0:
391,133,11459,1,8,0:0:0:0:
232,294,11766,5,8,0:0:0:0:
333,171,11920,1,0,0:0:0:0:
172,148,12074,1,8,0:0:0:0:
232,294,12228,1,8,0:0:0:0:
300,95,12382,1,8,0:0:0:0:
151,282,12536,1,2,0:0:0:0:
415,366,12690,5,8,0:0:0:0:
251,158,12843,1,0,0:0:0:0:
42,370,12997,1,8,0:0:0:0:
281,231,13151,1,8,0:0:0:0:
103,32,13305,1,8,0:0:0:0:
232,294,13459,1,2,0:0:0:0:
407,0,13613,5,8,0:0:0:0:
123,210,13766,1,0,0:0:0:0:
472,329,13920,1,8,0:0:0:0:
221,85,14074,1,8,0:0:0:0:
0,350,14228,1,8,0:0:0:0:
390,159,14382,1,2,0:0:0:0:
19,0,14536,6,0,L|62:95,1,100,8|0,0:1|0:0,0:0:0:0:
493,0,14843,2,0,L|450:95,1,100,8|0,0:1|0:0,0:0:0:0:
0,192,15151,2,0,L|104:174,1,100,8|0,0:1|0:0,0:0:0:0:
379,105,15459,5,2,0:0:0:0:
357,92,15536,1,0,0:0:0:0:
333,84,15613,1,2,0:0:0:0:
309,81,15690,1,0,0:0:0:0:
284,83,15766,1,8,0:0:0:0:
260,90,15843,1,0,0:0:0:0:
238,102,15920,1,2,0:0:0:0:
219,118,15997,1,0,0:0:0:0:
203,137,16074,5,8,0:0:0:0:
216,157,16151,1,0,0:0:0:0:
226,180,16228,1,8,0:0:0:0:
231,205,16305,1,0,0:0:0:0:
231,230,16382,5,10,0:0:0:0:
255,223,16459,1,0,0:0:0:0:
280,221,16536,1,2,0:0:0:0:
304,222,16613,1,0,0:0:0:0:
329,226,16690,1,8,0:0:0:0:
354,230,16766,1,0,0:0:0:0:
379,233,16843,1,2,0:0:0:0:
404,232,16920,1,0,0:0:0:0:
428,228,16997,5,8,0:0:0:0:
424,252,17074,1,0,0:0:0:0:
421,277,17151,1,8,0:0:0:0:
417,302,17228,1,0,0:0:0:0:
414,327,17305,5,10,0:0:0:0:
394,311,17382,1,0,0:0:0:0:
372,299,17459,1,2,0:0:0:0:
349,289,17536,1,0,0:0:0:0:
325,282,17613,1,8,0:0:0:0:
300,278,17690,1,0,0:0:0:0:
275,277,17766,1,2,0:0:0:0:
250,280,17843,1,0,0:0:0:0:
226,285,17920,1,8,0:0:0:0:
202,293,17997,1,0,0:0:0:0:
180,304,18074,1,8,0:0:0:0:
159,318,18151,1,0,0:0:0:0:
140,334,18228,5,8,0:0:0:0:
92,322,18305,1,0,0:0:0:0:
59,285,18382,1,8,0:0:0:0:
52,236,18459,1,8,0:0:0:0:
75,193,18536,1,8,0:0:0:0:
118,169,18613,1,0,0:0:0:0:
167,174,18690,1,8,0:0:0:0:
204,206,18766,1,8,0:0:0:0:
243,235,18843,1,8,0:0:0:0:
292,232,18920,1,8,0:0:0:0:
327,198,18997,1,8,0:0:0:0:
331,149,19074,1,0,0:0:0:0:
302,110,19151,5,10,0:0:0:0:
333,131,19228,1,0,0:0:0:0:
368,143,19305,1,2,0:0:0:0:
406,144,19382,1,0,0:0:0:0:
441,133,19459,1,8,0:0:0:0:
472,113,19536,1,0,0:0:0:0:
496,84,19613,1,2,0:0:0:0:
510,49,19690,1,0,0:0:0:0:
512,12,19766,5,8,0:0:0:0:
477,26,19843,1,0,0:0:0:0:
443,41,19920,1,8,0:0:0:0:
408,56,19997,1,0,0:0:0:0:
374,71,20074,5,10,0:0:0:0:
388,105,20151,1,0,0:0:0:0:
396,142,20228,1,2,0:0:0:0:
391,179,20305,1,0,0:0:0:0:
378,214,20382,1,8,0:0:0:0:
366,249,20459,1,0,0:0:0:0:
366,286,20536,1,2,0:0:0:0:
377,322,20613,1,0,0:0:0:0:
395,355,20690,5,8,0:0:0:0:
407,320,20766,1,0,0:0:0:0:
436,298,20843,1,8,0:0:0:0:
473,295,20920,1,0,0:0:0:0:
505,313,20997,5,10,0:0:0:0:
477,338,21074,1,0,0:0:0:0:
446,358,21151,1,2,0:0:0:0:
412,374,21228,1,0,0:0:0:0:
376,385,21305,1,8,0:0:0:0:
338,390,21382,1,0,0:0:0:0:
301,389,21459,1,2,0:0:0:0:
264,383,21536,1,0,0:0:0:0:
228,371,21613,1,8,0:0:0:0:
195,354,21690,1,0,0:0:0:0:
165,332,21766,1,8,0:0:0:0:
138,306,21843,1,0,0:0:0:0:
115,276,21920,5,8,0:0:0:0:
157,285,21997,1,8,0:0:0:0:
197,270,22074,1,0,0:0:0:0:
224,236,22151,1,8,0:0:0:0:
228,193,22228,1,8,0:0:0:0:
209,154,22305,1,0,0:0:0:0:
173,132,22382,1,8,0:0:0:0:
129,132,22459,1,0,0:0:0:0:
93,155,22536,5,8,0:0:0:0:
94,163,22613,1,0,0:0:0:0:
95,171,22690,1,8,0:0:0:0:
96,179,22766,1,0,0:0:0:0:
97,187,22843,5,4,0:0:0:0:
84,81,22997,1,0,0:0:0:0:
158,72,23151,1,8,0:0:0:0:
166,71,23228,1,0,0:0:0:0:
174,70,23305,1,0,0:0:0:0:
182,69,23382,1,0,0:0:0:0:
190,68,23459,1,8,0:0:0:0:
198,67,23536,1,0,0:0:0:0:
206,66,23613,1,0,0:0:0:0:
214,65,23690,1,0,0:0:0:0:
222,64,23766,5,2,0:0:0:0:
279,128,24074,5,2,0:0:0:0:
222,192,24382,5,2,0:0:0:0:
279,256,24690,5,8,0:0:0:0:
280,264,24766,1,0,0:0:0:0:
281,272,24843,1,0,0:0:0:0:
366,190,24997,1,8,0:0:0:0:
365,198,25074,1,8,0:0:0:0:
364,206,25151,1,8,0:0:0:0:
363,214,25228,1,0,0:0:0:0:
362,222,25305,1,0,0:0:0:0:
361,230,25382,1,0,0:0:0:0:
360,238,25459,1,8,0:0:0:0:
359,246,25536,1,0,0:0:0:0:
358,254,25613,5,8,0:0:0:0:
256,56,25766,1,8,0:0:0:0:
333,38,25920,1,0,0:0:0:0:
281,272,26074,1,8,0:0:0:0:
214,123,26228,1,4,0:0:0:0:
400,79,26382,1,0,0:0:0:0:
204,290,26536,5,8,0:0:0:0:
205,298,26613,1,0,0:0:0:0:
206,306,26690,1,8,0:0:0:0:
207,314,26766,1,8,0:0:0:0:
208,322,26843,2,0,L|282:316,1,75.0000028610231,8|0,0:0|0:0,0:0:0:0:
338,237,27151,2,0,L|264:243,1,75.0000028610231
129,295,27459,5,8,0:0:0:0:
130,303,27536,1,0,0:0:0:0:
131,311,27613,1,8,0:0:0:0:
132,319,27690,1,8,0:0:0:0:
133,327,27766,2,0,L|207:321,1,75.0000028610231,8|0,0:0|0:0,0:0:0:0:
367,159,28074,2,0,L|292:164,1,75.0000028610231
33,252,28382,5,8,0:0:0:0:
34,260,28459,1,0,0:0:0:0:
35,268,28536,1,0,0:0:0:0:
120,186,28690,1,8,0:0:0:0:
119,194,28766,1,0,0:0:0:0:
118,202,28843,1,8,0:0:0:0:
117,210,28920,1,0,0:0:0:0:
116,218,28997,1,0,0:0:0:0:
115,226,29074,1,0,0:0:0:0:
114,234,29151,1,8,0:0:0:0:
113,242,29228,1,0,0:0:0:0:
112,250,29305,5,8,0:0:0:0:
61,77,29459,1,8,0:0:0:0:
138,59,29613,1,0,0:0:0:0:
35,268,29766,1,8,0:0:0:0:
83,1,29920,1,4,0:0:0:0:
189,232,30074,1,0,0:0:0:0:
336,24,30228,6,0,L|436:36,1,75.0000028610231,8|0,0:0|0:0,0:0:0:0:
315,133,30536,2,0,L|407:93,1,75.0000028610231,8|0,0:0|0:0,0:0:0:0:
351,237,30843,2,0,L|411:156,1,75.0000028610231,8|0,0:0|0:0,0:0:0:0:
434,309,31151,6,0,L|446:209,1,75.0000028610231,8|0,0:0|0:0,0:0:0:0:
470,130,31459,2,0,L|463:182,1,37.5000014305115,8|0,0:0|0:0,0:0:0:0:
489,59,31613,1,2,0:0:0:0:
490,51,31690,1,2,0:0:0:0:
494,46,31766,1,6,0:0:0:0:
494,46,32074,6,0,L|441:39,1,37.5000014305115,8|0,0:0|0:0,0:0:0:0:
382,12,32228,1,0,0:0:0:0:
383,20,32305,1,8,0:0:0:0:
384,28,32382,1,8,0:0:0:0:
316,66,32536,1,8,0:0:0:0:
408,100,32690,1,4,0:0:0:0:
292,138,32843,1,0,0:0:0:0:
432,172,32997,5,2,0:0:0:0:
268,210,33151,1,2,0:0:0:0:
456,244,33305,1,8,0:0:0:0:
244,282,33459,1,8,0:0:0:0:
244,282,33536,1,8,0:0:0:0:
244,282,33613,1,8,0:0:0:0:
432,316,33766,1,0,0:0:0:0:
432,172,33920,5,2,0:0:0:0:
220,354,34074,1,2,0:0:0:0:
507,188,34228,2,0,L|488:292,1,75.0000028610231,8|0,0:0|0:0,0:0:0:0:
445,98,34536,2,0,L|426:202,1,75.0000028610231
383,8,34843,5,8,0:0:0:0:
379,26,34920,1,8,0:0:0:0:
376,44,34997,1,8,0:0:0:0:
372,63,35074,1,0,0:0:0:0:
369,81,35151,2,0,L|265:70,1,75.0000028610231,8|0,0:0|0:0,0:0:0:0:
431,171,35459,2,0,L|327:160,1,75.0000028610231
493,261,35766,5,8,0:0:0:0:
455,257,35843,1,0,0:0:0:0:
418,253,35920,1,0,0:0:0:0:
281,155,36074,1,8,0:0:0:0:
439,97,36228,1,8,0:0:0:0:
435,134,36305,1,0,0:0:0:0:
431,171,36382,1,0,0:0:0:0:
333,309,36536,1,8,0:0:0:0:
273,81,36690,5,8,0:0:0:0:
281,155,36997,5,0,0:0:0:0:
289,229,37305,5,0,0:0:0:0:
297,303,37613,5,4,0:1:0:0:
451,75,38536,1,0,0:0:0:0:
105,129,39459,1,8,0:0:0:0:
326,207,40382,1,0,0:0:0:0:
227,140,40690,6,0,L|294:125,1,50,2|8,0:0|0:3,0:0:0:0:
275,129,40920,1,8,0:3:0:0:
275,129,40997,1,8,0:3:0:0:
432,33,41305,6,0,P|447:81|438:130,2,100,10|2|2,0:0|0:0|0:0,0:0:0:0:
80,33,42228,2,0,P|65:81|74:130,2,100,10|2|2,0:0|0:0|0:0,0:0:0:0:
342,86,43151,5,2,0:0:0:0:
170,86,43459,1,2,0:0:0:0:
256,234,43766,1,2,0:0:0:0:
411,45,44074,5,2,0:0:0:0:
100,45,44382,1,2,0:0:0:0:
256,314,44690,1,2,0:0:0:0:
256,0,44997,5,8,0:0:0:0:
112,252,45151,2,0,L|211:230,1,100,8|0,0:0|0:0,0:0:0:0:
100,45,45459,1,8,0:0:0:0:
14,273,45613,1,8,0:0:0:0:
27,307,45690,1,0,0:0:0:0:
53,334,45766,1,8,0:0:0:0:
87,349,45843,1,8,0:0:0:0:
124,351,45920,5,8,0:0:0:0:
113,315,45997,1,0,0:0:0:0:
120,279,46074,1,2,0:0:0:0:
144,250,46151,1,0,0:0:0:0:
179,237,46228,1,8,0:0:0:0:
216,241,46305,1,0,0:0:0:0:
246,263,46382,1,2,0:0:0:0:
262,296,46459,1,0,0:0:0:0:
260,333,46536,2,0,P|307:349|353:333,1,100,8|2,0:0|0:0,0:0:0:0:
166,84,46843,5,8,0:0:0:0:
189,313,46997,1,8,0:0:0:0:
191,337,47074,1,8,0:0:0:0:
194,362,47151,1,10,0:0:0:0:
278,186,47305,1,8,0:0:0:0:
275,210,47382,1,0,0:0:0:0:
272,235,47459,1,8,0:0:0:0:
269,259,47536,1,0,0:0:0:0:
266,284,47613,1,8,0:0:0:0:
263,308,47690,1,0,0:0:0:0:
260,333,47766,5,2,0:0:0:0:
294,318,47843,1,0,0:0:0:0:
329,303,47920,1,8,0:0:0:0:
363,289,47997,1,8,0:0:0:0:
397,276,48074,5,2,0:0:0:0:
367,253,48151,1,0,0:0:0:0:
337,231,48228,1,8,0:0:0:0:
307,208,48305,1,8,0:0:0:0:
278,186,48382,5,2,0:0:0:0:
312,171,48459,1,0,0:0:0:0:
347,156,48536,1,8,0:0:0:0:
381,142,48613,1,8,0:0:0:0:
415,129,48690,5,2,0:0:0:0:
413,141,48766,1,0,0:0:0:0:
412,153,48843,1,8,0:0:0:0:
410,166,48920,1,8,0:0:0:0:
409,178,48997,1,8,0:0:0:0:
335,71,49151,1,8,0:0:0:0:
487,44,49305,1,8,0:0:0:0:
485,56,49382,1,0,0:0:0:0:
484,68,49459,1,8,0:0:0:0:
482,81,49536,1,8,0:0:0:0:
481,93,49613,5,10,0:0:0:0:
467,78,49690,1,0,0:0:0:0:
450,66,49766,1,0,0:0:0:0:
432,57,49843,1,0,0:0:0:0:
412,52,49920,1,10,0:0:0:0:
392,51,49997,1,0,0:0:0:0:
372,54,50074,1,0,0:0:0:0:
353,60,50151,1,0,0:0:0:0:
335,70,50228,6,0,L|344:153,1,50,8|0,0:0|0:0,0:0:0:0:
239,170,50382,2,0,L|230:253,1,50,8|0,0:0|0:0,0:0:0:0:
320,333,50536,5,8,0:0:0:0:
352,338,50613,1,0,0:0:0:0:
384,331,50690,1,0,0:0:0:0:
411,311,50766,1,0,0:0:0:0:
427,282,50843,1,2,0:0:0:0:
430,249,50920,1,0,0:0:0:0:
420,218,50997,5,8,0:0:0:0:
387,223,51074,1,0,0:0:0:0:
355,216,51151,1,0,0:0:0:0:
328,196,51228,1,0,0:0:0:0:
312,167,51305,1,2,0:0:0:0:
309,134,51382,1,0,0:0:0:0:
319,103,51459,6,0,P|341:88|387:88,3,50,8|0|8|0,0:0|0:0|0:0|0:0,0:0:0:0:
227,163,51766,2,0,P|202:157|182:142,3,50,8|0|8|0,0:0|0:0|0:0|0:0,0:0:0:0:
227,38,52074,2,0,L|238:87,3,50,2|0|2|0,0:0|0:0|0:0|0:0,0:0:0:0:
285,288,52382,5,2,0:0:0:0:
296,218,52536,1,8,0:0:0:0:
307,148,52690,1,8,0:0:0:0:
175,199,52843,5,2,0:0:0:0:
230,243,52997,1,8,0:0:0:0:
285,288,53151,1,8,0:0:0:0:
307,148,53305,5,2,0:0:0:0:
240,173,53459,1,8,0:0:0:0:
175,199,53613,1,8,0:0:0:0:
285,288,53766,5,2,0:0:0:0:
296,218,53920,1,8,0:0:0:0:
307,148,54074,1,8,0:0:0:0:
175,199,54228,5,2,0:0:0:0:
362,192,54382,1,10,0:0:0:0:
109,225,54690,5,2,0:0:0:0:
428,166,54843,1,10,0:0:0:0:
43,251,55151,5,10,0:0:0:0:
494,140,55459,1,10,0:0:0:0:
28,180,55766,1,8,0:0:0:0:
512,211,56074,6,0,P|488:282|358:242,1,239.999992675781,4|0,0:1|0:0,0:0:0:0:
434,225,56997,2,0,P|415:298|285:268,1,239.999992675781,4|0,0:1|0:0,0:0:0:0:
358,244,57920,2,0,P|344:318|212:297,1,239.999992675781,4|0,0:1|0:0,0:0:0:0:
286,147,58843,6,0,L|284:288,1,119.999996337891,4|0,0:1|0:0,0:0:0:0:
203,108,59305,1,8,0:0:0:0:
203,108,59382,1,8,0:0:0:0:
203,108,59459,1,10,0:0:0:0:
203,108,59766,5,8,0:0:0:0:
301,295,59920,1,0,0:0:0:0:
265,58,60074,1,8,0:0:0:0:
227,266,60228,1,8,0:0:0:0:
327,8,60382,1,8,0:0:0:0:
141,157,60536,1,2,0:0:0:0:
375,324,60690,5,8,0:0:0:0:
190,29,60843,1,0,0:0:0:0:
102,365,60997,1,8,0:0:0:0:
351,166,61151,1,8,0:0:0:0:
44,46,61305,1,8,0:0:0:0:
238,344,61459,1,2,0:0:0:0:
467,0,61613,5,8,0:0:0:0:
81,281,61766,1,0,0:0:0:0:
441,176,61920,1,8,0:0:0:0:
44,46,62074,1,8,0:0:0:0:
416,355,62228,1,8,0:0:0:0:
327,8,62382,1,2,0:0:0:0:
0,384,62536,6,0,L|110:366,1,100,8|0,0:1|0:0,0:0:0:0:
512,277,62843,2,0,L|402:259,1,100,8|0,0:1|0:0,0:0:0:0:
0,277,63151,2,0,L|110:259,1,100,8|0,0:1|0:0,0:0:0:0:
512,384,63459,6,0,L|402:366,1,100,8|0,0:0|0:0,0:0:0:0:
240,162,63766,2,0,L|258:272,1,100,8|0,0:0|0:0,0:0:0:0:
429,162,64074,2,0,L|411:272,1,100,8|0,0:0|0:0,0:0:0:0:
157,384,64382,6,0,L|267:366,1,100,8|0,0:0|0:0,0:0:0:0:
326,146,64690,2,0,L|344:256,1,100,8|0,0:0|0:0,0:0:0:0:
72,321,64997,2,0,L|182:303,1,100,8|0,0:0|0:0,0:0:0:0:
241,83,65305,6,0,L|259:193,1,100,8|0,0:0|0:0,0:0:0:0:
173,215,65613,1,2,0:0:0:0:
334,38,65766,2,0,L|322:148,1,100,8|0,0:0|0:0,0:0:0:0:
157,117,66074,1,2,0:0:0:0:
435,18,66228,6,0,L|395:122,1,100,8|0,0:0|0:0,0:0:0:0:
271,224,66536,2,0,P|313:199|363:203,1,100,8|0,0:0|0:0,0:0:0:0:
220,47,66843,2,0,P|177:72|156:116,1,100,8|0,0:0|0:0,0:0:0:0:
272,321,67151,6,0,B|283:288|283:288|270:223,1,100,8|0,0:0|0:0,0:0:0:0:
303,46,67459,2,0,B|292:79|292:79|304:143,1,100,8|0,0:0|0:0,0:0:0:0:
97,203,67766,2,0,B|214:180,1,100,8|0,0:0|0:0,0:0:0:0:
469,105,68074,6,0,B|351:82,1,100,8|0,0:0|0:0,0:0:0:0:
233,89,68382,2,0,P|274:118|293:163,1,100,8|0,0:0|0:0,0:0:0:0:
161,272,68690,2,0,P|165:222|195:183,1,100,8|0,0:0|0:0,0:0:0:0:
389,189,68997,6,0,B|310:279,1,100,8|0,0:0|0:0,0:0:0:0:
178,362,69305,2,0,B|243:286,1,100,8|0,0:0|0:0,0:0:0:0:
488,182,69613,2,0,B|388:188,1,100,8|0,0:0|0:0,0:0:0:0:
78,368,69920,6,0,B|177:361,1,100,8|0,0:0|0:0,0:0:0:0:
446,99,70228,2,0,B|346:105,1,100,8|0,0:0|0:0,0:0:0:0:
36,285,70536,1,8,0:0:0:0:
60,283,70613,1,0,0:0:0:0:
85,281,70690,1,0,0:0:0:0:
110,279,70766,1,0,0:0:0:0:
135,278,70843,6,0,P|175:246|186:188,1,100,2|0,0:0|0:0,0:0:0:0:
86,70,71151,1,8,0:0:0:0:
112,207,71305,1,8,0:0:0:0:
309,97,71459,1,8,0:0:0:0:
207,3,71613,1,0,0:0:0:0:
250,224,71766,6,0,L|369:238,1,100,8|0,0:0|0:0,0:0:0:0:
456,148,72074,2,0,L|336:162,1,100,8|0,0:0|0:0,0:0:0:0:
143,312,72382,1,8,0:0:0:0:
167,308,72459,1,0,0:0:0:0:
192,305,72536,1,8,0:0:0:0:
217,302,72613,1,8,0:0:0:0:
242,299,72690,6,0,B|272:297|272:297|323:344,1,100,2|0,0:0|0:0,0:0:0:0:
456,148,72997,1,8,0:0:0:0:
256,172,73151,1,8,0:0:0:0:
368,260,73305,1,8,0:0:0:0:
344,60,73459,1,8,0:0:0:0:
182,180,73613,5,8,0:0:0:0:
186,196,73690,1,0,0:0:0:0:
193,210,73766,1,8,0:0:0:0:
204,223,73843,1,0,0:0:0:0:
217,233,73920,1,8,0:0:0:0:
232,241,73997,1,8,0:0:0:0:
248,244,74074,1,8,0:0:0:0:
264,247,74151,1,0,0:0:0:0:
279,254,74228,1,10,0:0:0:0:
292,265,74305,1,8,0:0:0:0:
302,278,74382,1,8,0:0:0:0:
310,292,74459,1,8,0:0:0:0:
314,308,74536,5,2,0:0:0:0:
179,161,74843,5,0,0:0:0:0:
298,1,75151,5,8,0:0:0:0:
238,329,75459,6,0,L|221:419,1,50,0|8,0:0|0:0,0:0:0:0:
314,308,75766,1,0,0:0:0:0:
390,287,76074,1,0,0:0:0:0:
182,274,76382,5,8,0:0:0:0:
158,265,76459,1,0,0:0:0:0:
133,264,76536,1,0,0:0:0:0:
109,270,76613,1,0,0:0:0:0:
88,283,76690,1,2,0:0:0:0:
71,302,76766,1,0,0:0:0:0:
61,324,76843,5,8,0:0:0:0:
57,299,76920,1,0,0:0:0:0:
54,275,76997,1,0,0:0:0:0:
51,250,77074,1,0,0:0:0:0:
47,225,77151,1,2,0:0:0:0:
44,200,77228,1,0,0:0:0:0:
41,175,77305,6,0,L|122:188,1,50,8|0,0:0|0:0,0:0:0:0:
202,91,77459,2,0,L|251:83,1,50,8|0,0:0|0:0,0:0:0:0:
363,175,77613,1,4,0:0:0:0:
244,284,77920,5,8,0:0:0:0:
244,284,77997,1,8,0:0:0:0:
244,284,78074,1,8,0:0:0:0:
244,284,78151,1,8,0:0:0:0:
244,284,78228,5,10,0:0:0:0:
266,240,78305,1,0,0:0:0:0:
310,218,78382,1,8,0:0:0:0:
359,227,78459,1,8,0:0:0:0:
392,263,78536,1,8,0:0:0:0:
419,304,78613,1,0,0:0:0:0:
466,313,78690,1,2,0:0:0:0:
506,285,78766,1,0,0:0:0:0:
512,237,78843,1,8,0:0:0:0:
482,199,78920,1,0,0:0:0:0:
436,182,78997,1,8,0:0:0:0:
413,139,79074,1,0,0:0:0:0:
425,92,79151,5,10,0:0:0:0:
387,123,79228,1,0,0:0:0:0:
338,134,79305,1,2,0:0:0:0:
290,124,79382,1,0,0:0:0:0:
250,95,79459,1,8,0:0:0:0:
227,51,79536,1,0,0:0:0:0:
183,30,79613,1,2,0:0:0:0:
134,39,79690,1,0,0:0:0:0:
101,75,79766,1,8,0:0:0:0:
95,123,79843,1,0,0:0:0:0:
119,166,79920,1,8,0:0:0:0:
164,186,79997,1,0,0:0:0:0:
212,176,80074,5,10,0:0:0:0:
180,139,80151,1,0,0:0:0:0:
131,136,80228,1,2,0:0:0:0:
94,167,80305,1,0,0:0:0:0:
89,216,80382,1,8,0:0:0:0:
119,254,80459,1,0,0:0:0:0:
167,260,80536,1,2,0:0:0:0:
212,241,80613,1,0,0:0:0:0:
257,260,80690,1,8,0:0:0:0:
276,304,80766,1,0,0:0:0:0:
260,351,80843,1,8,0:0:0:0:
214,371,80920,1,0,0:0:0:0:
167,353,80997,5,8,0:0:0:0:
171,283,81074,1,0,0:0:0:0:
175,213,81151,1,8,0:0:0:0:
179,144,81228,1,8,0:0:0:0:
183,74,81305,1,8,0:0:0:0:
146,17,81382,1,0,0:0:0:0:
80,4,81459,1,8,0:0:0:0:
22,42,81536,1,0,0:0:0:0:
10,109,81613,1,8,0:0:0:0:
49,164,81690,1,8,0:0:0:0:
115,176,81766,1,8,0:0:0:0:
179,144,81843,1,8,0:0:0:0:
243,113,81920,5,10,0:0:0:0:
289,126,81997,1,0,0:0:0:0:
329,155,82074,1,2,0:0:0:0:
345,201,82151,1,0,0:0:0:0:
333,249,82228,1,8,0:0:0:0:
297,282,82305,1,0,0:0:0:0:
248,288,82382,1,2,0:0:0:0:
204,266,82459,1,0,0:0:0:0:
180,223,82536,1,8,0:0:0:0:
142,192,82613,1,0,0:0:0:0:
93,189,82690,1,8,0:0:0:0:
52,217,82766,1,0,0:0:0:0:
37,263,82843,5,10,0:0:0:0:
74,294,82920,1,0,0:0:0:0:
123,296,82997,1,2,0:0:0:0:
164,269,83074,1,0,0:0:0:0:
180,223,83151,1,8,0:0:0:0:
173,174,83228,1,0,0:0:0:0:
166,124,83305,1,2,0:0:0:0:
160,74,83382,1,0,0:0:0:0:
177,29,83459,1,8,0:0:0:0:
218,2,83536,1,0,0:0:0:0:
267,4,83613,1,8,0:0:0:0:
304,35,83690,1,0,0:0:0:0:
319,83,83766,5,10,0:0:0:0:
290,124,83843,1,0,0:0:0:0:
270,170,83920,1,2,0:0:0:0:
266,220,83997,1,0,0:0:0:0:
277,268,84074,1,8,0:0:0:0:
304,310,84151,1,0,0:0:0:0:
342,342,84228,1,2,0:0:0:0:
391,349,84305,1,0,0:0:0:0:
433,324,84382,1,8,0:0:0:0:
449,278,84459,1,0,0:0:0:0:
432,232,84536,1,8,0:0:0:0:
390,207,84613,1,0,0:0:0:0:
341,219,84690,5,10,0:0:0:0:
325,232,84766,1,8,0:0:0:0:
307,242,84843,1,8,0:0:0:0:
287,248,84920,1,0,0:0:0:0:
266,247,84997,1,8,0:0:0:0:
246,241,85074,1,8,0:0:0:0:
228,231,85151,1,8,0:0:0:0:
210,221,85228,1,0,0:0:0:0:
190,214,85305,1,8,0:0:0:0:
169,212,85382,1,8,0:0:0:0:
149,217,85459,1,8,0:0:0:0:
131,226,85536,1,0,0:0:0:0:
118,241,85613,5,8,0:0:0:0:
120,275,85690,1,0,0:0:0:0:
124,310,85766,1,8,0:0:0:0:
127,345,85843,1,0,0:0:0:0:
130,380,85920,1,2,0:0:0:0:
256,192,86074,1,8,0:0:0:0:
26,62,86228,1,8,0:0:0:0:
30,111,86305,1,0,0:0:0:0:
35,161,86382,1,2,0:0:0:0:
40,211,86459,1,0,0:0:0:0:
45,261,86536,6,0,P|31:289|-22:324,2,66.6666666666667,8|8|8,0:0|0:0|0:0,0:0:0:0:
112,128,86843,2,0,P|160:105|222:141,1,100,4|0,0:0|0:0,0:0:0:0:
400,256,87151,2,0,P|352:279|290:243,1,100,4|0,0:0|0:0,0:0:0:0:
177,31,87459,5,8,0:0:0:0:
335,353,87613,1,8,0:0:0:0:
307,0,87766,1,8,0:0:0:0:
205,384,87920,1,8,0:0:0:0:
444,17,88074,1,8,0:0:0:0:
0,192,88228,1,8,0:0:0:0:
512,192,88382,1,8,0:0:0:0:
