osu file format v14

[General]
AudioFilename: audio.mp3
AudioLeadIn: 0
PreviewTime: 8039
Countdown: 0
SampleSet: None
StackLeniency: 0.7
Mode: 0
LetterboxInBreaks: 0
WidescreenStoryboard: 0

[Editor]
DistanceSpacing: 1.3
BeatDivisor: 16
GridSize: 8
TimelineZoom: 4.099998

[Metadata]
Title:Inferno
TitleUnicode:インフェルノ
Artist:9mm Parabellum Bullet
ArtistUnicode:9mm Parabellum Bullet
Creator:Monstrata
Version:Traumatized Hard
Source:ベルセルク
Tags:BERSERK guts casca griffith 2016 tv size opening
BeatmapID:1034889
BeatmapSetID:482090

[Difficulty]
HPDrainRate:4
CircleSize:3.3
OverallDifficulty:6.5
ApproachRate:8
SliderMultiplier:1.3
SliderTickRate:1

[Events]
//Background and Video events
0,0,"BERSERK.(Kentaro.Miura).full.1559669.jpg",0,0
//Break Periods
2,37812,44247
//Storyboard Layer 0 (Background)
//Storyboard Layer 1 (Fail)
//Storyboard Layer 2 (Pass)
//Storyboard Layer 3 (Foreground)
//Storyboard Sound Samples

[TimingPoints]
690,307.692307692308,3,3,1,90,1,0
8074,-133.333333333333,3,3,0,50,0,0
11305,-133.333333333333,3,3,1,75,0,0
11766,-100,3,3,1,90,0,0
22843,-100,3,3,1,70,0,0
25766,-100,3,3,0,50,0,0
26536,-100,3,3,1,70,0,0
29459,-100,3,3,0,50,0,0
30228,-100,3,3,1,70,0,0
32382,-100,3,3,0,70,0,0
32997,-100,3,3,1,70,0,0
36997,-133.333333333333,3,3,1,70,0,0
37613,-200,3,3,1,35,0,0
44997,-100,3,3,1,90,0,0
52382,-133.333333333333,3,3,1,90,0,0
56074,-166.666666666667,3,3,1,45,0,0
59766,-100,3,3,1,90,0,0
74536,-133.333333333333,3,3,1,90,0,0
75613,-133.333333333333,3,3,1,50,0,0
75766,-133.333333333333,3,3,1,90,0,0
76382,-100,3,3,1,90,0,0
77920,-100,3,3,1,50,0,0
78228,-100,3,3,1,90,0,0
85305,-100,3,3,0,70,0,0
85382,-100,3,3,1,90,0,0
86536,-100,3,3,0,70,0,0
87459,-100,3,3,1,100,0,0

[Colours]
Combo1 : 182,156,214
Combo2 : 227,172,187
Combo3 : 227,182,136
Combo4 : 157,172,221

[HitObjects]
129,104,690,6,0,L|124:155,4,32.5,8|0|0|0|2,0:0|0:0|0:0|0:0|0:0,0:0:0:0:
133,18,1151,2,0,P|193:47|214:105,1,130,8|2,0:0|0:0,0:0:0:0:
196,189,1613,6,0,L|284:204,1,65,8|0,0:0|0:0,0:0:0:0:
246,283,1920,2,0,L|334:268,1,65,8|0,0:0|0:0,0:0:0:0:
321,356,2228,2,0,L|400:314,1,65,4|0,0:0|0:0,0:0:0:0:
432,260,2536,6,0,L|491:271,4,32.5,8|0|0|0|2,0:0|0:0|0:0|0:0|0:0,0:0:0:0:
363,207,2997,2,0,P|350:145|376:86,1,130,8|2,0:0|0:0,0:0:0:0:
277,1,3459,6,0,L|294:64,1,65,8|0,0:0|0:0,0:0:0:0:
195,82,3766,2,0,L|241:129,1,65,8|0,0:0|0:0,0:0:0:0:
164,193,4074,2,0,L|226:210,1,65,4|0,0:0|0:0,0:0:0:0:
222,295,4382,6,0,L|254:287,4,32.5,8|0|8|0|2,0:0|0:0|0:0|0:0|0:0,0:0:0:0:
147,335,4843,2,0,P|97:295|33:299,1,130,8|2,0:0|0:0,0:0:0:0:
26,151,5305,6,0,P|39:181|39:214,1,65,8|2,0:0|0:0,0:0:0:0:
124,216,5613,2,0,P|140:188|144:156,1,65,8|0,0:0|0:0,0:0:0:0:
78,27,5920,2,0,P|91:57|91:90,1,65,4|0,0:0|0:0,0:0:0:0:
175,77,6228,6,0,L|206:68,4,32.5,8|0|8|0|2,0:0|0:0|0:0|0:0|0:0,0:0:0:0:
309,10,6690,2,0,B|292:53|292:53|317:154,1,130,8|2,0:0|0:0,0:0:0:0:
307,218,7151,6,0,L|294:272,2,32.5,8|0|0,0:0|0:0|0:0,0:0:0:0:
389,237,7459,2,0,L|376:291,2,32.5,8|0|0,0:0|0:0|0:0,0:0:0:0:
471,256,7766,2,0,L|458:310,2,32.5,8|0|0,0:0|0:0|0:0,0:0:0:0:
447,174,8074,6,0,P|417:103|490:15,1,195.00000743866,2|0,0:0|0:0,0:0:0:0:
336,87,8997,2,0,L|125:118,1,195.00000743866,2|0,0:0|0:0,0:0:0:0:
10,279,9920,6,0,L|221:310,1,195.00000743866,10|0,0:0|0:0,0:0:0:0:
381,259,10843,2,0,P|337:309|347:395,1,146.250005578995,6|0,0:0|0:0,0:0:0:0:
427,344,11459,1,8,0:0:0:0:
404,176,11766,6,0,P|341:162|279:179,1,130,8|8,0:0|0:0,0:0:0:0:
204,138,12228,1,8,0:0:0:0:
153,205,12382,2,0,L|163:269,1,65,8|2,0:0|0:0,0:0:0:0:
72,176,12690,6,0,L|87:88,1,65,8|0,0:0|0:0,0:0:0:0:
97,28,12997,1,8,0:0:0:0:
163,79,13151,1,8,0:0:0:0:
241,45,13305,2,0,P|272:38|304:43,1,65,8|2,0:0|0:0,0:0:0:0:
408,120,13613,6,0,P|376:112|345:118,1,65,8|0,0:0|0:0,0:0:0:0:
291,183,13920,1,8,0:0:0:0:
334,255,14074,1,8,0:0:0:0:
292,330,14228,1,8,0:0:0:0:
250,256,14382,1,2,0:0:0:0:
405,212,14536,6,0,P|414:275|377:327,2,130,8|8|8,0:1|0:1|0:1,0:0:0:0:
135,327,15459,5,2,0:0:0:0:
149,243,15613,1,2,0:0:0:0:
149,243,15766,2,0,L|223:233,1,65,8|2,0:0|0:0,0:0:0:0:
163,159,16074,2,0,L|237:149,1,65,8|8,0:0|0:0,0:0:0:0:
242,65,16382,5,10,0:0:0:0:
309,122,16536,1,2,0:0:0:0:
309,122,16690,2,0,L|373:130,1,65,8|2,0:0|0:0,0:0:0:0:
334,206,16997,2,0,L|398:214,1,65,8|8,0:0|0:0,0:0:0:0:
359,290,17305,5,10,0:0:0:0:
296,346,17459,1,2,0:0:0:0:
296,346,17613,2,0,P|276:299|277:274,1,65,8|2,0:0|0:0,0:0:0:0:
195,258,17920,2,0,P|225:217|247:205,1,65,8|8,0:0|0:0,0:0:0:0:
210,129,18228,6,0,L|189:80,2,32.5,8|0|8,0:0|0:0|0:0,0:0:0:0:
128,155,18536,2,0,L|107:106,2,32.5,8|0|8,0:0|0:0|0:0,0:0:0:0:
46,181,18843,2,0,L|25:132,2,32.5,8|8|8,0:0|0:0|0:0,0:0:0:0:
58,265,19151,5,10,0:0:0:0:
140,259,19305,1,2,0:0:0:0:
140,259,19459,2,0,L|131:341,1,65,8|2,0:0|0:0,0:0:0:0:
223,243,19766,2,0,L|214:325,1,65,8|8,0:0|0:0,0:0:0:0:
231,156,20075,5,10,0:0:0:0:
314,140,20229,1,2,0:0:0:0:
314,140,20383,2,0,L|305:222,1,65,8|2,0:0|0:0,0:0:0:0:
397,124,20690,2,0,L|388:206,1,65,8|8,0:0|0:0,0:0:0:0:
405,37,20997,5,10,0:0:0:0:
488,21,21151,1,2,0:0:0:0:
488,21,21305,2,0,L|479:103,1,65,8|2,0:0|0:0,0:0:0:0:
397,124,21613,2,0,L|332:116,1,65,8|8,0:0|0:0,0:0:0:0:
269,59,21920,6,0,L|232:54,2,32.5,8|8|0,0:0|0:0|0:0,0:0:0:0:
252,142,22228,2,0,L|218:156,2,32.5,8|0|8,0:0|0:0|0:0,0:0:0:0:
156,96,22536,2,0,L|119:91,2,32.5,8|0|8,0:0|0:0|0:0,0:0:0:0:
124,181,22843,6,0,B|99:228|120:271|120:271|120:310,2,130,4|8|8,0:0|0:0|0:0,0:0:0:0:
191,130,23613,1,0,0:0:0:0:
210,48,23766,6,0,L|291:33,1,65,2|0,0:0|0:0,0:0:0:0:
306,114,24074,2,0,L|387:99,1,65,2|0,0:0|0:0,0:0:0:0:
402,180,24382,2,0,L|483:165,1,65,2|0,0:0|0:0,0:0:0:0:
461,247,24690,6,0,P|402:222|343:245,1,130,8|8,0:0|0:0,0:0:0:0:
258,239,25151,2,0,L|265:307,1,65,8|0,0:0|0:0,0:0:0:0:
199,357,25459,1,8,0:0:0:0:
140,239,25613,6,0,L|133:307,1,65,8|8,0:0|0:0,0:0:0:0:
48,304,25920,2,0,L|54:239,1,65,0|8,0:0|0:0,0:0:0:0:
96,164,26228,2,0,P|130:152|168:157,1,65,4|0,0:0|0:0,0:0:0:0:
228,106,26536,6,0,L|255:243,2,130,8|8|0,0:0|0:0|0:0,0:0:0:0:
286,45,27305,1,0,0:0:0:0:
361,82,27459,6,0,L|446:83,1,65,8|8,0:0|0:0,0:0:0:0:
449,164,27766,2,0,L|384:163,1,65,8|0,0:0|0:0,0:0:0:0:
407,244,28074,2,0,L|472:245,1,65,0|0,0:0|0:0,0:0:0:0:
494,325,28382,6,0,L|430:325,1,65,8|0,0:0|0:0,0:0:0:0:
344,322,28690,1,8,0:0:0:0:
257,384,28843,2,0,L|257:319,1,65,8|0,0:0|0:0,0:0:0:0:
261,233,29151,1,8,0:0:0:0:
122,274,29305,6,0,L|187:275,1,65,8|8,0:0|0:0,0:0:0:0:
181,190,29613,2,0,L|125:156,1,65,0|8,0:0|0:0,0:0:0:0:
186,55,29920,2,0,L|217:111,1,65,4|0,0:0|0:0,0:0:0:0:
296,84,30228,6,0,P|357:64|419:82,2,130,8|8|8,0:0|0:0|0:0,0:0:0:0:
280,166,30997,1,0,0:0:0:0:
342,222,31151,6,0,L|328:307,1,65,8|0,0:0|0:0,0:0:0:0:
252,317,31459,1,8,0:0:0:0:
252,317,31613,2,0,L|266:402,1,65,2|6,0:0|0:0,0:0:0:0:
209,153,32074,6,0,B|149:177|149:177|80:169,1,130,8|8,0:0|0:0,0:0:0:0:
72,85,32536,1,8,0:0:0:0:
72,85,32690,2,0,P|136:92|136:92,1,65,4|0,0:0|0:0,0:0:0:0:
206,45,32997,6,0,L|270:52,1,65,2|2,0:0|0:0,0:0:0:0:
338,1,33305,2,0,P|363:61|363:61,1,65,8|8,0:0|0:0,0:0:0:0:
442,93,33613,2,0,P|403:145|403:145,1,65,8|0,0:0|0:0,0:0:0:0:
280,187,33920,6,0,L|319:135,2,65,2|2|8,0:0|0:0|0:0,0:0:0:0:
163,310,34536,2,0,P|131:313|100:303,1,65,0|0,0:0|0:0,0:0:0:0:
79,175,34843,5,8,0:0:0:0:
143,231,34997,1,8,0:0:0:0:
159,148,35151,2,0,L|173:68,1,65,8|0,0:0|0:0,0:0:0:0:
257,110,35459,2,0,L|246:46,1,65,0|0,0:0|0:0,0:0:0:0:
352,13,35766,6,0,P|336:75|346:139,1,130,8|8,0:0|0:0,0:0:0:0:
418,184,36228,2,0,L|288:199,1,130,8|8,0:0|0:0,0:0:0:0:
246,273,36690,1,8,0:0:0:0:
372,370,36997,6,0,L|401:262,2,97.50000371933,0|0|4,0:0|0:0|0:1,0:0:0:0:
245,178,44997,5,8,0:0:0:0:
160,184,45152,2,0,L|96:187,1,65,8|0,0:0|0:0,0:0:0:0:
29,274,45459,1,8,0:0:0:0:
113,267,45614,2,0,L|177:264,1,65,8|0,0:0|0:0,0:0:0:0:
278,192,45920,6,0,L|261:255,1,65,8|2,0:0|0:0,0:0:0:0:
363,189,46228,2,0,L|346:252,1,65,8|2,0:0|0:0,0:0:0:0:
448,186,46536,2,0,L|430:248,1,65,8|2,0:0|0:0,0:0:0:0:
403,113,46843,6,0,L|385:50,1,65,8|8,0:0|0:0,0:0:0:0:
307,17,47151,1,10,0:0:0:0:
228,50,47305,2,0,L|211:113,1,65,8|8,0:0|0:0,0:0:0:0:
187,194,47613,1,8,0:0:0:0:
65,143,47766,6,0,L|129:132,1,65,2|8,0:0|0:0,0:0:0:0:
63,225,48074,2,0,L|0:213,1,65,2|8,0:0|0:0,0:0:0:0:
65,306,48382,2,0,L|128:294,1,65,2|8,0:0|0:0,0:0:0:0:
229,194,48690,6,0,L|212:340,2,130,2|8|8,0:0|0:0|0:0,0:0:0:0:
299,146,49459,1,8,0:0:0:0:
381,135,49613,6,0,P|366:196|312:229,2,130,10|10|8,0:0|0:0|0:0,0:0:0:0:
331,67,50382,1,8,0:0:0:0:
299,146,50536,6,0,L|208:161,1,65,8|0,0:0|0:0,0:0:0:0:
178,92,50843,1,2,0:0:0:0:
152,174,50997,2,0,L|129:234,1,65,8|0,0:0|0:0,0:0:0:0:
43,251,51305,1,2,0:0:0:0:
101,315,51459,6,0,L|142:365,1,65,8|8,0:0|0:0,0:0:0:0:
199,299,51766,2,0,L|226:359,1,65,8|8,0:0|0:0,0:0:0:0:
297,309,52074,2,0,L|307:373,1,65,2|2,0:0|0:0,0:0:0:0:
384,283,52382,6,0,L|381:331,1,48.750001859665,2|8,0:0|0:0,0:0:0:0:
460,327,52690,2,0,L|508:330,1,48.750001859665,8|2,0:0|0:0,0:0:0:0:
503,251,52997,2,0,L|506:202,1,48.750001859665,8|8,0:0|0:0,0:0:0:0:
427,207,53305,6,0,L|378:203,1,48.750001859665,2|8,0:0|0:0,0:0:0:0:
271,238,53613,2,0,L|299:198,1,48.750001859665,8|2,0:0|0:0,0:0:0:0:
321,87,53920,2,0,L|342:130,1,48.750001859665,8|8,0:0|0:0,0:0:0:0:
347,277,54228,5,2,0:0:0:0:
347,277,54382,1,10,0:0:0:0:
157,347,54690,5,2,0:0:0:0:
157,347,54844,1,10,0:0:0:0:
187,153,55151,6,0,P|212:195|208:243,2,97.50000371933,10|10|8,0:0|0:0|0:0,0:0:0:0:
25,71,56074,6,0,P|100:88|173:63,1,155.999995239258,4|0,0:1|0:0,0:0:0:0:
336,161,56997,2,0,P|260:178|188:154,1,155.999995239258,4|0,0:1|0:0,0:0:0:0:
24,251,57920,6,0,P|99:268|172:243,1,155.999995239258,4|0,0:1|0:0,0:0:0:0:
335,341,58843,2,0,P|259:358|186:333,1,155.999995239258,4|10,0:1|0:0,0:0:0:0:
341,215,59766,6,0,P|323:279|342:355,1,130,8|8,0:0|0:0,0:0:0:0:
411,377,60228,1,8,0:0:0:0:
485,337,60382,2,0,L|478:256,1,65,8|2,0:0|0:0,0:0:0:0:
430,141,60690,6,0,L|425:206,1,65,8|0,0:0|0:0,0:0:0:0:
341,215,60997,1,8,0:0:0:0:
269,170,61151,1,8,0:0:0:0:
201,221,61305,2,0,L|206:285,1,65,8|2,0:0|0:0,0:0:0:0:
105,347,61613,6,0,P|168:335|206:284,1,130,8|8,0:0|0:0,0:0:0:0:
124,264,62074,1,8,0:0:0:0:
192,143,62228,2,0,L|187:208,1,65,8|2,0:0|0:0,0:0:0:0:
51,212,62536,6,0,L|109:184,1,65,8|0,0:1|0:0,0:0:0:0:
60,52,62843,2,0,L|55:117,1,65,8|0,0:1|0:0,0:0:0:0:
140,69,63151,2,0,L|198:41,1,65,8|0,0:1|0:0,0:0:0:0:
187,208,63459,6,0,L|160:349,2,130,8|8|8,0:0|0:0|0:0,0:0:0:0:
155,41,64382,1,8,0:0:0:0:
322,9,64690,1,8,0:0:0:0:
354,176,64997,1,8,0:0:0:0:
187,208,65305,6,0,B|122:228|120:184|59:209,2,130,8|2|0,0:0|0:0|0:0,0:0:0:0:
242,48,66228,1,8,0:0:0:0:
411,50,66536,1,8,0:0:0:0:
461,211,66843,1,8,0:0:0:0:
323,308,67151,6,0,B|275:320|275:320|170:301,2,130,8|8|8,0:0|0:0|0:0,0:0:0:0:
376,147,68074,1,8,0:0:0:0:
263,20,68382,1,8,0:0:0:0:
209,181,68690,1,8,0:0:0:0:
323,308,68997,6,0,L|462:322,2,130,8|8|8,0:0|0:0|0:0,0:0:0:0:
223,155,69920,1,8,0:0:0:0:
405,144,70228,1,8,0:0:0:0:
323,308,70536,2,0,L|299:349,2,32.5,8|0|0,0:0|0:0|0:0,0:0:0:0:
319,223,70843,6,0,L|313:150,1,65,2|0,0:0|0:0,0:0:0:0:
305,72,71151,2,0,P|285:133|230:164,1,130,8|8,0:0|0:0,0:0:0:0:
145,170,71613,1,0,0:0:0:0:
145,170,71766,6,0,L|150:234,1,65,8|0,0:0|0:0,0:0:0:0:
69,261,72074,2,0,L|106:314,1,65,8|0,0:0|0:0,0:0:0:0:
234,245,72382,2,0,L|206:304,1,65,8|8,0:0|0:0,0:0:0:0:
230,164,72690,6,0,L|294:157,1,65,2|0,0:0|0:0,0:0:0:0:
192,91,72997,2,0,P|152:140|158:203,1,130,8|8,0:0|0:0,0:0:0:0:
234,245,73459,1,8,0:0:0:0:
308,285,73613,6,0,L|315:339,2,32.5,8|0|8,0:0|0:0|0:0,0:0:0:0:
390,265,73920,2,0,L|397:319,2,32.5,8|8|8,0:0|0:0|0:0,0:0:0:0:
472,245,74228,2,0,L|479:299,2,32.5,10|8|8,0:0|0:0|0:0,0:0:0:0:
412,182,74536,6,0,P|399:140|484:21,1,195.00000743866,2|8,0:0|0:0,0:0:0:0:
263,40,75459,6,0,L|274:102,1,48.750001859665,0|0,0:0|0:0,0:0:0:0:
247,167,75766,1,0,0:0:0:0:
387,255,76074,1,0,0:0:0:0:
240,332,76382,6,0,B|198:340|198:340|156:324|156:324|111:331,1,130,8|2,0:0|0:0,0:0:0:0:
40,371,76843,2,0,P|80:312|69:254,1,130,8|2,0:0|0:0,0:0:0:0:
163,178,77305,6,0,L|155:243,2,65,8|8|4,0:0|0:0|0:0,0:0:0:0:
330,151,77920,2,0,L|325:183,3,32.5,8|8|8|8,0:0|0:0|0:0|0:0,0:0:0:0:
318,225,78228,6,0,L|402:213,1,65,10|8,0:0|0:0,0:0:0:0:
418,138,78536,1,8,0:0:0:0:
367,67,78690,1,2,0:0:0:0:
281,74,78843,2,0,L|250:136,1,65,8|8,0:0|0:0,0:0:0:0:
167,139,79151,6,0,L|98:144,1,65,10|2,0:0|0:0,0:0:0:0:
44,205,79459,1,8,0:0:0:0:
33,288,79613,1,2,0:0:0:0:
80,357,79766,2,0,L|144:352,1,65,8|8,0:0|0:0,0:0:0:0:
202,289,80074,6,0,L|266:293,1,65,10|2,0:0|0:0,0:0:0:0:
312,223,80382,1,8,0:0:0:0:
274,149,80536,1,2,0:0:0:0:
357,152,80690,2,0,L|422:157,1,65,8|8,0:0|0:0,0:0:0:0:
319,78,80997,6,0,L|314:37,2,32.5,8|0|8,0:0|0:0|0:0,0:0:0:0:
234,71,81305,2,0,L|229:30,2,32.5,8|0|8,0:0|0:0|0:0,0:0:0:0:
149,64,81613,2,0,L|144:23,2,32.5,8|8|8,0:0|0:0|0:0,0:0:0:0:
64,57,81920,6,0,P|52:84|51:135,1,65,10|2,0:0|0:0,0:0:0:0:
100,186,82228,1,8,0:0:0:0:
56,258,82382,1,2,0:0:0:0:
107,324,82536,2,0,P|138:328|170:321,1,65,8|8,0:0|0:0,0:0:0:0:
207,245,82843,6,0,P|238:240|270:247,1,65,10|2,0:0|0:0,0:0:0:0:
329,308,83151,1,8,0:0:0:0:
388,248,83305,1,2,0:0:0:0:
444,309,83459,2,0,P|476:314|508:306,1,65,8|8,0:0|0:0,0:0:0:0:
417,170,83766,6,0,P|385:165|353:173,1,65,10|2,0:0|0:0,0:0:0:0:
251,280,84074,1,8,0:0:0:0:
332,256,84228,1,2,0:0:0:0:
190,221,84382,1,8,0:0:0:0:
169,303,84536,1,8,0:0:0:0:
272,198,84690,6,0,L|260:150,2,32.5,10|8|8,0:0|0:0|0:0,0:0:0:0:
158,128,84997,2,0,L|189:136,2,32.5,8|8|8,0:0|0:0|0:0,0:0:0:0:
275,64,85305,2,0,L|251:86,2,32.5,8|8|8,0:0|0:0|0:0,0:0:0:0:
190,222,85613,5,8,0:0:0:0:
190,222,85766,2,0,P|159:229|112:220,1,65,8|2,0:0|0:0,0:0:0:0:
53,311,86074,1,8,0:0:0:0:
53,311,86228,2,0,P|84:304|131:313,1,65,8|2,0:0|0:0,0:0:0:0:
202,308,86536,6,0,P|229:331|308:322,1,86.6666666666667,8|8,0:0|0:0,0:0:0:0:
325,305,86843,2,0,B|360:291|360:291|414:294|414:294|449:315,1,130,4|4,0:0|0:0,0:0:0:0:
394,144,87459,6,0,L|391:208,1,65,8|8,0:0|0:0,0:0:0:0:
308,110,87766,2,0,L|305:174,1,65,8|8,0:0|0:0,0:0:0:0:
222,76,88074,2,0,L|219:140,1,65,8|8,0:0|0:0,0:0:0:0:
136,42,88382,1,8,0:0:0:0:
