osu file format v14

[General]
AudioFilename: audio.mp3
AudioLeadIn: 0
PreviewTime: 8039
Countdown: 0
SampleSet: None
StackLeniency: 0.7
Mode: 0
LetterboxInBreaks: 0
WidescreenStoryboard: 0

[Editor]
Bookmarks: 690,9001,10849,13927,33937,36708,50561,51485,52408,56103,62875,63491
DistanceSpacing: 1
BeatDivisor: 4
GridSize: 8
TimelineZoom: 3.999998

[Metadata]
Title:Inferno
TitleUnicode:インフェルノ
Artist:9mm Parabellum Bullet
ArtistUnicode:9mm Parabellum Bullet
Creator:Monstrata
Version:Painfully Easy
Source:ベルセルク
Tags:BERSERK guts casca griffith 2016 tv size opening
BeatmapID:1031483
BeatmapSetID:482090

[Difficulty]
HPDrainRate:2
CircleSize:3
OverallDifficulty:2.5
ApproachRate:3
SliderMultiplier:0.799999999999999
SliderTickRate:1

[Events]
//Background and Video events
0,0,"BERSERK.(Kentaro.Miura).full.1559669.jpg",0,0
//Break Periods
2,37812,43557
//Storyboard Layer 0 (Background)
//Storyboard Layer 1 (Fail)
//Storyboard Layer 2 (Pass)
//Storyboard Layer 3 (Foreground)
//Storyboard Sound Samples

[TimingPoints]
690,307.692307692308,3,3,1,90,1,0
8074,-100,3,3,0,50,0,0
11305,-100,3,3,1,75,0,0
11766,-100,3,3,1,90,0,0
22843,-100,3,3,1,70,0,0
25766,-100,3,3,0,50,0,0
26536,-100,3,3,1,70,0,0
29459,-100,3,3,0,50,0,0
30228,-100,3,3,1,70,0,0
32382,-100,3,3,0,70,0,0
32997,-100,3,3,1,70,0,0
37613,-100,3,3,1,35,0,0
44997,-100,3,3,1,90,0,0
56074,-100,3,3,1,45,0,0
59766,-100,3,3,1,90,0,0
77920,-100,3,3,1,50,0,0
78228,-100,3,3,1,90,0,0
85305,-100,3,3,0,70,0,0
85382,-100,3,3,1,90,0,0
86536,-100,3,3,0,70,0,0
87459,-100,3,3,1,100,0,0

[Colours]
Combo1 : 182,156,214
Combo2 : 227,172,187
Combo3 : 227,182,136
Combo4 : 157,172,221

[HitObjects]
60,247,690,6,0,P|149:206|209:219,1,160,8|8,0:0|0:0,0:0:0:0:
264,273,1613,2,0,L|258:362,2,79.9999999999999,8|8|4,0:0|0:0|0:0,0:0:0:0:
285,195,2536,6,0,L|431:131,1,160,8|8,0:0|0:0,0:0:0:0:
468,59,3459,2,0,P|497:82|512:125,2,79.9999999999999,8|8|4,0:0|0:0|0:0,0:0:0:0:
387,59,4382,6,0,B|309:30|307:90|219:55,1,160,8|8,0:0|0:0,0:0:0:0:
153,39,5305,2,0,L|81:92,1,79.9999999999999,8|8,0:0|0:0,0:0:0:0:
75,165,5920,1,4,0:0:0:0:
92,243,6228,6,0,B|138:230|150:190|150:190|234:192,1,160,8|8,0:0|0:0,0:0:0:0:
307,196,7151,2,0,P|353:266|338:350,1,160,8|8,0:0|0:0,0:0:0:0:
274,377,8074,6,0,L|104:349,1,160,2|0,0:0|0:0,0:0:0:0:
68,286,8997,2,0,L|96:116,1,160,2|0,0:0|0:0,0:0:0:0:
158,81,9920,6,0,P|228:114|305:98,1,160,10|0,0:0|0:0,0:0:0:0:
362,41,10843,2,0,P|384:84|322:177,1,160,6|8,0:0|0:0,0:0:0:0:
273,226,11766,6,0,L|282:313,2,79.9999999999999,8|8|8,0:0|0:0|0:0,0:0:0:0:
194,211,12690,2,0,L|158:290,2,79.9999999999999,8|8|8,0:0|0:0|0:0,0:0:0:0:
133,158,13613,6,0,L|62:209,2,79.9999999999999,8|8|8,0:0|0:0|0:0,0:0:0:0:
106,82,14536,2,0,L|18:91,2,79.9999999999999,8|8|8,0:1|0:1|0:1,0:0:0:0:
171,34,15459,6,0,P|247:15|321:40,1,160,2|8,0:0|0:0,0:0:0:0:
397,13,16382,2,0,P|397:70|309:120,1,160,10|8,0:0|0:0,0:0:0:0:
247,160,17305,6,0,B|234:211|234:211|259:324,1,160,10|8,0:0|0:0,0:0:0:0:
323,360,18228,2,0,B|374:347|374:347|487:372,1,160,8|8,0:0|0:0,0:0:0:0:
497,292,19151,6,0,B|334:256,1,160,10|8,0:0|0:0,0:0:0:0:
268,292,20074,2,0,P|272:216|348:176,1,160,10|8,0:0|0:0,0:0:0:0:
417,192,20997,6,0,P|408:135|306:102,1,160,10|8,0:0|0:0,0:0:0:0:
246,125,21920,2,0,B|207:138|167:123|167:123|121:126|105:183,1,160,8|8,0:0|0:0,0:0:0:0:
118,249,22843,6,0,L|107:334,2,79.9999999999999,4|8|8,0:0|0:0|0:0,0:0:0:0:
197,244,23766,2,0,P|268:256|309:341,1,160,2|2,0:0|0:0,0:0:0:0:
386,350,24690,6,0,L|475:353,2,79.9999999999999,8|8|0,0:0|0:0|0:0,0:0:0:0:
377,270,25613,2,0,B|375:192|375:192|414:162|406:105,1,160,8|4,0:0|0:0,0:0:0:0:
327,127,26536,6,0,P|232:101|177:128,1,160,8|0,0:0|0:0,0:0:0:0:
100,113,27459,2,0,L|123:284,1,160,8|0,0:0|0:0,0:0:0:0:
44,294,28382,6,0,P|118:353|200:254,1,240,8|8,0:0|0:0,0:0:0:0:
405,137,30228,6,0,L|495:120,2,79.9999999999999,8|8|8,0:0|0:0|0:0,0:0:0:0:
338,91,31151,2,0,L|321:1,2,79.9999999999999,8|8|6,0:0|0:0|0:0,0:0:0:0:
292,158,32074,6,0,L|202:175,2,79.9999999999999,8|8|4,0:0|0:0|0:0,0:0:0:0:
359,204,32997,2,0,L|376:294,2,79.9999999999999,2|8|8,0:0|0:0|0:0,0:0:0:0:
286,241,33920,6,0,L|234:316,1,79.9999999999999,2|8,0:0|0:0,0:0:0:0:
100,230,34843,2,0,L|145:163,1,79.9999999999999,8|8,0:0|0:0,0:0:0:0:
282,81,35766,6,0,B|338:58|338:58|396:72,2,120,8|8|8,0:0|0:0|0:0,0:0:0:0:
292,160,36997,2,0,L|304:247,2,79.9999999999999,0|0|4,0:0|0:0|0:1,0:0:0:0:
167,112,44997,6,0,P|214:77|273:69,2,120,8|8|8,0:0|0:0|0:0,0:0:0:0:
131,183,46228,2,0,L|145:261,1,79.9999999999999,8|8,0:0|0:0,0:0:0:0:
109,332,46843,6,0,P|61:366|2:374,2,120,8|8|2,0:0|0:0|0:0,0:0:0:0:
189,333,48074,2,0,L|273:336,1,79.9999999999999,2|2,0:0|0:0,0:0:0:0:
285,257,48690,6,0,L|205:254,2,79.9999999999999,2|8|8,0:0|0:0|0:0,0:0:0:0:
340,199,49613,2,0,L|342:119,1,79.9999999999999,10|10,0:0|0:0,0:0:0:0:
293,56,50228,1,8,0:0:0:0:
219,90,50536,6,0,P|161:102|104:85,2,120,8|8|8,0:0|0:0|0:0,0:0:0:0:
293,56,51766,2,0,P|332:29|366:23,1,79.9999999999999,8|2,0:0|0:0,0:0:0:0:
444,24,52382,6,0,P|453:103|444:182,1,160,2|8,0:0|0:0,0:0:0:0:
374,221,53305,2,0,B|336:235|296:218|296:218|248:226|231:280,1,160,2|8,0:0|0:0,0:0:0:0:
176,319,54228,6,0,P|227:346|284:331,2,120,2|2|10,0:0|0:0|0:0,0:0:0:0:
157,241,55459,2,0,L|168:157,1,79.9999999999999,10|8,0:0|0:0,0:0:0:0:
247,167,56074,6,0,P|231:113|87:152,1,240,4|4,0:1|0:1,0:0:0:0:
188,361,57920,6,0,B|305:400|306:314|422:351,1,240,4|4,0:1|0:1,0:0:0:0:
481,202,59459,1,10,0:0:0:0:
408,238,59766,6,0,P|369:244|330:240,1,79.9999999999999,8|8,0:0|0:0,0:0:0:0:
283,175,60382,2,0,P|243:168|204:172,1,79.9999999999999,8|8,0:0|0:0,0:0:0:0:
137,217,60997,2,0,L|144:300,1,79.9999999999999,8|8,0:0|0:0,0:0:0:0:
155,375,61613,6,0,P|191:361|216:330,2,79.9999999999999,8|8|8,0:0|0:0|0:0,0:0:0:0:
79,349,62536,2,0,L|46:271,1,79.9999999999999,8|8,0:1|0:1,0:0:0:0:
18,200,63151,1,8,0:1:0:0:
97,209,63459,6,0,P|175:204|234:152,1,160,8|8,0:0|0:0,0:0:0:0:
277,84,64382,2,0,B|359:66|356:103|435:91,1,160,8|8,0:0|0:0,0:0:0:0:
493,36,65305,6,0,P|512:110|462:168,1,160,8|0,0:0|0:0,0:0:0:0:
382,174,66228,2,0,B|379:241|379:241|393:264|393:264|386:348,1,160,8|8,0:0|0:0,0:0:0:0:
313,361,67151,6,0,P|235:368|170:326,1,160,8|8,0:0|0:0,0:0:0:0:
95,293,68074,2,0,L|81:389,2,79.9999999999999,8|8|8,0:0|0:0|0:0,0:0:0:0:
160,247,68997,6,0,P|179:195|144:100,1,160,8|8,0:0|0:0,0:0:0:0:
107,29,69920,2,0,P|77:54|64:91,2,79.9999999999999,8|8|8,0:0|0:0|0:0,0:0:0:0:
188,31,70843,5,2,0:0:0:0:
239,92,71151,2,0,P|304:112|398:85,1,160,8|8,0:0|0:0,0:0:0:0:
471,85,72074,2,0,L|456:166,1,79.9999999999999,8|8,0:0|0:0,0:0:0:0:
440,242,72690,5,2,0:0:0:0:
380,188,72997,2,0,B|294:216,1,79.9999999999999,8|8,0:0|0:0,0:0:0:0:
227,188,73613,2,0,P|279:227|283:333,1,160,8|10,0:0|0:0,0:0:0:0:
241,380,74536,5,2,0:0:0:0:
92,191,75459,2,0,L|6:182,2,79.9999999999999,0|0|0,0:0|0:0|0:0,0:0:0:0:
157,143,76382,6,0,P|211:87|288:72,1,160,8|0,0:0|0:0,0:0:0:0:
366,89,77305,2,0,L|377:187,1,79.9999999999999,8|4,0:0|0:0,0:0:0:0:
416,236,77920,1,8,0:0:0:0:
374,306,78228,6,0,P|346:278|336:240,2,79.9999999999999,10|8|8,0:0|0:0|0:0,0:0:0:0:
454,309,79151,2,0,P|488:272|458:166,1,160,10|8,0:0|0:0,0:0:0:0:
386,172,80074,6,0,P|320:215|235:199,1,160,10|8,0:0|0:0,0:0:0:0:
199,136,80997,2,0,P|163:203|200:272,1,160,8|8,0:0|0:0,0:0:0:0:
275,298,81920,6,0,L|259:382,2,79.9999999999999,10|8|8,0:0|0:0|0:0,0:0:0:0:
354,288,82843,2,0,L|452:275,2,79.9999999999999,10|8|8,0:0|0:0|0:0,0:0:0:0:
305,223,83766,6,0,P|312:142|385:91,1,160,10|8,0:0|0:0,0:0:0:0:
438,54,84690,2,0,L|262:56,1,160,10|8,0:0|0:0,0:0:0:0:
201,33,85613,6,0,P|233:94|211:153,2,120,8|8|8,0:0|0:0|0:0,0:0:0:0:
152,97,86843,2,0,P|140:134|147:173,1,79.9999999999999,4|4,0:0|0:0,0:0:0:0:
212,221,87459,6,0,L|192:308,2,79.9999999999999,8|8|8,0:0|0:0|0:0,0:0:0:0:
286,192,88382,1,8,0:0:0:0:
