osu file format v14

[General]
AudioFilename: audio.mp3
AudioLeadIn: 0
PreviewTime: 8039
Countdown: 0
SampleSet: None
StackLeniency: 0.7
Mode: 0
LetterboxInBreaks: 0
WidescreenStoryboard: 0

[Editor]
DistanceSpacing: 1
BeatDivisor: 4
GridSize: 8
TimelineZoom: 4.099998

[Metadata]
Title:Inferno
TitleUnicode:インフェルノ
Artist:9mm Parabellum Bullet
ArtistUnicode:9mm Parabellum Bullet
Creator:Monstrata
Version:Excruciating Extra
Source:ベルセルク
Tags:BERSERK guts casca griffith 2016 tv size opening
BeatmapID:1032126
BeatmapSetID:482090

[Difficulty]
HPDrainRate:6
CircleSize:4
OverallDifficulty:9.3
ApproachRate:9.3
SliderMultiplier:1.7
SliderTickRate:1

[Events]
//Background and Video events
0,0,"BERSERK.(Kentaro.Miura).full.1559669.jpg",0,0
//Break Periods
//Storyboard Layer 0 (Background)
//Storyboard Layer 1 (Fail)
//Storyboard Layer 2 (Pass)
//Storyboard Layer 3 (Foreground)
//Storyboard Sound Samples

[TimingPoints]
690,307.692307692308,3,3,1,90,1,0
8074,-200,3,3,0,50,0,0
11305,-200,3,3,1,75,0,0
11766,-100,3,3,1,90,0,0
22843,-100,3,3,1,70,0,0
25766,-100,3,3,0,50,0,0
26536,-100,3,3,1,70,0,0
29459,-100,3,3,0,50,0,0
30228,-100,3,3,1,70,0,0
32382,-100,3,3,0,70,0,0
32997,-100,3,3,1,70,0,0
37613,-200,3,3,1,35,0,0
40690,-200,3,3,0,35,0,0
41305,-200,3,3,1,50,0,0
44997,-100,3,3,1,90,0,0
52382,-133.333333333333,3,3,1,90,0,0
56074,-166.666666666667,3,3,1,45,0,0
59766,-100,3,3,1,90,0,0
74536,-133.333333333333,3,3,1,90,0,0
76382,-100,3,3,1,90,0,0
77920,-100,3,3,1,50,0,0
78228,-100,3,3,1,90,0,0
85305,-100,3,3,0,70,0,0
85382,-100,3,3,1,90,0,0
86536,-100,3,3,0,70,0,0
87459,-100,3,3,1,100,0,0

[Colours]
Combo1 : 182,156,214
Combo2 : 227,172,187
Combo3 : 227,182,136
Combo4 : 157,172,221

[HitObjects]
126,91,690,6,0,L|142:206,1,85,8|0,0:0|0:0,0:0:0:0:
148,259,997,1,2,0:0:0:0:
294,240,1151,2,0,L|186:196,1,85,8|8,0:0|0:0,0:0:0:0:
137,175,1458,1,2,0:0:0:0:
81,311,1613,5,8,0:0:0:0:
95,326,1689,1,0,0:0:0:0:
113,337,1766,1,0,0:0:0:0:
133,344,1843,1,0,0:0:0:0:
154,344,1920,2,0,L|235:338,3,42.5,8|0|0|0,0:0|0:0|0:0|0:0,0:0:0:0:
246,271,2228,2,0,L|327:265,3,42.5,4|0|0|0,0:0|0:0|0:0|0:0,0:0:0:0:
338,198,2536,6,0,L|441:190,1,85,8|0,0:0|0:0,0:0:0:0:
458,114,2843,1,2,0:0:0:0:
366,34,2997,2,0,L|373:119,1,85,8|8,0:0|0:0,0:0:0:0:
452,30,3305,1,2,0:0:0:0:
281,39,3459,5,8,0:0:0:0:
267,55,3535,1,0,0:0:0:0:
253,71,3612,1,0,0:0:0:0:
239,87,3689,1,0,0:0:0:0:
225,103,3766,2,0,L|230:162,3,42.5,8|0|0|0,0:0|0:0|0:0|0:0,0:0:0:0:
135,87,4074,2,0,P|150:126|147:168,1,85,4|0,0:0|0:0,0:0:0:0:
22,248,4382,5,8,0:0:0:0:
108,244,4536,2,0,L|216:262,1,85,8|2,0:0|0:0,0:0:0:0:
398,135,4843,1,8,0:0:0:0:
312,131,4997,2,0,L|204:149,1,85,8|2,0:0|0:0,0:0:0:0:
227,336,5305,5,8,0:0:0:0:
245,325,5381,1,0,0:0:0:0:
260,310,5458,1,2,0:0:0:0:
270,291,5535,1,0,0:0:0:0:
274,270,5613,2,0,L|337:278,3,42.5,8|0|0|0,0:0|0:0|0:0|0:0,0:0:0:0:
376,214,5920,2,0,L|439:206,3,42.5,4|0|0|0,0:0|0:0|0:0|0:0,0:0:0:0:
333,66,6228,5,8,0:0:0:0:
320,151,6382,2,0,P|286:177|244:180,1,85,8|2,0:0|0:0,0:0:0:0:
216,375,6690,1,8,0:0:0:0:
228,289,6844,2,0,P|261:263|303:260,1,85,8|2,0:0|0:0,0:0:0:0:
418,345,7151,5,8,0:0:0:0:
403,350,7227,1,0,0:0:0:0:
387,353,7304,1,0,0:0:0:0:
372,351,7381,1,0,0:0:0:0:
357,345,7458,1,8,0:0:0:0:
342,340,7535,1,0,0:0:0:0:
326,337,7612,1,0,0:0:0:0:
310,339,7689,1,0,0:0:0:0:
295,343,7766,2,0,P|261:368|219:371,1,85,8|0,0:0|0:0,0:0:0:0:
269,182,8074,6,0,B|302:239|302:239|294:342,1,170,2|0,0:0|0:0,0:0:0:0:
242,95,8997,2,0,L|228:264,1,170,2|0,0:0|0:0,0:0:0:0:
176,16,9920,2,0,B|167:120|167:120|201:177,1,170,10|0,0:0|0:0,0:0:0:0:
354,89,10843,2,0,P|297:66|242:95,1,127.5,6|0,0:0|0:0,0:0:0:0:
242,94,11382,1,8,0:0:0:0:
242,94,11459,1,8,0:0:0:0:
286,321,11766,5,8,0:0:0:0:
304,237,11920,1,0,0:0:0:0:
202,303,12074,1,8,0:0:0:0:
286,321,12228,1,8,0:0:0:0:
220,219,12382,1,8,0:0:0:0:
228,384,12536,1,2,0:0:0:0:
367,294,12690,5,8,0:0:0:0:
138,245,12843,1,0,0:0:0:0:
277,155,12997,1,8,0:0:0:0:
286,321,13151,1,8,0:0:0:0:
193,137,13305,1,8,0:0:0:0:
398,148,13459,1,2,0:0:0:0:
220,219,13613,5,8,0:0:0:0:
371,66,13766,1,0,0:0:0:0:
166,55,13920,1,8,0:0:0:0:
304,237,14074,1,8,0:0:0:0:
302,4,14228,1,8,0:0:0:0:
219,218,14382,1,2,0:0:0:0:
398,148,14536,6,0,L|292:157,1,85,8|0,0:1|0:0,0:0:0:0:
135,211,14843,2,0,L|241:220,1,85,8|0,0:1|0:0,0:0:0:0:
398,274,15151,2,0,L|292:283,1,85,8|0,0:1|0:0,0:0:0:0:
95,334,15459,5,2,0:0:0:0:
114,341,15535,1,0,0:0:0:0:
135,347,15612,1,2,0:0:0:0:
156,347,15689,1,0,0:0:0:0:
177,344,15766,1,8,0:0:0:0:
198,341,15843,1,0,0:0:0:0:
219,341,15920,1,2,0:0:0:0:
240,346,15997,1,0,0:0:0:0:
259,352,16074,2,0,P|298:367|340:365,1,85,8|8,0:0|0:0,0:0:0:0:
313,281,16382,5,10,0:0:0:0:
306,260,16458,1,0,0:0:0:0:
303,239,16535,1,2,0:0:0:0:
302,218,16612,1,0,0:0:0:0:
304,197,16689,1,8,0:0:0:0:
309,176,16766,1,0,0:0:0:0:
316,156,16843,1,2,0:0:0:0:
327,138,16920,1,0,0:0:0:0:
338,121,16997,2,0,P|387:105|433:113,1,85,8|8,0:0|0:0,0:0:0:0:
390,191,17305,5,10,0:0:0:0:
370,199,17381,1,0,0:0:0:0:
350,205,17458,1,2,0:0:0:0:
329,208,17535,1,0,0:0:0:0:
307,210,17612,1,8,0:0:0:0:
286,208,17689,1,0,0:0:0:0:
265,205,17766,1,2,0:0:0:0:
245,199,17843,1,0,0:0:0:0:
225,191,17920,2,0,P|163:191|139:201,1,85,8|8,0:0|0:0,0:0:0:0:
62,313,18228,5,8,0:0:0:0:
98,305,18304,1,0,0:0:0:0:
135,302,18381,1,8,0:0:0:0:
172,307,18458,1,8,0:0:0:0:
207,317,18535,1,8,0:0:0:0:
243,327,18612,1,0,0:0:0:0:
280,331,18689,1,8,0:0:0:0:
317,328,18766,1,8,0:0:0:0:
354,320,18843,2,0,L|414:329,1,42.5,8|8,0:0|0:0,0:0:0:0:
491,252,18997,2,0,L|449:259,1,42.5,8|0,0:0|0:0,0:0:0:0:
367,233,19151,5,10,0:0:0:0:
357,213,19227,1,0,0:0:0:0:
351,193,19304,1,2,0:0:0:0:
349,172,19381,1,0,0:0:0:0:
353,151,19458,1,8,0:0:0:0:
358,131,19535,1,0,0:0:0:0:
361,110,19612,1,2,0:0:0:0:
360,89,19689,1,0,0:0:0:0:
354,68,19766,2,0,P|323:37|285:26,1,85,8|8,0:0|0:0,0:0:0:0:
280,112,20074,5,10,0:0:0:0:
301,112,20150,1,0,0:0:0:0:
322,112,20227,1,2,0:0:0:0:
343,113,20304,1,0,0:0:0:0:
364,113,20381,1,8,0:0:0:0:
386,113,20458,1,0,0:0:0:0:
407,114,20535,1,2,0:0:0:0:
428,114,20612,1,0,0:0:0:0:
449,114,20690,2,0,P|484:162|478:201,1,85,8|8,0:0|0:0,0:0:0:0:
425,247,20997,5,10,0:0:0:0:
404,252,21073,1,0,0:0:0:0:
383,252,21150,1,2,0:0:0:0:
362,247,21227,1,0,0:0:0:0:
344,237,21304,1,8,0:0:0:0:
325,226,21381,1,0,0:0:0:0:
305,221,21458,1,2,0:0:0:0:
284,221,21535,1,0,0:0:0:0:
263,226,21613,2,0,L|277:313,1,85,8|8,0:0|0:0,0:0:0:0:
177,369,21920,5,8,0:0:0:0:
178,362,21996,1,8,0:0:0:0:
179,355,22073,1,0,0:0:0:0:
180,348,22150,1,8,0:0:0:0:
181,341,22227,1,8,0:0:0:0:
182,334,22304,1,0,0:0:0:0:
183,327,22381,1,8,0:0:0:0:
184,320,22458,1,0,0:0:0:0:
186,313,22535,1,8,0:0:0:0:
187,306,22612,1,0,0:0:0:0:
188,299,22689,1,8,0:0:0:0:
189,292,22766,1,0,0:0:0:0:
190,285,22843,1,4,0:0:0:0:
41,16,23151,6,0,L|57:115,1,85,8|0,0:0|0:0,0:0:0:0:
141,75,23459,1,8,0:0:0:0:
137,95,23535,1,0,0:0:0:0:
134,116,23612,1,0,0:0:0:0:
130,137,23689,1,0,0:0:0:0:
127,158,23766,5,2,0:0:0:0:
384,158,24074,5,2,0:0:0:0:
127,235,24382,5,2,0:0:0:0:
384,235,24690,6,0,L|368:334,1,85,8|0,0:0|0:0,0:0:0:0:
290,348,24997,1,8,0:0:0:0:
317,181,25151,1,8,0:0:0:0:
333,166,25227,1,0,0:0:0:0:
352,157,25304,1,0,0:0:0:0:
373,151,25381,1,0,0:0:0:0:
394,151,25458,1,8,0:0:0:0:
414,156,25535,1,0,0:0:0:0:
433,166,25612,5,8,0:0:0:0:
384,235,25766,1,8,0:0:0:0:
256,55,25920,1,0,0:0:0:0:
213,128,26074,1,8,0:0:0:0:
297,128,26228,1,4,0:0:0:0:
172,55,26382,1,0,0:0:0:0:
128,235,26536,5,8,0:0:0:0:
125,256,26612,1,0,0:0:0:0:
122,277,26689,1,8,0:0:0:0:
120,298,26766,1,8,0:0:0:0:
117,319,26843,2,0,L|222:298,1,85,8|0,0:0|0:0,0:0:0:0:
322,242,27151,2,0,L|239:226,1,85,0|0,0:0|0:0,0:0:0:0:
218,59,27459,5,8,0:0:0:0:
215,80,27535,1,0,0:0:0:0:
212,101,27612,1,8,0:0:0:0:
210,122,27689,1,8,0:0:0:0:
207,143,27766,2,0,L|102:164,1,85,8|0,0:0|0:0,0:0:0:0:
0,67,28074,2,0,L|83:84,1,85,0|0,0:0|0:0,0:0:0:0:
71,230,28382,6,0,P|44:198|38:156,1,85,8|0,0:0|0:0,0:0:0:0:
156,241,28690,1,8,0:0:0:0:
166,238,28766,1,0,0:0:0:0:
176,236,28843,1,8,0:0:0:0:
187,234,28920,1,0,0:0:0:0:
197,232,28997,1,0,0:0:0:0:
208,230,29074,1,0,0:0:0:0:
218,228,29151,1,8,0:0:0:0:
228,226,29228,1,0,0:0:0:0:
239,224,29305,5,8,0:0:0:0:
276,57,29459,1,8,0:0:0:0:
324,243,29613,1,0,0:0:0:0:
258,141,29766,1,8,0:0:0:0:
306,327,29920,1,4,0:0:0:0:
342,159,30074,1,0,0:0:0:0:
222,309,30228,6,0,L|105:284,1,85,8|0,0:0|0:0,0:0:0:0:
258,141,30536,2,0,L|233:258,1,85,8|0,0:0|0:0,0:0:0:0:
324,75,30843,2,0,L|349:192,1,85,8|0,0:0|0:0,0:0:0:0:
490,39,31151,6,0,L|407:57,1,85,8|0,0:0|0:0,0:0:0:0:
442,223,31459,1,8,0:0:0:0:
424,139,31612,1,2,0:0:0:0:
424,139,31690,1,2,0:0:0:0:
424,139,31766,1,6,0:0:0:0:
424,139,32074,5,8,0:0:0:0:
358,240,32228,1,0,0:0:0:0:
358,240,32305,1,8,0:0:0:0:
358,240,32382,1,8,0:0:0:0:
505,166,32536,1,8,0:0:0:0:
342,159,32690,1,4,0:0:0:0:
414,304,32843,1,0,0:0:0:0:
424,139,32997,5,2,0:0:0:0:
279,213,33151,1,2,0:0:0:0:
442,223,33305,1,8,0:0:0:0:
366,77,33459,1,8,0:0:0:0:
366,77,33536,1,0,0:0:0:0:
366,77,33613,1,8,0:0:0:0:
366,77,33920,5,2,0:0:0:0:
414,304,34074,1,2,0:0:0:0:
366,77,34228,2,0,L|348:193,1,85,8|0,0:0|0:0,0:0:0:0:
312,310,34536,2,0,L|299:227,1,85,0|0,0:0|0:0,0:0:0:0:
146,77,34843,5,8,0:0:0:0:
98,304,34997,1,8,0:0:0:0:
146,77,35151,2,0,L|164:193,1,85,8|0,0:0|0:0,0:0:0:0:
199,310,35459,2,0,L|213:227,1,85,0|0,0:0|0:0,0:0:0:0:
253,76,35766,6,0,L|266:159,1,85,8|0,0:0|0:0,0:0:0:0:
323,223,36074,1,8,0:0:0:0:
470,160,36228,1,8,0:0:0:0:
453,147,36304,1,0,0:0:0:0:
434,138,36381,1,0,0:0:0:0:
413,133,36458,1,0,0:0:0:0:
392,132,36535,1,8,0:0:0:0:
371,135,36612,1,0,0:0:0:0:
351,143,36689,5,8,0:0:0:0:
294,302,36997,5,0,0:0:0:0:
323,223,37305,5,0,0:0:0:0:
265,381,37613,6,0,P|129:308|131:212,1,255,4|0,0:1|0:0,0:0:0:0:
126,222,39459,2,0,B|254:187|250:252|391:208,1,255,8|0,0:0|0:0,0:0:0:0:
420,138,40690,6,0,L|461:131,1,42.5,2|2,0:0|0:0,0:0:0:0:
461,130,40920,1,8,0:0:0:0:
461,130,40997,1,8,0:0:0:0:
376,68,41305,6,0,P|328:82|284:72,1,85,10|2,0:0|0:0,0:0:0:0:
184,0,41920,1,2,0:0:0:0:
136,68,42228,6,0,P|184:82|228:72,1,85,10|2,0:0|0:0,0:0:0:0:
328,0,42843,1,2,0:0:0:0:
256,224,43151,6,0,L|256:120,2,85,2|2|2,0:0|0:0|0:0,0:0:0:0:
136,68,44074,5,2,0:0:0:0:
256,309,44382,1,2,0:0:0:0:
376,68,44690,1,2,0:0:0:0:
78,248,44997,5,8,0:0:0:0:
134,184,45151,2,0,L|226:196,1,85,8|0,0:0|0:0,0:0:0:0:
269,126,45459,1,8,0:0:0:0:
152,39,45613,1,8,0:0:0:0:
160,58,45689,1,0,0:0:0:0:
168,78,45766,1,8,0:0:0:0:
176,97,45843,1,8,0:0:0:0:
184,117,45920,6,0,P|210:64|330:65,1,170,8|8,0:0|0:0,0:0:0:0:
218,194,46382,1,2,0:0:0:0:
99,108,46536,2,0,L|-2:97,1,85,8|2,0:0|0:0,0:0:0:0:
134,185,46843,5,8,0:0:0:0:
146,167,46919,1,0,0:0:0:0:
158,150,46996,1,8,0:0:0:0:
171,133,47073,1,8,0:0:0:0:
183,116,47150,1,10,0:0:0:0:
53,181,47305,2,0,L|10:185,3,42.5,8|0|8|0,0:0|0:0|0:0|0:0,0:0:0:0:
99,108,47613,1,8,0:0:0:0:
93,257,47766,5,2,0:0:0:0:
112,265,47842,1,0,0:0:0:0:
133,269,47919,1,8,0:0:0:0:
154,269,47996,1,8,0:0:0:0:
175,264,48073,1,2,0:0:0:0:
195,258,48150,1,0,0:0:0:0:
216,255,48227,1,8,0:0:0:0:
237,257,48304,1,8,0:0:0:0:
258,261,48382,2,0,L|247:322,3,42.5,2|0|8|8,0:0|0:0|0:0|0:0,0:0:0:0:
142,179,48690,6,0,L|124:84,1,85,2|8,0:0|0:0,0:0:0:0:
126,95,48920,1,8,0:0:0:0:
126,95,48997,1,8,0:0:0:0:
256,0,49151,1,8,0:0:0:0:
256,0,49228,1,0,0:0:0:0:
256,0,49305,2,0,L|256:120,1,85,8|8,0:0|0:0,0:0:0:0:
370,179,49613,6,0,L|387:84,1,85,10|0,0:0|0:0,0:0:0:0:
385,95,49843,1,0,0:0:0:0:
385,95,49920,1,10,0:0:0:0:
256,189,50074,1,0,0:0:0:0:
256,189,50151,1,0,0:0:0:0:
256,189,50228,2,0,L|271:273,1,85,8|8,0:0|0:0,0:0:0:0:
491,189,50536,6,0,L|476:273,1,85,8|0,0:0|0:0,0:0:0:0:
476,273,50766,1,0,0:0:0:0:
476,273,50843,1,2,0:0:0:0:
380,94,50997,2,0,L|396:178,1,85,8|0,0:0|0:0,0:0:0:0:
396,177,51227,1,0,0:0:0:0:
396,177,51304,1,2,0:0:0:0:
288,56,51459,5,8,0:0:0:0:
270,51,51535,1,0,0:0:0:0:
253,50,51612,1,8,0:0:0:0:
235,52,51689,1,0,0:0:0:0:
219,58,51766,1,8,0:0:0:0:
203,67,51843,1,0,0:0:0:0:
190,79,51920,1,8,0:0:0:0:
180,93,51997,1,0,0:0:0:0:
173,109,52074,1,2,0:0:0:0:
169,127,52151,1,0,0:0:0:0:
169,144,52228,1,2,0:0:0:0:
172,162,52305,1,0,0:0:0:0:
179,178,52382,6,0,L|273:172,1,63.7500024318696,2|8,0:0|0:0,0:0:0:0:
160,264,52690,2,0,L|254:258,1,63.7500024318696,8|2,0:0|0:0,0:0:0:0:
57,375,52997,1,8,0:0:0:0:
77,291,53151,1,8,0:0:0:0:
141,350,53305,6,0,L|235:344,1,63.7500024318696,2|8,0:0|0:0,0:0:0:0:
371,350,53613,2,0,L|277:344,1,63.7500024318696,8|2,0:0|0:0,0:0:0:0:
435,291,53920,1,8,0:0:0:0:
455,375,54074,1,8,0:0:0:0:
331,182,54228,5,2,0:0:0:0:
371,350,54382,1,10,0:0:0:0:
258,137,54690,5,2,0:0:0:0:
253,309,54844,1,10,0:0:0:0:
199,74,55151,6,0,L|172:159,1,63.7500024318696,10|0,0:0|0:0,0:0:0:0:
134,287,55459,2,0,L|152:225,1,63.7500024318696,10|0,0:0|0:0,0:0:0:0:
91,157,55766,1,8,0:0:0:0:
421,227,56074,5,4,0:1:0:0:
17,24,56997,1,4,0:1:0:0:
256,384,57920,1,4,0:1:0:0:
495,24,58843,1,4,0:1:0:0:
160,120,59305,1,8,0:0:0:0:
160,120,59382,1,8,0:0:0:0:
160,120,59459,2,0,P|199:122|216:129,1,50.9999984436036,10|0,0:0|0:0,0:0:0:0:
352,264,59766,5,8,0:0:0:0:
300,100,59920,1,0,0:0:0:0:
183,227,60074,1,8,0:0:0:0:
326,182,60228,1,8,0:0:0:0:
209,309,60382,1,8,0:0:0:0:
241,163,60536,1,2,0:0:0:0:
293,327,60690,5,8,0:0:0:0:
300,100,60843,1,0,0:0:0:0:
209,309,60997,1,8,0:0:0:0:
157,145,61151,1,8,0:0:0:0:
352,264,61305,1,8,0:0:0:0:
216,82,61459,1,2,0:0:0:0:
293,327,61613,5,8,0:0:0:0:
300,100,61766,1,0,0:0:0:0:
99,207,61920,1,8,0:0:0:0:
326,182,62074,1,8,0:0:0:0:
72,125,62228,1,8,0:0:0:0:
209,309,62382,1,2,0:0:0:0:
273,18,62536,6,0,L|204:95,1,85,8|0,0:1|0:0,0:0:0:0:
72,125,62843,2,0,L|173:146,1,85,8|0,0:1|0:0,0:0:0:0:
265,245,63151,2,0,L|232:146,1,85,8|0,0:1|0:0,0:0:0:0:
45,44,63459,5,8,0:0:0:0:
239,384,63766,1,8,0:0:0:0:
436,45,64074,1,8,0:0:0:0:
64,192,64382,5,8,0:0:0:0:
436,339,64690,1,8,0:0:0:0:
256,5,64997,1,8,0:0:0:0:
76,339,65305,5,8,0:0:0:0:
464,192,65613,1,2,0:0:0:0:
76,45,65920,1,0,0:0:0:0:
256,384,66228,5,8,0:0:0:0:
464,104,66536,1,8,0:0:0:0:
48,280,66843,1,8,0:0:0:0:
436,339,67151,5,8,0:0:0:0:
340,0,67459,1,8,0:0:0:0:
256,384,67766,1,8,0:0:0:0:
172,0,68074,5,8,0:0:0:0:
76,339,68382,1,8,0:0:0:0:
256,48,68690,1,8,0:0:0:0:
512,384,68997,5,8,0:0:0:0:
256,128,69305,1,8,0:0:0:0:
0,384,69613,1,8,0:0:0:0:
448,152,69920,5,8,0:0:0:0:
64,152,70228,1,8,0:0:0:0:
256,384,70536,5,8,0:0:0:0:
256,362,70612,1,0,0:0:0:0:
256,341,70689,1,0,0:0:0:0:
256,320,70766,1,0,0:0:0:0:
256,299,70843,6,0,L|369:259,1,85,2|0,0:0|0:0,0:0:0:0:
389,136,71151,2,0,P|398:217|335:270,1,170,8|8,0:0|0:0,0:0:0:0:
319,186,71613,1,0,0:0:0:0:
337,20,71766,6,0,L|309:101,1,85,8|0,0:0|0:0,0:0:0:0:
174,20,72074,2,0,L|203:101,1,85,8|0,0:0|0:0,0:0:0:0:
92,207,72382,1,8,0:0:0:0:
121,127,72535,1,8,0:0:0:0:
120,287,72690,6,0,P|79:291|40:274,1,85,2|0,0:0|0:0,0:0:0:0:
175,221,72997,2,0,B|204:221|204:221|256:252|310:222|310:222|348:221,1,170,8|8,0:0|0:0,0:0:0:0:
256,144,73459,1,8,0:0:0:0:
185,302,73613,5,8,0:0:0:0:
202,308,73689,1,0,0:0:0:0:
220,313,73766,1,8,0:0:0:0:
238,316,73843,1,0,0:0:0:0:
257,316,73920,1,8,0:0:0:0:
275,315,73997,1,8,0:0:0:0:
294,312,74074,1,8,0:0:0:0:
312,307,74151,1,0,0:0:0:0:
329,300,74228,2,0,L|422:299,1,85,10|8,0:0|0:0,0:0:0:0:
362,184,74536,6,0,P|363:246|328:299,1,127.500004863739,2|0,0:0|0:0,0:0:0:0:
256,72,75151,1,8,0:0:0:0:
417,119,75459,2,0,B|450:155|450:155|442:233,1,127.500004863739,0|0,0:0|0:0,0:0:0:0:
256,72,76074,1,0,0:0:0:0:
499,7,76382,5,8,0:0:0:0:
497,22,76458,1,0,0:0:0:0:
496,38,76535,1,0,0:0:0:0:
494,54,76612,1,0,0:0:0:0:
493,70,76689,1,2,0:0:0:0:
416,118,76843,2,0,P|441:152|444:194,1,85,8|0,0:0|0:0,0:0:0:0:
400,271,77151,1,2,0:0:0:0:
473,352,77305,5,8,0:0:0:0:
473,352,77382,1,0,0:0:0:0:
473,352,77459,1,8,0:0:0:0:
473,352,77536,1,0,0:0:0:0:
473,352,77613,1,4,0:0:0:0:
473,352,77920,6,0,L|423:345,1,42.5,8|8,0:0|0:0,0:0:0:0:
320,285,78074,2,0,L|270:292,1,42.5,8|8,0:0|0:0,0:0:0:0:
137,310,78228,5,10,0:0:0:0:
120,296,78304,1,0,0:0:0:0:
107,280,78381,1,8,0:0:0:0:
97,261,78458,1,8,0:0:0:0:
91,240,78535,1,8,0:0:0:0:
90,219,78612,1,0,0:0:0:0:
92,198,78689,1,2,0:0:0:0:
100,178,78766,1,0,0:0:0:0:
110,160,78843,2,0,P|151:136|214:147,1,85,8|8,0:0|0:0,0:0:0:0:
245,198,79151,5,10,0:0:0:0:
265,203,79227,1,0,0:0:0:0:
286,206,79304,1,2,0:0:0:0:
307,204,79381,1,0,0:0:0:0:
328,200,79458,1,8,0:0:0:0:
349,196,79535,1,0,0:0:0:0:
370,195,79612,1,2,0:0:0:0:
391,199,79689,1,0,0:0:0:0:
412,205,79766,2,0,L|402:306,1,85,8|8,0:0|0:0,0:0:0:0:
343,350,80074,5,10,0:0:0:0:
322,356,80150,1,0,0:0:0:0:
301,360,80227,1,2,0:0:0:0:
280,362,80304,1,0,0:0:0:0:
259,361,80381,1,8,0:0:0:0:
238,358,80458,1,0,0:0:0:0:
217,353,80535,1,2,0:0:0:0:
198,345,80612,1,0,0:0:0:0:
179,335,80690,2,0,B|173:294|173:294|184:225,1,85,8|8,0:0|0:0,0:0:0:0:
115,175,80997,5,8,0:0:0:0:
136,198,81073,1,0,0:0:0:0:
163,215,81150,1,8,0:0:0:0:
193,224,81227,1,8,0:0:0:0:
225,225,81304,1,8,0:0:0:0:
256,218,81381,1,0,0:0:0:0:
284,203,81458,1,8,0:0:0:0:
306,180,81535,1,0,0:0:0:0:
322,153,81613,2,0,L|398:166,1,42.5,8|8,0:0|0:0,0:0:0:0:
363,247,81766,2,0,L|421:295,1,42.5,8|8,0:0|0:0,0:0:0:0:
332,337,81920,5,10,0:0:0:0:
318,353,81996,1,0,0:0:0:0:
302,367,82073,1,2,0:0:0:0:
283,377,82150,1,0,0:0:0:0:
263,383,82227,1,8,0:0:0:0:
242,386,82304,1,0,0:0:0:0:
221,384,82381,1,2,0:0:0:0:
200,378,82458,1,0,0:0:0:0:
182,369,82536,2,0,P|148:315|147:280,1,85,8|8,0:0|0:0,0:0:0:0:
91,229,82843,5,10,0:0:0:0:
109,217,82919,1,0,0:0:0:0:
124,203,82996,1,2,0:0:0:0:
137,186,83073,1,0,0:0:0:0:
146,167,83150,1,8,0:0:0:0:
152,147,83227,1,0,0:0:0:0:
153,125,83304,1,2,0:0:0:0:
151,104,83381,1,0,0:0:0:0:
145,84,83459,2,0,P|102:64|46:85,1,85,8|8,0:0|0:0,0:0:0:0:
21,142,83766,5,10,0:0:0:0:
41,146,83842,1,0,0:0:0:0:
62,150,83919,1,2,0:0:0:0:
83,154,83996,1,0,0:0:0:0:
104,159,84073,1,8,0:0:0:0:
125,163,84150,1,0,0:0:0:0:
145,167,84227,1,2,0:0:0:0:
166,171,84304,1,0,0:0:0:0:
187,176,84382,2,0,P|217:204|221:246,1,85,8|8,0:0|0:0,0:0:0:0:
167,344,84690,6,0,L|207:330,1,42.5,10|8,0:0|0:0,0:0:0:0:
301,261,84843,2,0,L|287:301,1,42.5,8|0,0:0|0:0,0:0:0:0:
105,251,84997,2,0,L|144:265,1,42.5,8|8,0:0|0:0,0:0:0:0:
260,145,85151,2,0,L|274:184,1,42.5,8|0,0:0|0:0,0:0:0:0:
143,176,85305,2,0,P|141:154|145:134,1,42.5,8|8,0:0|0:0,0:0:0:0:
210,30,85459,2,0,P|211:51|207:71,1,42.5,8|0,0:0|0:0,0:0:0:0:
75,90,85613,5,8,0:0:0:0:
46,175,85766,1,8,0:0:0:0:
46,175,85843,1,0,0:0:0:0:
46,175,85920,1,2,0:0:0:0:
20,262,86074,2,0,L|130:247,1,85,8|8,0:0|0:0,0:0:0:0:
188,238,86382,1,2,0:0:0:0:
148,371,86536,6,0,L|153:315,2,56.6666666666667,8|8|8,0:0|0:0|0:0,0:0:0:0:
64,383,86843,2,0,L|174:368,1,85,4|0,0:0|0:0,0:0:0:0:
272,249,87151,2,0,L|162:234,1,85,4|0,0:0|0:0,0:0:0:0:
20,262,87459,5,8,0:0:0:0:
137,169,87613,1,8,0:0:0:0:
52,46,87766,1,8,0:0:0:0:
106,249,87920,1,8,0:0:0:0:
137,33,88074,1,8,0:0:0:0:
20,262,88227,1,8,0:0:0:0:
223,156,88382,1,8,0:0:0:0:
