osu file format v14

[General]
AudioFilename: audio.mp3
AudioLeadIn: 0
PreviewTime: 8039
Countdown: 0
SampleSet: None
StackLeniency: 0.7
Mode: 0
LetterboxInBreaks: 0
WidescreenStoryboard: 0

[Editor]
Bookmarks: 690,9001,10849,13927,33937,36708,50561,51485,52408,56103,62875,63491
DistanceSpacing: 1
BeatDivisor: 4
GridSize: 8
TimelineZoom: 3.999998

[Metadata]
Title:Inferno
TitleUnicode:インフェルノ
Artist:9mm Parabellum Bullet
ArtistUnicode:9mm Parabellum Bullet
Creator:Monstrata
Version:Blistering Normal
Source:ベルセルク
Tags:BERSERK guts casca griffith 2016 tv size opening
BeatmapID:1032282
BeatmapSetID:482090

[Difficulty]
HPDrainRate:3
CircleSize:3
OverallDifficulty:4.5
ApproachRate:5
SliderMultiplier:0.999999999999999
SliderTickRate:1

[Events]
//Background and Video events
0,0,"BERSERK.(Kentaro.Miura).full.1559669.jpg",0,0
//Break Periods
2,37813,43797
//Storyboard Layer 0 (Background)
//Storyboard Layer 1 (Fail)
//Storyboard Layer 2 (Pass)
//Storyboard Layer 3 (Foreground)
//Storyboard Sound Samples

[TimingPoints]
690,307.692307692308,3,3,1,90,1,0
8074,-100,3,3,0,50,0,0
11305,-100,3,3,1,75,0,0
11766,-100,3,3,1,90,0,0
22843,-100,3,3,1,70,0,0
25766,-100,3,3,0,50,0,0
26536,-100,3,3,1,70,0,0
29459,-100,3,3,0,50,0,0
30228,-100,3,3,1,70,0,0
32382,-100,3,3,0,70,0,0
32997,-100,3,3,1,70,0,0
37613,-100,3,3,1,35,0,0
44997,-100,3,3,1,90,0,0
56074,-100,3,3,1,45,0,0
59766,-100,3,3,1,90,0,0
77920,-100,3,3,1,50,0,0
78228,-100,3,3,1,90,0,0
85305,-100,3,3,0,70,0,0
85382,-100,3,3,1,90,0,0
86536,-100,3,3,0,70,0,0
87459,-100,3,3,1,100,0,0

[Colours]
Combo1 : 182,156,214
Combo2 : 227,172,187
Combo3 : 227,182,136
Combo4 : 157,172,221

[HitObjects]
24,99,690,6,0,L|143:79,1,99.9999999999999,8|2,0:0|0:0,0:0:0:0:
168,102,1151,2,0,P|226:109|266:92,1,99.9999999999999,8|2,0:0|0:0,0:0:0:0:
309,72,1613,2,0,L|297:178,2,99.9999999999999,8|8|4,0:0|0:0|0:0,0:0:0:0:
404,41,2536,6,0,P|461:75|478:120,1,99.9999999999999,8|2,0:0|0:0,0:0:0:0:
497,148,2997,2,0,B|477:177|477:177|480:263,1,99.9999999999999,8|2,0:0|0:0,0:0:0:0:
440,274,3459,2,0,B|443:388,2,99.9999999999999,8|8|4,0:0|0:0|0:0,0:0:0:0:
353,221,4382,6,0,P|308:203|259:209,1,99.9999999999999,8|2,0:0|0:0,0:0:0:0:
208,203,4843,2,0,P|216:253|208:302,1,99.9999999999999,8|2,0:0|0:0,0:0:0:0:
170,335,5305,2,0,B|142:343|142:343|101:326|62:347,2,99.9999999999999,8|8|4,0:0|0:0|0:0,0:0:0:0:
266,363,6228,6,0,B|315:373|315:373|362:357,1,99.9999999999999,8|2,0:0|0:0,0:0:0:0:
395,319,6690,2,0,B|405:270|405:270|389:222,1,99.9999999999999,8|2,0:0|0:0,0:0:0:0:
354,187,7151,2,0,B|305:177|305:177|257:192,2,99.9999999999999,8|8|8,0:0|0:0|0:0,0:0:0:0:
447,150,8074,6,0,P|461:74|371:109,1,200,2|0,0:0|0:0,0:0:0:0:
354,187,8997,2,0,P|271:217|160:175,1,200,2|0,0:0|0:0,0:0:0:0:
81,132,9920,6,0,L|111:335,1,200,10|0,0:0|0:0,0:0:0:0:
201,370,10843,2,0,P|284:340|395:382,1,200,6|8,0:0|0:0,0:0:0:0:
467,315,11766,6,0,B|480:286|480:286|472:209,1,99.9999999999999,8|8,0:0|0:0,0:0:0:0:
455,119,12382,1,8,0:0:0:0:
378,182,12690,2,0,L|385:251,2,50,8|0|8,0:0|0:0|0:0,0:0:0:0:
290,133,13305,1,8,0:0:0:0:
215,198,13613,6,0,P|167:212|118:201,1,99.9999999999999,8|8,0:0|0:0,0:0:0:0:
49,129,14228,1,8,0:0:0:0:
98,41,14536,2,0,L|163:23,1,50,8|0,0:1|0:0,0:0:0:0:
195,17,14843,1,8,0:1:0:0:
284,61,15151,1,8,0:1:0:0:
373,17,15459,6,0,L|421:30,1,50,2|2,0:0|0:0,0:0:0:0:
469,43,15766,2,0,P|486:101|475:147,1,99.9999999999999,8|8,0:0|0:0,0:0:0:0:
382,168,16382,2,0,L|333:181,1,50,10|2,0:0|0:0,0:0:0:0:
286,194,16689,2,0,P|269:252|280:298,1,99.9999999999999,8|8,0:0|0:0,0:0:0:0:
351,356,17305,6,0,P|374:363|399:362,1,50,10|2,0:0|0:0,0:0:0:0:
440,333,17613,2,0,L|451:233,1,99.9999999999999,8|8,0:0|0:0,0:0:0:0:
463,134,18228,2,0,L|399:146,1,50,8|8,0:0|0:0,0:0:0:0:
378,179,18536,2,0,L|328:169,1,50,8|8,0:0|0:0,0:0:0:0:
279,160,18843,1,8,0:0:0:0:
181,139,19151,6,0,L|184:199,1,50,10|2,0:0|0:0,0:0:0:0:
187,239,19459,2,0,P|169:285|128:311,1,99.9999999999999,8|8,0:0|0:0,0:0:0:0:
33,280,20074,2,0,L|30:220,1,50,10|2,0:0|0:0,0:0:0:0:
27,180,20382,2,0,P|44:133|85:107,1,99.9999999999999,8|8,0:0|0:0,0:0:0:0:
182,133,20997,6,0,P|206:135|231:133,1,50,10|2,0:0|0:0,0:0:0:0:
277,113,21305,2,0,B|265:163|265:163|279:228,1,99.9999999999999,8|8,0:0|0:0,0:0:0:0:
274,310,21920,2,0,P|358:265|365:170,1,200,8|8,0:0|0:0,0:0:0:0:
360,70,22843,5,4,0:0:0:0:
437,7,23151,2,0,P|473:43|461:192,1,200,8|2,0:0|0:0,0:0:0:0:
457,282,24074,1,2,0:0:0:0:
366,324,24382,1,2,0:0:0:0:
273,281,24690,6,0,P|225:271|178:285,1,99.9999999999999,8|8,0:0|0:0,0:0:0:0:
144,322,25151,2,0,L|120:207,1,99.9999999999999,8|8,0:0|0:0,0:0:0:0:
113,174,25613,2,0,L|44:168,2,50,8|8|0,0:0|0:0|0:0,0:0:0:0:
187,107,26228,1,4,0:0:0:0:
274,57,26536,6,0,P|286:104|272:162,1,99.9999999999999,8|8,0:0|0:0,0:0:0:0:
222,238,27151,1,0,0:0:0:0:
261,329,27459,2,0,P|308:342|356:328,1,99.9999999999999,8|8,0:0|0:0,0:0:0:0:
387,233,28074,1,0,0:0:0:0:
416,136,28382,6,0,P|458:162|482:205,1,99.9999999999999,8|8,0:0|0:0,0:0:0:0:
496,253,28843,2,0,B|511:309|511:309|500:362|432:364,1,150,8|8,0:0|0:0,0:0:0:0:
351,326,29613,1,0,0:0:0:0:
256,359,29920,1,4,0:0:0:0:
161,326,30228,6,0,L|58:350,2,99.9999999999999,8|8|8,0:0|0:0|0:0,0:0:0:0:
234,259,31151,2,0,P|238:209|215:165,1,99.9999999999999,8|8,0:0|0:0,0:0:0:0:
125,122,31766,1,6,0:0:0:0:
34,77,32074,6,0,L|24:188,2,99.9999999999999,8|8|4,0:0|0:0|0:0,0:0:0:0:
117,23,32997,2,0,P|166:28|210:67,1,99.9999999999999,2|8,0:0|0:0,0:0:0:0:
256,146,33613,1,8,0:0:0:0:
307,60,33920,6,0,P|345:28|394:23,1,99.9999999999999,2|8,0:0|0:0,0:0:0:0:
478,77,34536,1,0,0:0:0:0:
486,176,34843,2,0,L|495:276,1,99.9999999999999,8|8,0:0|0:0,0:0:0:0:
438,358,35459,1,0,0:0:0:0:
352,306,35766,6,0,P|268:286|199:314,2,150,8|8|8,0:0|0:0|0:0,0:0:0:0:
438,358,36997,2,0,P|452:317|432:248,1,99.9999999999999,0|0,0:0|0:0,0:0:0:0:
358,205,37613,5,4,0:1:0:0:
151,135,44997,6,0,L|211:129,1,50,8|8,0:0|0:0,0:0:0:0:
271,58,45459,2,0,L|331:64,1,50,8|8,0:0|0:0,0:0:0:0:
419,78,45920,2,0,P|446:119|444:168,1,99.9999999999999,8|8,0:0|0:0,0:0:0:0:
397,256,46536,1,8,0:0:0:0:
299,236,46843,6,0,L|240:224,1,50,8|8,0:0|0:0,0:0:0:0:
172,289,47305,2,0,L|113:301,1,50,8|8,0:0|0:0,0:0:0:0:
25,322,47766,2,0,P|23:272|48:230,1,99.9999999999999,2|2,0:0|0:0,0:0:0:0:
145,201,48382,1,2,0:0:0:0:
160,102,48690,6,0,P|134:59|92:34,2,99.9999999999999,2|8|8,0:0|0:0|0:0,0:0:0:0:
239,162,49613,2,0,P|288:161|331:137,2,99.9999999999999,10|10|8,0:0|0:0|0:0,0:0:0:0:
145,201,50536,6,0,P|121:244|120:293,1,99.9999999999999,8|2,0:0|0:0,0:0:0:0:
146,336,50997,2,0,P|189:359|238:360,1,99.9999999999999,8|2,0:0|0:0,0:0:0:0:
286,345,51459,2,0,B|319:336|319:336|396:355,2,99.9999999999999,8|8|2,0:0|0:0|0:0,0:0:0:0:
216,268,52382,6,0,P|203:194|274:79,1,200,2|8,0:0|0:0,0:0:0:0:
356,115,53305,2,0,P|369:189|298:304,1,200,2|8,0:0|0:0,0:0:0:0:
238,362,54228,6,0,L|175:361,1,50,2|10,0:0|0:0,0:0:0:0:
120,287,54690,2,0,L|65:254,1,50,2|10,0:0|0:0,0:0:0:0:
50,164,55151,2,0,P|43:118|59:68,2,99.9999999999999,10|10|8,0:0|0:0|0:0,0:0:0:0:
142,125,56074,6,0,B|243:107|226:183|349:156,1,200,4|0,0:1|0:0,0:0:0:0:
396,80,56997,2,0,P|432:168|378:249,1,200,4|0,0:1|0:0,0:0:0:0:
278,257,57920,6,0,B|223:252|190:297|190:297|145:322|80:297,1,200,4|0,0:1|0:0,0:0:0:0:
17,238,58843,2,0,L|31:138,1,99.9999999999999,4|0,0:1|0:0,0:0:0:0:
43,38,59459,1,10,0:0:0:0:
119,99,59766,6,0,P|167:114|216:106,1,99.9999999999999,8|8,0:0|0:0,0:0:0:0:
292,41,60382,1,8,0:0:0:0:
375,95,60690,2,0,L|376:155,2,50,8|0|8,0:0|0:0|0:0,0:0:0:0:
458,41,61305,1,8,0:0:0:0:
508,125,61613,6,0,P|504:175|477:216,1,99.9999999999999,8|8,0:0|0:0,0:0:0:0:
381,245,62228,1,8,0:0:0:0:
324,327,62536,2,0,P|375:345|433:331,2,99.9999999999999,8|8|8,0:1|0:1|0:1,0:0:0:0:
279,237,63459,6,0,L|177:222,2,99.9999999999999,8|8|8,0:0|0:0|0:0,0:0:0:0:
293,138,64382,2,0,L|308:39,2,99.9999999999999,8|8|8,0:0|0:0|0:0,0:0:0:0:
391,152,65305,6,0,L|489:166,2,99.9999999999999,8|2|0,0:0|0:0|0:0,0:0:0:0:
376,250,66228,2,0,L|361:348,2,99.9999999999999,8|8|8,0:0|0:0|0:0,0:0:0:0:
297,185,67151,6,0,P|252:165|204:172,2,99.9999999999999,8|8|8,0:0|0:0|0:0,0:0:0:0:
239,267,68074,2,0,P|244:316|274:354,2,99.9999999999999,8|8|8,0:0|0:0|0:0,0:0:0:0:
338,278,68997,6,0,L|441:290,2,99.9999999999999,8|8|8,0:0|0:0|0:0,0:0:0:0:
301,187,69920,2,0,L|259:91,1,99.9999999999999,8|8,0:0|0:0,0:0:0:0:
221,3,70536,1,8,0:0:0:0:
162,83,70843,6,0,P|113:94|64:85,1,99.9999999999999,2|8,0:0|0:0,0:0:0:0:
0,162,71459,1,8,0:0:0:0:
67,235,71766,2,0,P|115:246|164:237,1,99.9999999999999,8|8,0:0|0:0,0:0:0:0:
225,158,72382,1,8,0:0:0:0:
285,78,72690,6,0,P|334:69|383:81,1,99.9999999999999,2|8,0:0|0:0,0:0:0:0:
446,158,73305,1,8,0:0:0:0:
386,238,73613,2,0,P|337:246|288:235,1,99.9999999999999,8|8,0:0|0:0,0:0:0:0:
225,158,74228,1,10,0:0:0:0:
205,59,74536,6,0,P|144:100|154:228,1,200,2|8,0:0|0:0,0:0:0:0:
225,158,75459,2,0,B|325:128|325:185|425:152,1,200,0|0,0:0|0:0,0:0:0:0:
369,67,76382,6,0,B|299:144|351:169|279:245,1,200,8|0,0:0|0:0,0:0:0:0:
193,291,77305,2,0,L|201:359,2,50,8|8|4,0:0|0:0|0:0,0:0:0:0:
100,253,77920,2,0,L|105:203,1,50,8|8,0:0|0:0,0:0:0:0:
111,153,78228,6,0,P|133:109|183:80,1,99.9999999999999,10|8,0:0|0:0,0:0:0:0:
207,178,78843,2,0,L|267:196,1,50,8|8,0:0|0:0,0:0:0:0:
284,231,79151,2,0,P|329:208|378:210,1,99.9999999999999,10|8,0:0|0:0,0:0:0:0:
469,252,79766,2,0,L|456:318,1,50,8|8,0:0|0:0,0:0:0:0:
445,349,80074,6,0,P|399:361|336:343,1,99.9999999999999,10|8,0:0|0:0,0:0:0:0:
249,331,80690,2,0,L|186:346,1,50,8|8,0:0|0:0,0:0:0:0:
151,358,80997,2,0,P|157:308|138:263,1,99.9999999999999,8|8,0:0|0:0,0:0:0:0:
58,202,81613,2,0,P|67:179|72:154,1,50,8|8,0:0|0:0,0:0:0:0:
46,110,81920,6,0,P|91:126|160:108,1,99.9999999999999,10|8,0:0|0:0,0:0:0:0:
236,86,82536,2,0,L|232:147,1,50,8|8,0:0|0:0,0:0:0:0:
231,185,82843,2,0,P|276:169|345:187,1,99.9999999999999,10|8,0:0|0:0,0:0:0:0:
416,222,83459,2,0,L|420:283,1,50,8|8,0:0|0:0,0:0:0:0:
424,321,83766,6,0,P|379:305|310:323,1,99.9999999999999,10|8,0:0|0:0,0:0:0:0:
237,355,84382,1,8,0:0:0:0:
152,301,84690,2,0,L|85:296,2,50,10|8|8,0:0|0:0|0:0,0:0:0:0:
241,256,85305,1,8,0:0:0:0:
245,157,85613,6,0,P|298:106|380:104,2,150,8|8|8,0:0|0:0|0:0,0:0:0:0:
241,256,86843,1,4,0:0:0:0:
324,308,87151,1,4,0:0:0:0:
410,262,87459,2,0,P|422:309|408:357,2,99.9999999999999,8|8|8,0:0|0:0|0:0,0:0:0:0:
328,211,88382,1,8,0:0:0:0:
