osu file format v14

[General]
AudioFilename: audio.mp3
AudioLeadIn: 0
PreviewTime: 8039
Countdown: 0
SampleSet: None
StackLeniency: 0.7
Mode: 0
LetterboxInBreaks: 0
WidescreenStoryboard: 0

[Editor]
DistanceSpacing: 1
BeatDivisor: 3
GridSize: 8
TimelineZoom: 4.099998

[Metadata]
Title:Inferno
TitleUnicode:インフェルノ
Artist:9mm Parabellum Bullet
ArtistUnicode:9mm Parabellum Bullet
Creator:Monstrata
Version:Agonizing Insane
Source:ベルセルク
Tags:BERSERK guts casca griffith 2016 tv size opening
BeatmapID:1033154
BeatmapSetID:482090

[Difficulty]
HPDrainRate:5
CircleSize:3.7
OverallDifficulty:8.5
ApproachRate:9
SliderMultiplier:1.6
SliderTickRate:1

[Events]
//Background and Video events
0,0,"BERSERK.(Kentaro.Miura).full.1559669.jpg",0,0
//Break Periods
//Storyboard Layer 0 (Background)
//Storyboard Layer 1 (Fail)
//Storyboard Layer 2 (Pass)
//Storyboard Layer 3 (Foreground)
//Storyboard Sound Samples

[TimingPoints]
690,307.692307692308,3,3,1,90,1,0
8074,-200,3,3,0,50,0,0
11305,-200,3,3,1,75,0,0
11766,-100,3,3,1,90,0,0
22843,-100,3,3,1,70,0,0
25766,-100,3,3,0,50,0,0
26536,-100,3,3,1,70,0,0
29459,-100,3,3,0,50,0,0
30228,-100,3,3,1,70,0,0
32382,-100,3,3,0,70,0,0
32997,-100,3,3,1,70,0,0
36997,-133.333333333333,3,3,1,70,0,0
37613,-200,3,3,1,35,0,0
40690,-200,3,3,0,35,0,0
41305,-200,3,3,1,50,0,0
44997,-100,3,3,1,90,0,0
52382,-133.333333333333,3,3,1,90,0,0
56074,-166.666666666667,3,3,1,45,0,0
59766,-100,3,3,1,90,0,0
74536,-133.333333333333,3,3,1,90,0,0
76382,-100,3,3,1,90,0,0
77920,-100,3,3,1,50,0,0
78228,-100,3,3,1,90,0,0
85305,-100,3,3,0,70,0,0
85382,-100,3,3,1,90,0,0
86536,-100,3,3,0,70,0,0
87459,-100,3,3,1,100,0,0

[Colours]
Combo1 : 182,156,214
Combo2 : 227,172,187
Combo3 : 227,182,136
Combo4 : 157,172,221

[HitObjects]
109,159,690,6,0,P|184:176|223:243,1,160,8|2,0:0|0:0,0:0:0:0:
332,148,1151,2,0,P|307:176|299:221,1,80,8|8,0:0|0:0,0:0:0:0:
386,221,1459,1,2,0:0:0:0:
386,221,1536,1,0,0:0:0:0:
386,221,1613,6,0,L|396:279,2,40,8|0|0,0:0|0:0|0:0,0:0:0:0:
474,165,1920,2,0,L|464:223,2,40,8|0|0,0:0|0:0|0:0,0:0:0:0:
394,102,2228,2,0,L|404:160,2,40,4|0|0,0:0|0:0|0:0,0:0:0:0:
457,30,2536,6,0,P|388:66|309:55,1,160,8|2,0:0|0:0,0:0:0:0:
166,71,2997,2,0,P|205:72|238:93,1,80,8|8,0:0|0:0,0:0:0:0:
189,158,3305,1,2,0:0:0:0:
189,158,3382,1,0,0:0:0:0:
189,158,3459,6,0,L|130:182,2,40,8|0|0,0:0|0:0|0:0,0:0:0:0:
140,265,3766,2,0,L|177:249,2,40,8|0|0,0:0|0:0|0:0,0:0:0:0:
292,231,4074,2,0,L|254:215,2,40,4|0|0,0:0|0:0|0:0,0:0:0:0:
83,159,4382,6,0,L|234:97,1,160,8|2,0:0|0:0,0:0:0:0:
135,25,4843,2,0,P|149:61|140:100,1,80,8|8,0:0|0:0,0:0:0:0:
25,217,5151,1,2,0:0:0:0:
25,217,5228,1,0,0:0:0:0:
25,217,5305,6,0,P|42:225|57:239,2,40,8|0|2,0:0|0:0|0:0,0:0:0:0:
64,323,5613,2,0,P|83:318|103:318,2,40,8|0|0,0:0|0:0|0:0,0:0:0:0:
162,379,5920,2,0,P|173:362|189:350,2,40,4|0|0,0:0|0:0|0:0,0:0:0:0:
236,207,6228,6,0,B|199:239|199:239|187:376,1,160,8|2,0:0|0:0,0:0:0:0:
315,213,6690,2,0,L|395:220,1,80,8|8,0:0|0:0,0:0:0:0:
281,140,6997,1,2,0:0:0:0:
281,140,7074,1,0,0:0:0:0:
281,140,7151,6,0,L|259:84,2,40,8|0|0,0:0|0:0|0:0,0:0:0:0:
181,120,7459,2,0,L|189:60,2,40,8|0|0,0:0|0:0|0:0,0:0:0:0:
104,52,7766,2,0,L|141:4,2,40,8|0|0,0:0|0:0|0:0,0:0:0:0:
25,12,8074,6,0,P|79:67|72:157,1,160,2|0,0:0|0:0,0:0:0:0:
34,214,8997,2,0,P|47:281|76:228,1,160,2|0,0:0|0:0,0:0:0:0:
143,191,9920,2,0,B|219:168|217:245|293:217,1,160,10|0,0:0|0:0,0:0:0:0:
373,196,10843,2,0,L|354:330,1,120,6|0,0:0|0:0,0:0:0:0:
356,314,11382,1,8,0:0:0:0:
356,314,11459,1,8,0:0:0:0:
139,196,11766,6,0,P|134:235|159:286,1,80,8|0,0:0|0:0,0:0:0:0:
200,147,12074,1,8,0:0:0:0:
212,225,12228,1,8,0:0:0:0:
278,135,12382,1,8,0:0:0:0:
290,213,12536,1,2,0:0:0:0:
229,74,12690,6,0,P|190:69|139:94,1,80,8|0,0:0|0:0,0:0:0:0:
212,225,12997,1,8,0:0:0:0:
290,213,13151,1,8,0:0:0:0:
200,147,13305,1,8,0:0:0:0:
262,287,13459,1,2,0:0:0:0:
357,123,13613,6,0,L|278:135,1,80,8|0,0:0|0:0,0:0:0:0:
134,237,13920,1,8,0:0:0:0:
200,147,14074,1,8,0:0:0:0:
262,287,14228,1,8,0:0:0:0:
122,159,14382,1,2,0:0:0:0:
290,213,14536,6,0,L|369:201,1,80,8|0,0:1|0:0,0:0:0:0:
266,55,14843,2,0,L|277:134,1,80,8|0,0:1|0:0,0:0:0:0:
448,189,15151,2,0,P|433:152|402:128,1,80,8|0,0:1|0:0,0:0:0:0:
210,224,15459,6,0,P|224:260|256:285,1,80,2|2,0:0|0:0,0:0:0:0:
369,201,15766,1,8,0:0:0:0:
290,213,15919,1,2,0:0:0:0:
402,128,16074,1,8,0:0:0:0:
419,138,16150,1,0,0:0:0:0:
433,152,16227,1,8,0:0:0:0:
442,170,16304,1,0,0:0:0:0:
448,189,16382,6,0,P|439:238|418:265,1,80,10|2,0:0|0:0,0:0:0:0:
290,213,16690,1,8,0:0:0:0:
339,275,16843,1,2,0:0:0:0:
320,139,16997,1,8,0:0:0:0:
317,119,17073,1,0,0:0:0:0:
314,99,17150,1,8,0:0:0:0:
311,79,17227,1,0,0:0:0:0:
309,59,17305,6,0,P|269:53|232:68,1,80,10|2,0:0|0:0,0:0:0:0:
247,209,17613,1,8,0:0:0:0:
278,134,17766,1,2,0:0:0:0:
166,219,17920,1,8,0:0:0:0:
328,199,18074,1,8,0:0:0:0:
197,144,18228,5,8,0:0:0:0:
172,138,18304,1,0,0:0:0:0:
147,141,18381,1,8,0:0:0:0:
125,150,18458,1,8,0:0:0:0:
106,167,18536,2,0,P|42:197|8:189,1,80,8|8,0:0|0:0,0:0:0:0:
107,69,18843,1,8,0:0:0:0:
43,117,18997,1,8,0:0:0:0:
166,219,19151,6,0,L|256:226,1,80,10|2,0:0|0:0,0:0:0:0:
324,231,19459,1,8,0:0:0:0:
289,159,19613,1,2,0:0:0:0:
279,296,19766,1,8,0:0:0:0:
296,305,19842,1,0,0:0:0:0:
316,309,19919,1,8,0:0:0:0:
336,309,19996,1,0,0:0:0:0:
355,304,20074,6,0,P|395:268|404:233,1,80,10|2,0:0|0:0,0:0:0:0:
289,159,20382,1,8,0:0:0:0:
324,231,20536,1,2,0:0:0:0:
333,92,20690,1,8,0:0:0:0:
323,74,20766,1,0,0:0:0:0:
314,56,20843,1,8,0:0:0:0:
305,38,20920,1,0,0:0:0:0:
296,20,20997,6,0,P|244:3|210:13,1,80,10|2,0:0|0:0,0:0:0:0:
198,148,21305,1,8,0:0:0:0:
247,84,21459,1,2,0:0:0:0:
307,232,21613,1,8,0:0:0:0:
277,158,21766,1,8,0:0:0:0:
217,306,21920,5,8,0:0:0:0:
217,306,21996,1,8,0:0:0:0:
217,306,22073,1,0,0:0:0:0:
217,306,22150,1,8,0:0:0:0:
217,306,22228,2,0,L|212:345,3,40,8|0|8|0,0:0|0:0|0:0|0:0,0:0:0:0:
297,313,22536,2,0,L|358:320,3,40,8|0|8|0,0:0|0:0|0:0|0:0,0:0:0:0:
307,232,22843,6,0,L|227:222,1,80,4|0,0:0|0:0,0:0:0:0:
147,212,23151,2,0,P|153:252|193:296,1,80,8|0,0:0|0:0,0:0:0:0:
195,148,23459,1,8,0:0:0:0:
196,138,23535,1,0,0:0:0:0:
197,128,23612,1,0,0:0:0:0:
198,118,23689,1,0,0:0:0:0:
199,108,23766,6,0,L|293:93,1,80,2|0,0:0|0:0,0:0:0:0:
347,162,24074,2,0,L|268:175,1,80,2|0,0:0|0:0,0:0:0:0:
357,82,24382,2,0,L|436:69,1,80,2|0,0:0|0:0,0:0:0:0:
505,136,24690,6,0,L|426:149,1,80,8|0,0:0|0:0,0:0:0:0:
397,223,24997,1,8,0:0:0:0:
367,296,25151,1,8,0:0:0:0:
357,297,25227,1,0,0:0:0:0:
347,299,25305,2,0,L|267:286,1,80,0|8,0:0|0:0,0:0:0:0:
187,273,25613,5,8,0:0:0:0:
251,132,25766,2,0,L|238:211,1,80,8|0,0:0|0:0,0:0:0:0:
160,190,26074,1,8,0:0:0:0:
224,49,26228,2,0,L|211:128,1,80,4|0,0:0|0:0,0:0:0:0:
101,254,26536,5,8,0:0:0:0:
101,254,26613,1,0,0:0:0:0:
101,254,26690,1,8,0:0:0:0:
101,254,26766,1,8,0:0:0:0:
101,254,26843,2,0,P|158:277|205:265,1,80,8|0,0:0|0:0,0:0:0:0:
234,168,27151,2,0,P|177:191|130:179,1,80,0|0,0:0|0:0,0:0:0:0:
100,85,27459,5,8,0:0:0:0:
100,85,27536,1,0,0:0:0:0:
100,85,27613,1,8,0:0:0:0:
100,85,27689,1,8,0:0:0:0:
100,85,27766,2,0,P|157:108|204:96,1,80,8|0,0:0|0:0,0:0:0:0:
234,2,28074,2,0,P|177:25|130:13,1,80,0|0,0:0|0:0,0:0:0:0:
21,100,28382,6,0,L|125:80,1,80,8|0,0:0|0:0,0:0:0:0:
15,207,28690,1,8,0:0:0:0:
89,177,28843,2,0,L|187:139,1,80,8|0,0:0|0:0,0:0:0:0:
101,283,29152,1,8,0:0:0:0:
169,241,29305,6,0,L|259:186,1,80,8|8,0:0|0:0,0:0:0:0:
306,80,29613,2,0,P|314:119|305:157,1,80,0|8,0:0|0:0,0:0:0:0:
163,148,29920,1,4,0:0:0:0:
235,119,30074,1,0,0:0:0:0:
310,235,30228,6,0,P|384:268|454:200,2,160,8|8|8,0:0|0:0|0:0,0:0:0:0:
375,189,30997,1,0,0:0:0:0:
383,347,31151,6,0,L|280:364,1,80,8|0,0:0|0:0,0:0:0:0:
256,215,31459,2,0,L|256:295,1,80,8|2,0:0|0:0,0:0:0:0:
207,360,31690,1,2,0:0:0:0:
207,360,31766,2,0,L|129:347,1,80,6|0,0:0|0:0,0:0:0:0:
19,258,32074,6,0,L|98:272,1,80,8|0,0:0|0:0,0:0:0:0:
98,272,32305,1,8,0:0:0:0:
98,272,32382,1,8,0:0:0:0:
111,193,32536,1,8,0:0:0:0:
177,285,32690,1,4,0:0:0:0:
190,206,32843,1,0,0:0:0:0:
304,264,32997,5,2,0:0:0:0:
269,193,33150,1,2,0:0:0:0:
248,321,33305,2,0,P|288:342|344:334,1,80,8|8,0:0|0:0,0:0:0:0:
359,325,33536,1,0,0:0:0:0:
359,325,33613,2,0,B|379:314|379:314|449:314,1,80,8|0,0:0|0:0,0:0:0:0:
349,196,33920,5,2,0:0:0:0:
304,264,34074,1,2,0:0:0:0:
427,204,34228,2,0,L|506:211,1,80,8|0,0:0|0:0,0:0:0:0:
396,126,34536,2,0,L|475:132,1,80,0|0,0:0|0:0,0:0:0:0:
365,47,34843,5,8,0:0:0:0:
349,196,34997,1,8,0:0:0:0:
441,55,35151,2,0,L|520:61,1,80,8|0,0:0|0:0,0:0:0:0:
316,119,35459,2,0,L|395:125,1,80,0|0,0:0|0:0,0:0:0:0:
191,183,35766,6,0,L|270:189,1,80,8|0,0:0|0:0,0:0:0:0:
304,261,36074,1,8,0:0:0:0:
180,320,36228,2,0,L|145:248,1,80,8|0,0:0|0:0,0:0:0:0:
191,183,36536,1,8,0:0:0:0:
259,326,36690,1,8,0:0:0:0:
259,326,36997,6,0,P|316:339|373:323,2,120.000004577637,0|0|4,0:0|0:0|0:1,0:0:0:0:
159,162,38536,5,0,0:0:0:0:
393,69,39459,1,8,0:0:0:0:
224,309,40382,1,0,0:0:0:0:
247,230,40690,6,0,B|267:226|267:226|307:234|307:234|325:230,1,80,2|8,0:0|0:0,0:0:0:0:
465,187,41305,6,0,L|454:282,2,80,10|2|2,0:0|0:0|0:0,0:0:0:0:
343,85,42228,2,0,L|332:180,2,80,10|2|2,0:0|0:0|0:0,0:0:0:0:
169,85,43151,2,0,L|180:180,2,80,2|2|2,0:0|0:0|0:0,0:0:0:0:
56,266,44074,2,0,L|47:187,2,80,2|2|2,0:0|0:0|0:0,0:0:0:0:
256,304,44997,5,8,0:0:0:0:
315,356,45151,2,0,P|361:353|404:306,1,80,8|0,0:0|0:0,0:0:0:0:
392,224,45459,1,8,0:0:0:0:
332,276,45613,2,0,P|286:272|243:225,1,80,8|8,0:0|0:0,0:0:0:0:
301,120,45920,6,0,L|317:199,1,80,8|2,0:0|0:0,0:0:0:0:
230,82,46228,2,0,L|214:160,1,80,8|2,0:0|0:0,0:0:0:0:
127,43,46536,2,0,L|143:122,1,80,8|2,0:0|0:0,0:0:0:0:
43,236,46843,5,8,0:0:0:0:
67,159,46997,2,0,L|56:103,2,40,8|8|10,0:0|0:0|0:0,0:0:0:0:
118,318,47305,1,8,0:0:0:0:
142,241,47459,2,0,L|131:185,2,40,8|0|8,0:0|0:0|0:0,0:0:0:0:
194,353,47766,5,2,0:0:0:0:
203,356,47842,1,0,0:0:0:0:
212,359,47919,1,8,0:0:0:0:
222,362,47996,1,8,0:0:0:0:
231,364,48074,2,0,P|262:341|302:337,1,80,2|8,0:0|0:0,0:0:0:0:
361,229,48382,2,0,P|329:252|290:257,1,80,2|8,0:0|0:0,0:0:0:0:
260,171,48690,5,2,0:0:0:0:
270,173,48766,1,0,0:0:0:0:
280,174,48843,1,8,0:0:0:0:
290,175,48920,1,8,0:0:0:0:
299,177,48997,2,0,L|290:97,1,80,8|8,0:0|0:0,0:0:0:0:
201,27,49305,2,0,L|210:107,1,80,8|8,0:0|0:0,0:0:0:0:
80,177,49613,6,0,L|159:169,1,80,10|0,0:0|0:0,0:0:0:0:
221,219,49843,1,0,0:0:0:0:
221,219,49920,2,0,L|300:210,1,80,10|0,0:0|0:0,0:0:0:0:
361,260,50151,1,0,0:0:0:0:
361,260,50228,2,0,L|440:251,1,80,8|8,0:0|0:0,0:0:0:0:
309,130,50536,6,0,L|300:209,1,80,8|0,0:0|0:0,0:0:0:0:
380,178,50843,1,2,0:0:0:0:
281,59,50997,2,0,L|272:138,1,80,8|0,0:0|0:0,0:0:0:0:
352,107,51304,1,2,0:0:0:0:
220,9,51459,5,8,0:0:0:0:
200,14,51535,1,0,0:0:0:0:
183,23,51612,1,8,0:0:0:0:
167,36,51689,1,0,0:0:0:0:
155,52,51766,2,0,L|104:43,3,40,8|0|8|0,0:0|0:0|0:0|0:0,0:0:0:0:
144,131,52074,2,0,P|181:145|202:178,1,80,2|2,0:0|0:0,0:0:0:0:
183,257,52382,6,0,L|265:255,1,60.0000022888184,2|8,0:0|0:0,0:0:0:0:
321,254,52690,1,8,0:0:0:0:
280,186,52843,1,2,0:0:0:0:
387,130,52997,2,0,L|359:184,1,60.0000022888184,8|8,0:0|0:0,0:0:0:0:
224,325,53305,6,0,L|306:323,1,60.0000022888184,2|8,0:0|0:0,0:0:0:0:
362,322,53613,1,8,0:0:0:0:
321,254,53766,1,2,0:0:0:0:
428,198,53920,2,0,L|399:251,1,60.0000022888184,8|8,0:0|0:0,0:0:0:0:
242,256,54228,5,2,0:0:0:0:
387,130,54382,1,10,0:0:0:0:
333,61,54690,5,2,0:0:0:0:
321,254,54844,1,10,0:0:0:0:
400,251,55151,5,10,0:0:0:0:
112,133,55459,1,10,0:0:0:0:
333,61,55766,1,8,0:0:0:0:
179,322,56074,6,0,B|230:306|230:306|376:330,1,191.999994140625,4|0,0:1|0:0,0:0:0:0:
451,236,56997,2,0,B|400:252|400:252|254:228,1,191.999994140625,4|0,0:1|0:0,0:0:0:0:
205,164,57920,2,0,B|255:147|255:147|401:171,1,191.999994140625,4|0,0:1|0:0,0:0:0:0:
442,78,58843,2,0,B|401:91|401:91|285:72,1,143.999995605469,4|8,0:1|0:0,0:0:0:0:
301,75,59382,1,8,0:0:0:0:
301,75,59459,1,10,0:0:0:0:
47,180,59766,6,0,L|59:279,1,80,8|0,0:0|0:0,0:0:0:0:
144,329,60073,1,8,0:0:0:0:
65,338,60228,1,8,0:0:0:0:
135,250,60382,2,0,L|234:238,1,80,8|2,0:0|0:0,0:0:0:0:
237,112,60690,5,8,0:0:0:0:
179,168,60843,1,0,0:0:0:0:
293,230,60997,1,8,0:0:0:0:
307,151,61151,1,8,0:0:0:0:
214,240,61305,2,0,P|229:276|259:302,1,80,8|2,0:0|0:0,0:0:0:0:
306,71,61613,5,8,0:0:0:0:
179,168,61766,1,0,0:0:0:0:
369,203,61920,1,8,0:0:0:0:
237,112,62074,1,8,0:0:0:0:
290,263,62228,1,8,0:0:0:0:
335,109,62382,1,2,0:0:0:0:
208,206,62536,6,0,L|96:213,1,80,8|0,0:1|0:0,0:0:0:0:
270,354,62843,2,0,L|382:361,1,80,8|0,0:1|0:0,0:0:0:0:
448,198,63151,2,0,L|336:205,1,80,8|0,0:1|0:0,0:0:0:0:
128,210,63459,6,0,L|304:221,2,160,8|8|8,0:0|0:0|0:0,0:0:0:0:
418,61,64382,2,0,L|241:72,2,160,8|8|8,0:0|0:0|0:0,0:0:0:0:
253,313,65305,2,0,L|94:323,2,160,8|2|0,0:0|0:0|0:0,0:0:0:0:
146,74,66228,2,0,P|166:148|236:182,2,160,8|8|8,0:0|0:0|0:0,0:0:0:0:
429,167,67151,6,0,L|399:348,2,160,8|8|8,0:0|0:0|0:0,0:0:0:0:
83,167,68074,2,0,L|113:348,2,160,8|8|8,0:0|0:0|0:0,0:0:0:0:
440,81,68997,2,0,P|508:133|492:228,2,160,8|8|8,0:0|0:0|0:0,0:0:0:0:
72,81,69920,2,0,P|4:133|20:228,1,160,8|8,0:0|0:0,0:0:0:0:
256,192,70536,1,8,0:0:0:0:
256,192,70613,1,0,0:0:0:0:
256,192,70690,1,0,0:0:0:0:
256,192,70766,1,0,0:0:0:0:
256,192,70843,6,0,L|242:280,1,80,2|0,0:0|0:0,0:0:0:0:
154,142,71151,2,0,L|169:302,1,160,8|8,0:0|0:0,0:0:0:0:
357,142,71766,2,0,L|343:302,2,160,8|8|8,0:0|0:0|0:0,0:0:0:0:
293,94,72536,1,8,0:0:0:0:
228,45,72690,6,0,P|213:86|219:128,1,80,2|0,0:0|0:0,0:0:0:0:
104,104,72997,2,0,P|150:166|134:242,1,160,8|8,0:0|0:0,0:0:0:0:
78,300,73459,1,8,0:0:0:0:
155,319,73613,6,0,L|172:381,3,40,8|0|8|0,0:0|0:0|0:0|0:0,0:0:0:0:
230,310,73920,2,0,L|247:372,3,40,8|8|8|0,0:0|0:0|0:0|0:0,0:0:0:0:
305,301,74228,2,0,L|322:363,3,40,10|8|8|8,0:0|0:0|0:0|0:0,0:0:0:0:
368,257,74536,5,2,0:0:0:0:
239,16,75151,1,8,0:0:0:0:
207,132,75459,2,0,B|251:138|251:138|278:109|336:111,1,120.000004577637,0|0,0:0|0:0,0:0:0:0:
429,158,76074,1,0,0:0:0:0:
373,307,76382,6,0,P|337:292|297:294,1,80,8|0,0:0|0:0,0:0:0:0:
220,317,76690,1,2,0:0:0:0:
87,231,76843,2,0,P|124:216|164:218,1,80,8|0,0:0|0:0,0:0:0:0:
241,240,77151,1,2,0:0:0:0:
272,101,77305,5,8,0:0:0:0:
255,112,77381,1,0,0:0:0:0:
241,125,77458,1,8,0:0:0:0:
230,142,77535,1,0,0:0:0:0:
223,161,77612,1,4,0:0:0:0:
149,338,77920,2,0,L|137:299,3,40,8|8|8|8,0:0|0:0|0:0|0:0,0:0:0:0:
149,338,78228,6,0,P|186:351|230:342,1,80,10|8,0:0|0:0,0:0:0:0:
276,282,78536,1,8,0:0:0:0:
236,212,78690,1,2,0:0:0:0:
276,142,78843,1,8,0:0:0:0:
295,140,78919,1,0,0:0:0:0:
315,138,78996,1,8,0:0:0:0:
335,136,79073,1,0,0:0:0:0:
356,135,79151,6,0,P|390:144|422:176,1,80,10|2,0:0|0:0,0:0:0:0:
350,297,79459,1,8,0:0:0:0:
353,216,79613,1,2,0:0:0:0:
281,338,79766,1,8,0:0:0:0:
293,354,79843,1,0,0:0:0:0:
309,366,79920,1,8,0:0:0:0:
327,374,79997,1,0,0:0:0:0:
347,378,80074,6,0,P|394:364|423:328,1,80,10|2,0:0|0:0,0:0:0:0:
282,254,80382,1,8,0:0:0:0:
350,297,80536,1,2,0:0:0:0:
286,174,80690,1,8,0:0:0:0:
211,290,80843,1,8,0:0:0:0:
353,216,80997,5,8,0:0:0:0:
362,193,81073,1,0,0:0:0:0:
365,168,81150,1,8,0:0:0:0:
360,144,81227,1,8,0:0:0:0:
347,122,81305,2,0,L|364:46,3,40,8|0|8|0,0:0|0:0|0:0|0:0,0:0:0:0:
257,99,81613,2,0,P|219:116|165:103,1,80,8|8,0:0|0:0,0:0:0:0:
87,73,81920,6,0,L|111:150,1,80,10|2,0:0|0:0,0:0:0:0:
87,310,82228,1,8,0:0:0:0:
111,233,82381,1,2,0:0:0:0:
163,333,82536,1,8,0:0:0:0:
181,341,82612,1,0,0:0:0:0:
200,344,82689,1,8,0:0:0:0:
220,343,82766,1,0,0:0:0:0:
239,337,82843,6,0,P|277:329|315:341,1,80,10|2,0:0|0:0,0:0:0:0:
453,338,83151,1,8,0:0:0:0:
384,299,83305,1,2,0:0:0:0:
454,178,83459,1,8,0:0:0:0:
454,198,83535,1,0,0:0:0:0:
453,218,83612,1,8,0:0:0:0:
453,238,83689,1,0,0:0:0:0:
453,258,83766,6,0,L|453:366,1,80,10|2,0:0|0:0,0:0:0:0:
315,260,84074,1,8,0:0:0:0:
315,341,84228,1,2,0:0:0:0:
244,222,84382,1,8,0:0:0:0:
244,303,84536,1,8,0:0:0:0:
172,182,84690,6,0,L|168:252,2,40,10|8|8,0:0|0:0|0:0,0:0:0:0:
100,82,84997,2,0,L|104:12,2,40,8|8|8,0:0|0:0|0:0,0:0:0:0:
186,96,85305,2,0,L|256:100,2,40,8|8|8,0:0|0:0|0:0,0:0:0:0:
86,168,85613,5,8,0:0:0:0:
76,167,85689,1,0,0:0:0:0:
66,166,85766,1,8,0:0:0:0:
56,166,85843,1,0,0:0:0:0:
46,165,85920,1,2,0:0:0:0:
2,252,86074,2,0,L|190:233,1,160,8|2,0:0|0:0,0:0:0:0:
241,230,86536,6,0,L|228:308,2,53.3333333333333,8|8|8,0:0|0:0|0:0,0:0:0:0:
264,154,86843,2,0,L|307:323,1,160,4|4,0:0|0:0,0:0:0:0:
502,183,87459,5,8,0:0:0:0:
424,141,87613,1,8,0:0:0:0:
357,200,87766,1,8,0:0:0:0:
394,285,87920,1,8,0:0:0:0:
485,273,88073,1,8,0:0:0:0:
424,141,88228,1,8,0:0:0:0:
450,358,88382,1,8,0:0:0:0:
