osu file format v14

[General]
AudioFilename: audio.mp3
AudioLeadIn: 0
PreviewTime: -1
Countdown: 1
SampleSet: Soft
StackLeniency: 0.7
Mode: 0
LetterboxInBreaks: 0
WidescreenStoryboard: 0

[Editor]
DistanceSpacing: 1.4
BeatDivisor: 4
GridSize: 4
TimelineZoom: 1

[Metadata]
Title:Inferno
TitleUnicode:Inferno
Artist:9mm Parabellum Bullet
ArtistUnicode:9mm Parabellum Bullet
Creator:Kakaris1
Version:Apostle
Source:
Tags:
BeatmapID:1329455
BeatmapSetID:629768

[Difficulty]
HPDrainRate:5
CircleSize:4
OverallDifficulty:10
ApproachRate:10
SliderMultiplier:1.4
SliderTickRate:1

[Events]
//Background and Video events
0,0,"Backgroundberserk.jpg",0,0
//Break Periods
//Storyboard Layer 0 (Background)
//Storyboard Layer 1 (Fail)
//Storyboard Layer 2 (Pass)
//Storyboard Layer 3 (Foreground)
//Storyboard Sound Samples

[TimingPoints]
0,307.692307692308,4,2,0,80,1,0
38923,307.692307692308,4,2,0,60,1,0
41076,307.692307692308,4,2,0,80,1,0
87384,307.692307692308,4,2,0,70,1,0
95153,307.692307692308,4,2,0,80,1,0

[HitObjects]
152,176,10153,6,0,L|248:148,1,70
284,120,10461,1,0,0:0:0:0:
284,120,10538,1,0,0:0:0:0:
284,120,10615,1,0,0:0:0:0:
472,168,10769,2,0,L|396:204,1,70
368,208,11076,1,0,0:0:0:0:
344,260,11153,1,0,0:0:0:0:
284,272,11230,1,0,0:0:0:0:
236,248,11307,1,0,0:0:0:0:
204,200,11384,1,0,0:0:0:0:
196,144,11461,5,0,0:0:0:0:
236,100,11538,1,0,0:0:0:0:
296,96,11615,1,0,0:0:0:0:
340,132,11692,1,0,0:0:0:0:
464,164,11846,2,0,L|424:224,1,70
380,252,12153,1,0,0:0:0:0:
380,252,12230,1,0,0:0:0:0:
380,252,12307,1,0,0:0:0:0:
80,80,12461,2,0,L|172:72,1,70
416,68,12769,5,0,0:0:0:0:
416,68,12846,1,0,0:0:0:0:
416,68,12923,1,0,0:0:0:0:
444,160,13076,2,0,P|424:208|396:208,1,70
348,180,13384,1,0,0:0:0:0:
324,144,13461,1,0,0:0:0:0:
276,136,13538,1,0,0:0:0:0:
240,168,13615,1,0,0:0:0:0:
240,212,13692,1,0,0:0:0:0:
288,240,13769,1,0,0:0:0:0:
336,272,13846,1,0,0:0:0:0:
416,260,14000,6,0,P|432:300|412:328,1,70
360,352,14307,1,0,0:0:0:0:
300,340,14384,1,0,0:0:0:0:
248,316,14461,1,0,0:0:0:0:
208,280,14538,1,0,0:0:0:0:
180,232,14615,1,0,0:0:0:0:
164,176,14692,1,0,0:0:0:0:
168,124,14769,1,0,0:0:0:0:
200,84,14846,1,0,0:0:0:0:
244,64,14923,6,0,P|312:68|320:80,1,70
396,128,15230,1,0,0:0:0:0:
444,168,15307,1,0,0:0:0:0:
400,208,15384,1,0,0:0:0:0:
344,304,15538,2,0,B|312:272|312:272|292:296,1,70
248,324,15846,1,0,0:0:0:0:
188,312,15923,1,0,0:0:0:0:
180,256,16000,1,0,0:0:0:0:
212,212,16076,1,0,0:0:0:0:
268,208,16153,1,0,0:0:0:0:
300,244,16230,1,0,0:0:0:0:
308,308,16307,1,0,0:0:0:0:
356,328,16461,6,0,L|412:280,1,70
432,240,16692,1,0,0:0:0:0:
412,192,16769,1,0,0:0:0:0:
368,160,16846,1,0,0:0:0:0:
312,152,16923,1,0,0:0:0:0:
256,176,17000,1,0,0:0:0:0:
216,208,17076,1,0,0:0:0:0:
200,260,17153,1,0,0:0:0:0:
208,308,17230,1,0,0:0:0:0:
256,344,17307,1,0,0:0:0:0:
304,328,17384,1,0,0:0:0:0:
444,264,17538,6,0,B|444:200|444:200|388:200|388:200|464:124|464:124|412:116|412:116|356:192|356:192,1,350
304,144,18461,2,0,B|244:140|244:140|200:188|200:188|160:136|160:136|224:64|224:64|152:36|152:36,1,350
72,168,19384,2,0,B|132:216|132:216|80:272|80:272|156:316|156:316|272:276|272:276,1,350
332,232,20307,2,0,B|320:184|320:180|320:180|252:184|252:184|216:128|216:128|156:132|156:132,1,245
124,136,20924,1,0,0:0:0:0:
124,136,21000,1,0,0:0:0:0:
68,304,21230,5,0,0:0:0:0:
256,68,21384,1,0,0:0:0:0:
424,336,21538,1,0,0:0:0:0:
172,216,21692,1,0,0:0:0:0:
344,120,21846,1,0,0:0:0:0:
332,340,21999,1,0,0:0:0:0:
488,144,22153,5,0,0:0:0:0:
440,260,22307,1,0,0:0:0:0:
408,60,22461,1,0,0:0:0:0:
320,296,22615,1,0,0:0:0:0:
280,16,22769,1,0,0:0:0:0:
148,344,22923,1,0,0:0:0:0:
128,12,23076,1,0,0:0:0:0:
4,304,23230,1,0,0:0:0:0:
152,344,23384,6,0,L|228:320,1,70
452,240,23692,1,0,0:0:0:0:
332,64,23846,1,0,0:0:0:0:
152,148,24000,1,0,0:0:0:0:
112,184,24076,1,0,0:0:0:0:
72,228,24153,1,0,0:0:0:0:
144,300,24307,1,0,0:0:0:0:
188,256,24384,1,0,0:0:0:0:
224,212,24461,1,0,0:0:0:0:
232,136,24615,6,0,P|236:72|252:68,1,70
280,52,24923,1,0,0:0:0:0:
336,72,25000,1,0,0:0:0:0:
380,112,25076,1,0,0:0:0:0:
412,160,25153,1,0,0:0:0:0:
428,216,25230,1,0,0:0:0:0:
388,308,25384,2,0,L|328:260,1,70
244,208,25692,1,0,0:0:0:0:
212,156,25769,5,0,0:0:0:0:
236,104,25846,1,0,0:0:0:0:
296,76,25923,1,0,0:0:0:0:
344,100,26000,1,0,0:0:0:0:
380,144,26076,1,0,0:0:0:0:
392,200,26153,1,0,0:0:0:0:
360,256,26230,1,0,0:0:0:0:
296,272,26307,1,0,0:0:0:0:
220,284,26461,6,0,L|144:296,1,70
64,272,26769,1,0,0:0:0:0:
32,216,26846,1,0,0:0:0:0:
32,160,26923,1,0,0:0:0:0:
60,116,27000,1,0,0:0:0:0:
100,80,27076,1,0,0:0:0:0:
156,72,27153,1,0,0:0:0:0:
208,88,27230,1,0,0:0:0:0:
256,112,27307,1,0,0:0:0:0:
316,116,27384,1,0,0:0:0:0:
376,108,27461,1,0,0:0:0:0:
424,144,27538,1,0,0:0:0:0:
432,204,27615,1,0,0:0:0:0:
400,256,27692,1,0,0:0:0:0:
340,272,27769,1,0,0:0:0:0:
280,248,27846,1,0,0:0:0:0:
228,224,27923,1,0,0:0:0:0:
192,168,28000,1,0,0:0:0:0:
128,156,28076,1,0,0:0:0:0:
112,96,28153,1,0,0:0:0:0:
208,64,28307,6,0,P|248:56|304:68,1,70
376,68,28615,1,0,0:0:0:0:
424,104,28692,1,0,0:0:0:0:
444,156,28769,1,0,0:0:0:0:
440,208,28846,1,0,0:0:0:0:
404,248,28923,1,0,0:0:0:0:
344,248,29000,1,0,0:0:0:0:
296,216,29076,1,0,0:0:0:0:
248,248,29153,1,0,0:0:0:0:
132,256,29307,6,0,P|104:216|108:192,1,70
144,120,29615,1,0,0:0:0:0:
180,88,29692,1,0,0:0:0:0:
232,72,29769,1,0,0:0:0:0:
280,80,29846,1,0,0:0:0:0:
324,100,29923,1,0,0:0:0:0:
368,128,30000,1,0,0:0:0:0:
404,168,30076,1,0,0:0:0:0:
424,216,30153,1,0,0:0:0:0:
424,304,30307,6,0,P|384:320|352:308,1,70
272,260,30615,1,0,0:0:0:0:
220,280,30692,1,0,0:0:0:0:
176,308,30769,1,0,0:0:0:0:
116,332,30846,1,0,0:0:0:0:
60,300,30923,1,0,0:0:0:0:
44,248,31000,1,0,0:0:0:0:
48,192,31076,1,0,0:0:0:0:
68,148,31153,1,0,0:0:0:0:
88,96,31230,5,0,0:0:0:0:
136,80,31307,1,0,0:0:0:0:
192,84,31384,1,0,0:0:0:0:
240,112,31461,1,0,0:0:0:0:
280,152,31538,1,0,0:0:0:0:
280,200,31615,1,0,0:0:0:0:
276,248,31692,1,0,0:0:0:0:
280,300,31769,1,0,0:0:0:0:
276,340,31846,1,0,0:0:0:0:
344,368,32000,6,0,L|436:332,1,70
484,288,32307,1,0,0:0:0:0:
436,256,32384,1,0,0:0:0:0:
388,224,32461,1,0,0:0:0:0:
424,140,32615,1,0,0:0:0:0:
372,124,32692,1,0,0:0:0:0:
320,120,32769,1,0,0:0:0:0:
280,132,32847,1,0,0:0:0:0:
232,152,32924,1,0,0:0:0:0:
200,180,33000,1,0,0:0:0:0:
180,232,33076,5,0,0:0:0:0:
208,276,33153,1,0,0:0:0:0:
272,280,33230,1,0,0:0:0:0:
360,264,33384,2,0,L|428:224,1,70
456,148,33692,1,0,0:0:0:0:
296,64,33846,1,0,0:0:0:0:
68,208,34153,1,0,0:0:0:0:
88,248,34230,1,0,0:0:0:0:
112,284,34307,1,0,0:0:0:0:
216,264,34461,5,0,0:0:0:0:
184,224,34538,1,0,0:0:0:0:
168,176,34615,1,0,0:0:0:0:
184,132,34692,1,0,0:0:0:0:
216,96,34769,1,0,0:0:0:0:
268,84,34846,1,0,0:0:0:0:
324,96,34923,1,0,0:0:0:0:
408,136,35076,2,0,L|400:220,1,70
392,312,35384,5,0,0:0:0:0:
88,232,35538,1,0,0:0:0:0:
248,76,35692,1,0,0:0:0:0:
392,68,35846,2,0,L|360:136,1,70
328,176,36076,1,0,0:0:0:0:
288,204,36153,1,0,0:0:0:0:
232,200,36230,1,0,0:0:0:0:
192,164,36307,1,0,0:0:0:0:
172,108,36384,1,0,0:0:0:0:
76,60,36615,6,0,L|40:148,1,70
56,184,36923,1,0,0:0:0:0:
80,224,37000,1,0,0:0:0:0:
112,248,37076,1,0,0:0:0:0:
160,256,37153,1,0,0:0:0:0:
208,236,37230,1,0,0:0:0:0:
248,200,37307,1,0,0:0:0:0:
328,68,37538,5,0,0:0:0:0:
436,108,37692,2,0,L|408:176,1,70
380,240,38000,1,0,0:0:0:0:
380,240,38076,1,0,0:0:0:0:
380,240,38153,1,0,0:0:0:0:
128,256,38307,1,0,0:0:0:0:
128,256,38384,1,0,0:0:0:0:
128,256,38461,1,0,0:0:0:0:
104,208,38538,1,0,0:0:0:0:
96,168,38615,1,0,0:0:0:0:
116,128,38692,1,0,0:0:0:0:
160,112,38769,1,0,0:0:0:0:
368,104,38923,5,0,0:0:0:0:
212,288,39076,1,0,0:0:0:0:
476,356,39230,1,0,0:0:0:0:
352,200,39384,1,0,0:0:0:0:
216,96,39538,1,0,0:0:0:0:
212,288,39692,1,0,0:0:0:0:
100,248,39846,2,0,L|52:184,1,70
48,104,40153,6,0,L|128:68,1,70
208,104,40461,2,0,L|188:176,1,70
88,208,40769,2,0,L|100:280,1,70
192,288,41076,1,0,0:0:0:0:
192,288,41153,1,0,0:0:0:0:
192,288,41229,1,0,0:0:0:0:
464,64,41538,6,0,P|420:64|380:44,1,70
312,52,41846,1,0,0:0:0:0:
256,256,42000,1,0,0:0:0:0:
160,68,42153,1,0,0:0:0:0:
248,160,42307,1,0,0:0:0:0:
160,296,42461,1,0,0:0:0:0:
240,348,42615,6,0,P|308:352|324:332,1,70
372,256,43000,1,0,0:0:0:0:
372,256,43076,1,0,0:0:0:0:
372,256,43153,1,0,0:0:0:0:
392,72,43384,1,0,0:0:0:0:
340,104,43461,1,0,0:0:0:0:
288,144,43538,1,0,0:0:0:0:
240,180,43615,1,0,0:0:0:0:
192,224,43692,1,0,0:0:0:0:
60,280,43846,5,0,0:0:0:0:
96,68,44000,1,0,0:0:0:0:
232,272,44153,1,0,0:0:0:0:
408,240,44307,1,0,0:0:0:0:
364,196,44384,1,0,0:0:0:0:
320,152,44461,1,0,0:0:0:0:
280,112,44538,1,0,0:0:0:0:
248,72,44615,1,0,0:0:0:0:
156,64,44769,6,0,P|88:72|80:80,1,70
40,148,45076,1,0,0:0:0:0:
104,244,45230,1,0,0:0:0:0:
104,244,45307,1,0,0:0:0:0:
104,244,45384,1,0,0:0:0:0:
204,260,45538,1,0,0:0:0:0:
208,212,45615,1,0,0:0:0:0:
224,160,45692,1,0,0:0:0:0:
256,112,45769,5,0,0:0:0:0:
312,80,45846,1,0,0:0:0:0:
376,72,45923,1,0,0:0:0:0:
432,88,46000,1,0,0:0:0:0:
484,128,46076,1,0,0:0:0:0:
508,180,46153,1,0,0:0:0:0:
504,236,46229,1,0,0:0:0:0:
428,316,46537,5,0,0:0:0:0:
88,132,46845,1,0,0:0:0:0:
384,156,47152,2,0,B|308:120|308:120|280:180|280:180|272:108|272:108|212:224|212:224|200:232|200:232,1,350
160,324,48076,2,0,B|212:320|212:320|216:260|216:260|288:252|288:252|292:328|292:328|348:328|348:328|348:280|348:280,1,350
460,144,48999,2,0,B|432:104|432:104|312:64|312:64|220:72|220:72|260:104|260:104,2,315
448,128,50460,1,0,0:0:0:0:
464,140,50537,1,0,0:0:0:0:
424,256,50768,6,0,B|352:256|352:256|352:184|352:184|280:184|280:184,1,210
100,112,51383,1,0,0:0:0:0:
200,164,51691,1,0,0:0:0:0:
88,248,51999,1,0,0:0:0:0:
268,284,52306,1,0,0:0:0:0:
400,184,52614,1,0,0:0:0:0:
216,72,52922,1,0,0:0:0:0:
96,260,53229,1,0,0:0:0:0:
356,248,53537,1,0,0:0:0:0:
160,104,53845,5,0,0:0:0:0:
228,264,54153,1,0,0:0:0:0:
248,164,54307,2,0,P|264:112|280:104,1,70
332,100,54615,1,0,0:0:0:0:
364,120,54692,1,0,0:0:0:0:
400,144,54769,1,0,0:0:0:0:
408,276,54923,1,0,0:0:0:0:
188,244,55076,1,0,0:0:0:0:
168,208,55153,1,0,0:0:0:0:
184,156,55230,1,0,0:0:0:0:
232,136,55307,1,0,0:0:0:0:
280,172,55384,1,0,0:0:0:0:
292,224,55461,1,0,0:0:0:0:
248,264,55538,1,0,0:0:0:0:
164,296,55692,6,0,L|84:300,1,70
40,236,56000,1,0,0:0:0:0:
60,184,56076,1,0,0:0:0:0:
100,152,56153,1,0,0:0:0:0:
144,124,56230,1,0,0:0:0:0:
192,112,56307,1,0,0:0:0:0:
248,108,56384,1,0,0:0:0:0:
300,116,56461,1,0,0:0:0:0:
348,124,56538,1,0,0:0:0:0:
372,180,56615,1,0,0:0:0:0:
436,244,56769,6,0,L|364:276,1,70
276,296,57076,1,0,0:0:0:0:
244,240,57153,1,0,0:0:0:0:
240,192,57230,1,0,0:0:0:0:
256,144,57307,1,0,0:0:0:0:
292,108,57384,1,0,0:0:0:0:
340,100,57461,1,0,0:0:0:0:
388,112,57538,1,0,0:0:0:0:
432,136,57615,1,0,0:0:0:0:
460,176,57692,1,0,0:0:0:0:
472,224,57769,1,0,0:0:0:0:
460,272,57846,1,0,0:0:0:0:
428,312,57923,1,0,0:0:0:0:
388,284,57999,1,0,0:0:0:0:
360,244,58076,1,0,0:0:0:0:
324,212,58153,1,0,0:0:0:0:
256,144,58307,6,0,P|188:128|160:132,1,70
56,124,58615,1,0,0:0:0:0:
52,176,58692,1,0,0:0:0:0:
52,224,58769,1,0,0:0:0:0:
152,256,58923,1,0,0:0:0:0:
164,200,59000,1,0,0:0:0:0:
216,172,59076,1,0,0:0:0:0:
272,160,59153,1,0,0:0:0:0:
336,168,59230,1,0,0:0:0:0:
392,196,59307,1,0,0:0:0:0:
424,244,59384,1,0,0:0:0:0:
420,296,59461,1,0,0:0:0:0:
380,316,59538,1,0,0:0:0:0:
332,280,59615,1,0,0:0:0:0:
324,224,59692,1,0,0:0:0:0:
272,236,59769,1,0,0:0:0:0:
224,276,59846,5,0,0:0:0:0:
168,264,59923,1,0,0:0:0:0:
140,216,59999,1,0,0:0:0:0:
144,164,60076,1,0,0:0:0:0:
176,120,60153,1,0,0:0:0:0:
224,96,60230,1,0,0:0:0:0:
276,104,60307,1,0,0:0:0:0:
324,136,60384,1,0,0:0:0:0:
352,176,60461,1,0,0:0:0:0:
344,232,60538,1,0,0:0:0:0:
292,268,60615,5,0,0:0:0:0:
240,240,60692,1,0,0:0:0:0:
240,200,60769,1,0,0:0:0:0:
240,160,60846,1,0,0:0:0:0:
236,120,60923,1,0,0:0:0:0:
236,88,61000,1,0,0:0:0:0:
236,52,61076,1,0,0:0:0:0:
236,16,61153,1,0,0:0:0:0:
180,16,61230,5,0,0:0:0:0:
144,48,61307,1,0,0:0:0:0:
112,88,61384,1,0,0:0:0:0:
92,140,61461,1,0,0:0:0:0:
100,196,61538,1,0,0:0:0:0:
132,240,61615,1,0,0:0:0:0:
172,268,61692,1,0,0:0:0:0:
224,280,61769,1,0,0:0:0:0:
304,248,62000,5,0,0:0:0:0:
220,144,62153,1,0,0:0:0:0:
108,112,62307,1,0,0:0:0:0:
40,216,62461,2,0,L|92:264,1,70
192,300,62769,2,0,L|248:244,1,70
320,216,63076,2,0,L|388:264,1,70
456,216,63384,2,0,L|436:136,1,70
456,32,63691,5,0,0:0:0:0:
52,344,63845,1,0,0:0:0:0:
36,32,64153,1,0,0:0:0:0:
480,352,64306,1,0,0:0:0:0:
496,12,64614,1,0,0:0:0:0:
8,376,64768,1,0,0:0:0:0:
36,32,64921,1,0,0:0:0:0:
100,104,65152,6,0,L|176:128,1,70
104,272,65538,2,0,B|180:236|180:236|156:200|156:200|232:180|232:180|308:200|308:200|356:128|356:128,1,350
440,52,66461,2,0,B|364:56|364:56|440:164|440:164|368:172|368:172|300:108|300:108,1,350
156,56,67384,2,0,B|184:144|184:144|64:92|64:92|20:132|20:132|76:200|76:200,1,350
196,248,68307,2,0,L|396:200,1,175
400,196,68769,1,0,0:0:0:0:
400,196,68846,1,0,0:0:0:0:
424,72,69000,6,0,L|240:68,1,175
36,40,69538,1,0,0:0:0:0:
492,148,69692,1,0,0:0:0:0:
40,200,69846,1,0,0:0:0:0:
484,280,70000,1,0,0:0:0:0:
36,344,70154,1,0,0:0:0:0:
156,320,70307,2,0,L|192:256,1,70
136,40,70615,5,0,0:0:0:0:
60,316,70769,1,0,0:0:0:0:
444,344,70923,1,0,0:0:0:0:
444,68,71077,1,0,0:0:0:0:
172,128,71230,1,0,0:0:0:0:
332,328,71384,1,0,0:0:0:0:
488,136,71538,1,0,0:0:0:0:
328,8,71692,1,0,0:0:0:0:
232,40,71846,6,0,L|148:80,1,70
68,160,72153,1,0,0:0:0:0:
68,160,72230,1,0,0:0:0:0:
68,160,72307,1,0,0:0:0:0:
96,252,72461,1,0,0:0:0:0:
64,308,72538,1,0,0:0:0:0:
132,312,72615,1,0,0:0:0:0:
240,240,72769,1,0,0:0:0:0:
392,200,72923,6,0,L|296:92,2,140
428,280,73692,1,0,0:0:0:0:
284,232,73846,2,0,L|172:128,2,140
412,224,74615,1,0,0:0:0:0:
272,116,74769,2,0,L|120:108,2,140
416,144,75538,1,0,0:0:0:0:
260,248,75692,2,0,B|200:200|200:200|160:256|160:256,2,140
388,288,76461,5,0,0:0:0:0:
360,152,76615,2,0,B|308:120|308:120|288:160|288:160|268:124|268:124,2,140
440,212,77384,1,0,0:0:0:0:
184,208,77538,2,0,B|148:168|148:168|248:128|248:128,2,140
364,172,78307,1,0,0:0:0:0:
112,284,78461,2,0,B|108:236|108:236|132:236|132:236|144:272|144:272|176:288|176:288,2,140
288,288,79230,1,0,0:0:0:0:
228,168,79384,2,0,L|100:112,2,140
404,128,80153,5,0,0:0:0:0:
376,160,80230,1,0,0:0:0:0:
336,192,80307,1,0,0:0:0:0:
72,212,80614,1,0,0:0:0:0:
104,52,80769,1,0,0:0:0:0:
252,180,80923,1,0,0:0:0:0:
140,296,81230,2,0,L|212:296,2,70
348,268,81846,1,0,0:0:0:0:
128,176,82153,2,0,L|196:116,1,70
244,84,82461,1,0,0:0:0:0:
412,192,82615,1,0,0:0:0:0:
168,280,82769,1,0,0:0:0:0:
116,96,82923,5,0,0:0:0:0:
384,264,83076,1,0,0:0:0:0:
160,164,83230,1,0,0:0:0:0:
264,16,83384,1,0,0:0:0:0:
264,56,83461,1,0,0:0:0:0:
264,104,83538,1,0,0:0:0:0:
264,156,83615,1,0,0:0:0:0:
264,204,83692,1,0,0:0:0:0:
264,252,83769,1,0,0:0:0:0:
264,296,83846,1,0,0:0:0:0:
264,340,83923,1,0,0:0:0:0:
48,260,84076,6,0,B|40:208|40:208|164:180|164:180|44:120|44:120,1,280
244,108,84923,2,0,B|288:104|288:104|304:164|304:164|352:136|352:136|312:80|312:80,1,210
456,160,85538,2,0,L|432:236,1,70
384,312,85846,1,0,0:0:0:0:
272,316,86000,1,0,0:0:0:0:
208,304,86076,1,0,0:0:0:0:
164,256,86153,1,0,0:0:0:0:
144,192,86230,1,0,0:0:0:0:
152,128,86307,1,0,0:0:0:0:
192,76,86384,1,0,0:0:0:0:
248,52,86461,5,0,0:0:0:0:
304,72,86538,1,0,0:0:0:0:
352,116,86615,1,0,0:0:0:0:
480,32,86769,1,0,0:0:0:0:
8,372,86923,1,0,0:0:0:0:
236,184,87076,1,0,0:0:0:0:
456,168,87384,5,0,0:0:0:0:
456,168,87461,1,0,0:0:0:0:
456,168,87538,1,0,0:0:0:0:
456,168,87615,1,0,0:0:0:0:
456,168,87692,1,0,0:0:0:0:
468,216,87769,1,0,0:0:0:0:
456,272,87846,1,0,0:0:0:0:
404,296,87923,1,0,0:0:0:0:
348,296,87999,1,0,0:0:0:0:
300,280,88076,1,0,0:0:0:0:
288,228,88153,1,0,0:0:0:0:
232,216,88230,1,0,0:0:0:0:
196,264,88307,1,0,0:0:0:0:
168,312,88384,1,0,0:0:0:0:
108,312,88461,5,0,0:0:0:0:
80,256,88538,1,0,0:0:0:0:
96,204,88615,1,0,0:0:0:0:
116,152,88692,1,0,0:0:0:0:
144,100,88769,1,0,0:0:0:0:
192,76,88846,1,0,0:0:0:0:
248,64,88923,1,0,0:0:0:0:
304,72,88999,1,0,0:0:0:0:
360,92,89076,1,0,0:0:0:0:
404,124,89153,1,0,0:0:0:0:
448,160,89230,5,0,0:0:0:0:
472,216,89307,1,0,0:0:0:0:
464,264,89384,1,0,0:0:0:0:
428,308,89461,1,0,0:0:0:0:
376,320,89538,1,0,0:0:0:0:
364,260,89615,1,0,0:0:0:0:
392,212,89692,1,0,0:0:0:0:
348,168,89769,1,0,0:0:0:0:
292,152,89846,1,0,0:0:0:0:
252,188,89923,1,0,0:0:0:0:
240,232,90000,1,0,0:0:0:0:
256,288,90076,5,0,0:0:0:0:
228,344,90153,1,0,0:0:0:0:
156,352,90230,1,0,0:0:0:0:
88,328,90307,1,0,0:0:0:0:
44,276,90384,1,0,0:0:0:0:
20,212,90461,1,0,0:0:0:0:
20,144,90538,1,0,0:0:0:0:
40,80,90615,1,0,0:0:0:0:
88,40,90692,1,0,0:0:0:0:
148,24,90769,1,0,0:0:0:0:
212,16,90846,1,0,0:0:0:0:
276,28,90923,5,0,0:0:0:0:
336,52,91000,1,0,0:0:0:0:
396,56,91076,1,0,0:0:0:0:
408,116,91153,1,0,0:0:0:0:
344,144,91230,1,0,0:0:0:0:
284,164,91307,1,0,0:0:0:0:
228,172,91384,1,0,0:0:0:0:
200,220,91461,1,0,0:0:0:0:
244,264,91538,1,0,0:0:0:0:
304,280,91615,1,0,0:0:0:0:
344,324,91692,1,0,0:0:0:0:
304,368,91769,1,0,0:0:0:0:
240,376,91846,1,0,0:0:0:0:
200,336,91923,1,0,0:0:0:0:
144,360,92000,5,0,0:0:0:0:
104,312,92076,1,0,0:0:0:0:
126,257,92153,1,0,0:0:0:0:
92,216,92230,1,0,0:0:0:0:
129,176,92307,1,0,0:0:0:0:
87,133,92384,1,0,0:0:0:0:
117,89,92461,1,0,0:0:0:0:
171,64,92538,1,0,0:0:0:0:
234,52,92615,5,0,0:0:0:0:
297,59,92692,1,0,0:0:0:0:
348,96,92769,1,0,0:0:0:0:
364,144,92846,1,0,0:0:0:0:
348,196,92923,1,0,0:0:0:0:
316,244,93000,1,0,0:0:0:0:
272,280,93076,1,0,0:0:0:0:
228,292,93153,1,0,0:0:0:0:
172,292,93230,1,0,0:0:0:0:
108,312,93307,5,0,0:0:0:0:
56,284,93384,1,0,0:0:0:0:
84,224,93461,1,0,0:0:0:0:
124,168,93538,1,0,0:0:0:0:
168,120,93615,1,0,0:0:0:0:
208,72,93692,1,0,0:0:0:0:
264,48,93769,1,0,0:0:0:0:
320,64,93846,1,0,0:0:0:0:
344,80,93923,1,0,0:0:0:0:
372,112,94000,1,0,0:0:0:0:
368,152,94076,1,0,0:0:0:0:
360,200,94153,1,0,0:0:0:0:
320,208,94230,1,0,0:0:0:0:
320,260,94307,1,0,0:0:0:0:
272,284,94384,5,0,0:0:0:0:
222,307,94461,1,0,0:0:0:0:
183,358,94538,1,0,0:0:0:0:
125,351,94615,1,0,0:0:0:0:
81,307,94692,1,0,0:0:0:0:
50,256,94769,1,0,0:0:0:0:
31,197,94846,1,0,0:0:0:0:
35,140,94923,1,0,0:0:0:0:
59,97,95000,1,0,0:0:0:0:
151,52,95153,6,0,L|231:64,1,70
404,84,95461,1,0,0:0:0:0:
392,188,95615,2,0,L|296:184,1,70
184,180,95923,1,0,0:0:0:0:
80,72,96076,1,0,0:0:0:0:
56,104,96153,1,0,0:0:0:0:
32,148,96230,1,0,0:0:0:0:
40,272,96384,5,0,0:0:0:0:
72,228,96461,1,0,0:0:0:0:
116,268,96538,1,0,0:0:0:0:
220,216,96692,2,0,L|268:160,1,70
388,56,97000,1,0,0:0:0:0:
480,344,97153,1,0,0:0:0:0:
132,256,97307,1,0,0:0:0:0:
216,64,97461,1,0,0:0:0:0:
392,216,97615,1,0,0:0:0:0:
220,340,97769,5,0,0:0:0:0:
64,60,97923,1,0,0:0:0:0:
