osu file format v14

[General]
AudioFilename: audio.mp3
AudioLeadIn: 0
PreviewTime: 8074
Countdown: 0
SampleSet: None
StackLeniency: 0.7
Mode: 2
LetterboxInBreaks: 0
WidescreenStoryboard: 0

[Editor]
Bookmarks: 22843,37613,56074,70843
DistanceSpacing: 1.4
BeatDivisor: 4
GridSize: 8
TimelineZoom: 0.8

[Metadata]
Title:Inferno
TitleUnicode:インフェルノ
Artist:9mm Parabellum Bullet
ArtistUnicode:9mm Parabellum Bullet
Creator:- Magic Bomb -
Version:Platter
Source:ベルセルク
Tags:MBomb BERSERK guts casca griffith 2016 tv size opening
BeatmapID:1074131
BeatmapSetID:502553

[Difficulty]
HPDrainRate:5
CircleSize:3
OverallDifficulty:8
ApproachRate:8
SliderMultiplier:1.4
SliderTickRate:1

[Events]
//Background and Video events
0,0,"rsz_inferno.jpg",0,0
Video,-380,"video.avi"
//Break Periods
//Storyboard Layer 0 (Background)
//Storyboard Layer 1 (Fail)
//Storyboard Layer 2 (Pass)
//Storyboard Layer 3 (Foreground)
//Storyboard Sound Samples

[TimingPoints]
690,307.692307692308,3,3,1,90,1,0
8074,-100,3,3,0,50,0,0
11305,-100,3,3,1,75,0,0
11766,-100,3,3,1,90,0,0
22843,-100,3,3,1,70,0,0
25766,-100,3,3,0,50,0,0
26536,-100,3,3,1,70,0,0
29459,-100,3,3,0,50,0,0
30228,-100,3,3,1,70,0,0
32382,-100,3,3,0,70,0,0
32997,-100,3,3,1,70,0,0
37613,-100,3,3,1,35,0,0
40690,-100,3,3,0,35,0,0
41305,-100,3,3,1,50,0,0
44997,-100,3,3,1,90,0,1
52382,-100,3,3,1,90,0,0
56074,-100,3,3,1,45,0,0
59766,-100,3,3,1,90,0,0
75613,-100,3,3,1,50,0,0
75766,-100,3,3,1,90,0,0
77920,-100,3,3,1,50,0,0
78228,-100,3,3,1,90,0,1
85305,-100,3,3,0,70,0,1
85382,-100,3,3,1,90,0,1
86536,-100,3,3,0,70,0,1
87459,-100,3,3,1,100,0,1
88382,-100,3,3,1,100,0,0

[Colours]
Combo1 : 255,68,68
Combo2 : 255,255,0
Combo3 : 255,0,0
Combo4 : 255,128,0

[HitObjects]
160,192,690,6,0,L|64:192,2,70,8|0|2,0:0|0:0|0:0,0:0:0:0:
264,192,1151,2,0,L|352:192,2,70,8|8|2,0:0|0:0|0:0,0:0:0:0:
160,192,1613,1,8,0:0:0:0:
312,192,1920,1,8,0:0:0:0:
48,192,2228,1,4,0:0:0:0:
312,192,2536,6,0,L|384:192,2,70,8|0|2,0:0|0:0|0:0,0:0:0:0:
208,192,2997,2,0,L|128:192,2,70,8|8|2,0:0|0:0|0:0,0:0:0:0:
312,192,3459,1,8,0:0:0:0:
176,192,3766,1,8,0:0:0:0:
446,192,4074,1,4,0:0:0:0:
64,192,4382,6,0,L|8:144,2,70,8|8|2,0:0|0:0|0:0,0:0:0:0:
208,192,4843,2,0,L|128:192,2,70,8|8|2,0:0|0:0|0:0,0:0:0:0:
104,192,5305,1,8,0:0:0:0:
320,192,5613,1,8,0:0:0:0:
32,192,5920,1,4,0:0:0:0:
416,192,6228,6,0,L|512:192,2,70,8|8|2,0:0|0:0|0:0,0:0:0:0:
248,192,6690,2,0,L|168:192,2,70,8|8|2,0:0|0:0|0:0,0:0:0:0:
160,192,7151,1,8,0:0:0:0:
320,192,7459,1,8,0:0:0:0:
480,184,7766,1,8,0:0:0:0:
104,192,8074,6,0,B|8:176|8:152|8:112|8:64|39:26|104:16,1,280,2|0,0:0|0:0,0:0:0:0:
288,192,8997,2,0,B|112:192|112:192|232:192,1,280,2|0,0:0|0:0,0:0:0:0:
376,192,9920,2,0,P|304:96|152:112,1,280,10|0,0:0|0:0,0:0:0:0:
448,192,10843,2,0,B|296:192|296:192,1,140,6|0,0:0|0:0,0:0:0:0:
480,192,11459,1,8,0:0:0:0:
96,192,11766,5,8,0:0:0:0:
35,160,11920,1,0,0:0:0:0:
13,95,12074,1,8,0:0:0:0:
44,34,12228,1,8,0:0:0:0:
108,12,12382,1,8,0:0:0:0:
170,41,12536,1,2,0:0:0:0:
344,192,12690,5,8,0:0:0:0:
296,136,12843,1,0,0:0:0:0:
224,104,12997,1,8,0:0:0:0:
152,112,13151,1,8,0:0:0:0:
104,160,13305,1,8,0:0:0:0:
108,222,13459,1,2,0:0:0:0:
216,192,13613,5,8,0:0:0:0:
280,216,13766,1,0,0:0:0:0:
346,197,13920,1,8,0:0:0:0:
388,142,14074,1,8,0:0:0:0:
388,73,14228,1,8,0:0:0:0:
347,18,14382,1,2,0:0:0:0:
176,192,14536,6,0,P|80:120|128:72,1,210,8|0,0:1|0:0,0:0:0:0:
24,192,15151,1,8,0:1:0:0:
408,192,15459,6,0,L|488:192,1,70,2|2,0:0|0:0,0:0:0:0:
376,192,15766,2,0,L|456:192,1,70,8|2,0:0|0:0,0:0:0:0:
264,192,16074,2,0,L|168:192,1,70,8|8,0:0|0:0,0:0:0:0:
288,192,16382,6,0,L|358:192,1,70,10|2,0:0|0:0,0:0:0:0:
256,192,16690,2,0,L|336:192,1,70,8|2,0:0|0:0,0:0:0:0:
150,192,16997,2,0,L|64:192,1,70,8|8,0:0|0:0,0:0:0:0:
176,192,17305,6,0,L|88:192,1,70,10|2,0:0|0:0,0:0:0:0:
200,192,17613,2,0,L|272:192,1,70,8|2,0:0|0:0,0:0:0:0:
88,192,17920,2,0,L|16:192,1,70,8|8,0:0|0:0,0:0:0:0:
288,192,18228,2,0,P|448:88|432:24,1,280,8|8,0:0|0:0,0:0:0:0:
120,192,19151,6,0,L|40:192,1,70,10|2,0:0|0:0,0:0:0:0:
152,192,19459,2,0,L|72:192,1,70,8|2,0:0|0:0,0:0:0:0:
264,192,19766,2,0,L|336:192,1,70,8|8,0:0|0:0,0:0:0:0:
404,192,20074,6,0,L|324:192,1,70,10|2,0:0|0:0,0:0:0:0:
440,192,20382,2,0,L|352:192,1,70,8|2,0:0|0:0,0:0:0:0:
200,192,20690,2,0,L|112:192,1,70,8|8,0:0|0:0,0:0:0:0:
232,192,20997,6,0,L|304:168,1,70,10|2,0:0|0:0,0:0:0:0:
144,192,21305,2,0,L|72:168,1,70,10|2,0:0|0:0,0:0:0:0:
232,192,21613,2,0,L|312:192,1,70,8|8,0:0|0:0,0:0:0:0:
24,192,21920,2,0,B|56:96|56:96|24:192|24:192|104:192,1,280,8|8,0:0|0:0,0:0:0:0:
480,192,22843,5,4,0:0:0:0:
208,192,23151,1,8,0:0:0:0:
140,205,23305,1,0,0:0:0:0:
82,169,23459,1,8,0:0:0:0:
64,104,23613,1,0,0:0:0:0:
240,192,23766,1,2,0:0:0:0:
128,192,24074,1,2,0:0:0:0:
16,192,24382,1,2,0:0:0:0:
432,192,24690,6,0,L|504:192,1,70,8|0,0:0|0:0,0:0:0:0:
328,192,24997,1,8,0:0:0:0:
260,207,25151,1,8,0:0:0:0:
194,185,25305,1,0,0:0:0:0:
149,133,25459,1,8,0:0:0:0:
328,192,25613,1,8,0:0:0:0:
440,192,25920,1,0,0:0:0:0:
272,192,26228,2,0,L|200:192,1,70,4|0,0:0|0:0,0:0:0:0:
440,192,26536,5,8,0:0:0:0:
487,151,26690,1,8,0:0:0:0:
447,102,26843,1,8,0:0:0:0:
288,192,27151,2,0,L|376:192,1,70,0|0,0:0|0:0,0:0:0:0:
72,192,27459,1,8,0:0:0:0:
25,151,27613,1,8,0:0:0:0:
65,102,27766,1,8,0:0:0:0:
240,192,28074,1,0,0:0:0:0:
496,192,28382,6,0,L|424:192,1,70,8|0,0:0|0:0,0:0:0:0:
240,192,28690,1,8,0:0:0:0:
270,132,28843,1,8,0:0:0:0:
337,132,28997,1,0,0:0:0:0:
368,191,29151,1,8,0:0:0:0:
192,192,29305,2,0,L|48:192,2,140,8|0|4,0:0|0:0|0:0,0:0:0:0:
368,192,30228,6,0,L|288:192,1,70,8|0,0:0|0:0,0:0:0:0:
120,192,30536,2,0,L|50:192,3,70,8|0|8|0,0:0|0:0|0:0|0:0,0:0:0:0:
136,192,31151,6,0,L|216:192,1,70,8|0,0:0|0:0,0:0:0:0:
40,192,31459,1,8,0:0:0:0:
272,192,31613,2,0,L|352:192,1,70,2|6,0:0|0:0,0:0:0:0:
184,192,32074,6,0,L|256:192,1,70,8|0,0:0|0:0,0:0:0:0:
416,192,32382,2,0,L|488:192,3,70,8|8|4|0,0:0|0:0|0:0|0:0,0:0:0:0:
400,192,32997,6,0,L|304:192,1,70,2|2,0:0|0:0,0:0:0:0:
494,192,33305,1,8,0:0:0:0:
256,192,33459,2,0,L|176:192,1,70,8|8,0:0|0:0,0:0:0:0:
136,192,33766,1,0,0:0:0:0:
384,192,33920,6,0,L|456:192,2,70,2|2|8,0:0|0:0|0:0,0:0:0:0:
232,192,34536,2,0,L|320:192,1,70,0|0,0:0|0:0,0:0:0:0:
80,192,34843,2,0,L|8:192,2,70,8|8|8,0:0|0:0|0:0,0:0:0:0:
216,192,35459,1,0,0:0:0:0:
496,192,35766,6,0,L|408:192,1,70,8|0,0:0|0:0,0:0:0:0:
251,192,36074,1,8,0:0:0:0:
321,192,36228,1,8,0:0:0:0:
391,192,36382,1,0,0:0:0:0:
461,192,36536,1,8,0:0:0:0:
280,192,36690,1,8,0:0:0:0:
104,192,36997,2,0,P|16:136|16:88,1,140,0|0,0:0|0:0,0:0:0:0:
432,192,37613,6,0,P|472:144|328:72,1,280,4|0,0:1|0:0,0:0:0:0:
176,192,38536,2,0,L|464:192,1,280,0|0,0:0|0:0,0:0:0:0:
280,192,39459,1,8,0:0:0:0:
80,192,40074,1,0,0:0:0:0:
368,192,40382,2,0,P|480:112|384:48,1,280,0|8,0:0|0:3,0:0:0:0:
16,192,41305,6,0,P|48:120|232:88,1,280,10|2,0:0|0:0,0:0:0:0:
64,192,42228,2,0,L|352:192,1,280,10|2,0:0|0:0,0:0:0:0:
88,192,43151,2,0,L|232:192,2,140,2|2|2,0:0|0:0|0:0,0:0:0:0:
392,192,44074,2,0,L|248:192,2,140,2|2|2,0:0|0:0|0:0,0:0:0:0:
16,192,44997,6,0,L|96:144,2,70,8|8|0,0:0|0:0|0:0,0:0:0:0:
120,192,45459,2,0,L|192:192,2,70,8|8|8,0:0|0:0|0:0,0:0:0:0:
40,192,45920,1,8,0:0:0:0:
200,192,46228,1,8,0:0:0:0:
488,192,46536,1,8,0:0:0:0:
96,192,46843,6,0,L|8:192,2,70,8|8|10,0:0|0:0|0:0,0:0:0:0:
200,192,47305,2,0,L|296:192,2,70,8|8|8,0:0|0:0|0:0,0:0:0:0:
304,192,47766,1,2,0:0:0:0:
152,192,48074,1,2,0:0:0:0:
440,192,48382,1,2,0:0:0:0:
64,192,48690,6,0,L|0:160,2,70,2|8|8,0:0|0:0|0:0,0:0:0:0:
248,192,49151,2,0,L|336:192,2,70,8|8|8,0:0|0:0|0:0,0:0:0:0:
352,192,49613,1,10,0:0:0:0:
112,192,49920,1,10,0:0:0:0:
392,192,50228,1,8,0:0:0:0:
16,192,50536,6,0,L|96:144,2,70,8|0|2,0:0|0:0|0:0,0:0:0:0:
184,192,50997,2,0,L|256:192,2,70,8|0|2,0:0|0:0|0:0,0:0:0:0:
368,192,51459,2,0,L|448:192,1,70,8|8,0:0|0:0,0:0:0:0:
336,192,51766,2,0,L|240:192,1,70,8|8,0:0|0:0,0:0:0:0:
368,192,52074,2,0,L|296:192,1,70,2|2,0:0|0:0,0:0:0:0:
64,192,52382,6,0,P|16:144|64:104,1,140,2|8,0:0|0:0,0:0:0:0:
168,192,52997,2,0,L|72:192,1,70,8|8,0:0|0:0,0:0:0:0:
184,192,53305,1,2,0:0:0:0:
472,192,53613,2,0,L|400:192,1,70,8|2,0:0|0:0,0:0:0:0:
488,192,53920,2,0,L|408:192,1,70,8|8,0:0|0:0,0:0:0:0:
192,192,54228,6,0,P|145:188|120:160,1,70,2|10,0:0|0:0,0:0:0:0:
416,192,54690,2,0,L|496:192,1,70,2|10,0:0|0:0,0:0:0:0:
208,192,55151,1,10,0:0:0:0:
486,192,55459,2,0,P|464:120|390:96,1,140,10|8,0:0|0:0,0:0:0:0:
32,192,56074,6,0,P|8:120|168:56,1,280,4|0,0:1|0:0,0:0:0:0:
344,192,56997,2,0,P|440:112|336:48,1,280,4|0,0:1|0:0,0:0:0:0:
64,192,57920,2,0,P|168:120|304:192,1,280,4|0,0:1|0:0,0:0:0:0:
16,192,58843,2,0,L|160:192,1,140,4|0,0:1|0:0,0:0:0:0:
16,192,59459,1,10,0:0:0:0:
400,192,59766,5,8,0:0:0:0:
463,168,59920,1,0,0:0:0:0:
488,105,60074,1,8,0:0:0:0:
457,44,60228,1,8,0:0:0:0:
392,27,60382,1,8,0:0:0:0:
335,64,60536,1,2,0:0:0:0:
168,192,60690,5,8,0:0:0:0:
98,192,60843,1,0,0:0:0:0:
146,151,60997,1,8,0:0:0:0:
215,140,61151,1,8,0:0:0:0:
285,148,61305,1,8,0:0:0:0:
341,187,61459,1,2,0:0:0:0:
176,192,61613,5,8,0:0:0:0:
111,171,61766,1,0,0:0:0:0:
85,108,61920,1,8,0:0:0:0:
116,48,62074,1,8,0:0:0:0:
182,33,62228,1,8,0:0:0:0:
236,73,62382,1,2,0:0:0:0:
64,192,62536,6,0,L|224:192,1,140,8|0,0:1|0:0,0:0:0:0:
104,192,63151,1,8,0:1:0:0:
496,192,63459,6,0,L|440:144,1,70,8|0,0:0|0:0,0:0:0:0:
336,192,63766,2,0,L|416:192,1,70,8|0,0:0|0:0,0:0:0:0:
312,192,64074,2,0,L|384:192,1,70,8|0,0:0|0:0,0:0:0:0:
208,192,64382,6,0,L|136:192,1,70,8|0,0:0|0:0,0:0:0:0:
232,192,64690,2,0,L|152:192,1,70,8|0,0:0|0:0,0:0:0:0:
68,192,64997,2,0,L|140:192,1,70,8|0,0:0|0:0,0:0:0:0:
312,192,65305,6,0,L|392:192,1,70,8|0,0:0|0:0,0:0:0:0:
280,192,65613,2,0,L|208:192,1,70,2|8,0:0|0:0,0:0:0:0:
312,192,65920,2,0,L|392:192,1,70,0|2,0:0|0:0,0:0:0:0:
160,192,66228,6,0,L|88:192,1,70,8|0,0:0|0:0,0:0:0:0:
184,192,66536,2,0,L|104:192,1,70,8|0,0:0|0:0,0:0:0:0:
24,192,66843,2,0,L|104:192,1,70,8|0,0:0|0:0,0:0:0:0:
264,192,67151,6,0,L|184:192,1,70,8|0,0:0|0:0,0:0:0:0:
104,192,67459,2,0,L|184:192,1,70,8|0,0:0|0:0,0:0:0:0:
80,192,67766,2,0,L|168:192,1,70,8|0,0:0|0:0,0:0:0:0:
376,192,68074,6,0,L|448:192,1,70,8|0,0:0|0:0,0:0:0:0:
360,192,68382,2,0,L|280:192,1,70,8|0,0:0|0:0,0:0:0:0:
456,192,68690,2,0,L|376:152,1,70,8|0,0:0|0:0,0:0:0:0:
224,192,68997,6,0,L|144:192,1,70,8|0,0:0|0:0,0:0:0:0:
256,192,69305,2,0,L|336:192,1,70,8|0,0:0|0:0,0:0:0:0:
154,192,69613,2,0,L|82:192,1,70,8|0,0:0|0:0,0:0:0:0:
312,192,69920,6,0,L|408:192,1,70,8|0,0:0|0:0,0:0:0:0:
288,192,70228,2,0,L|368:192,1,70,8|0,0:0|0:0,0:0:0:0:
264,192,70536,2,0,L|176:192,1,70,8|0,0:0|0:0,0:0:0:0:
448,192,70843,5,2,0:0:0:0:
336,192,71151,2,0,L|424:192,1,70,8|8,0:0|0:0,0:0:0:0:
488,192,71459,2,0,L|416:192,1,70,8|0,0:0|0:0,0:0:0:0:
256,192,71766,2,0,P|192:144|240:104,1,140,8|8,0:0|0:0,0:0:0:0:
352,192,72382,1,8,0:0:0:0:
176,192,72690,5,2,0:0:0:0:
32,192,72997,2,0,L|120:192,1,70,8|8,0:0|0:0,0:0:0:0:
192,192,73305,2,0,L|112:192,1,70,8|8,0:0|0:0,0:0:0:0:
352,192,73613,2,0,P|384:128|328:112,1,140,8|8,0:0|0:0,0:0:0:0:
480,192,74228,1,10,0:0:0:0:
96,192,74536,5,2,0:0:0:0:
392,192,75459,1,0,0:0:0:0:
40,192,76382,1,8,0:0:0:0:
68,128,76536,1,0,0:0:0:0:
123,86,76690,1,2,0:0:0:0:
191,76,76843,1,8,0:0:0:0:
256,101,76997,1,0,0:0:0:0:
301,154,77151,1,2,0:0:0:0:
72,192,77305,6,0,L|8:160,2,70,8|8|4,0:0|0:0|0:0,0:0:0:0:
376,192,77920,2,0,L|464:192,1,70,8|8,0:0|0:0,0:0:0:0:
216,192,78228,6,0,L|144:192,1,70,10|8,0:0|0:0,0:0:0:0:
248,192,78536,2,0,L|176:192,1,70,8|2,0:0|0:0,0:0:0:0:
352,192,78843,2,0,L|448:192,1,70,8|8,0:0|0:0,0:0:0:0:
320,192,79151,6,0,L|240:192,1,70,10|2,0:0|0:0,0:0:0:0:
160,192,79459,2,0,L|240:192,1,70,8|2,0:0|0:0,0:0:0:0:
400,192,79766,2,0,L|488:192,1,70,8|8,0:0|0:0,0:0:0:0:
384,192,80074,6,0,L|480:192,1,70,10|2,0:0|0:0,0:0:0:0:
360,192,80382,2,0,L|280:192,1,70,8|2,0:0|0:0,0:0:0:0:
112,192,80690,2,0,L|184:192,1,70,8|8,0:0|0:0,0:0:0:0:
408,192,80997,6,0,L|480:192,1,70,8|8,0:0|0:0,0:0:0:0:
384,192,81305,2,0,L|312:192,1,70,8|8,0:0|0:0,0:0:0:0:
408,192,81613,2,0,L|488:192,1,70,8|8,0:0|0:0,0:0:0:0:
248,192,81920,6,0,L|168:192,1,70,10|2,0:0|0:0,0:0:0:0:
272,192,82228,2,0,L|360:192,1,70,8|2,0:0|0:0,0:0:0:0:
168,192,82536,2,0,L|256:144,1,70,8|8,0:0|0:0,0:0:0:0:
144,192,82843,6,0,L|56:192,1,70,10|2,0:0|0:0,0:0:0:0:
168,192,83151,2,0,L|96:192,1,70,8|2,0:0|0:0,0:0:0:0:
272,192,83459,2,0,L|352:192,1,70,8|8,0:0|0:0,0:0:0:0:
176,192,83766,5,10,0:0:0:0:
108,190,83920,1,2,0:0:0:0:
66,137,84074,1,8,0:0:0:0:
81,71,84228,1,2,0:0:0:0:
240,192,84382,1,8,0:0:0:0:
176,192,84536,1,8,0:0:0:0:
400,192,84690,5,10,0:0:0:0:
462,164,84843,1,8,0:0:0:0:
486,100,84997,1,8,0:0:0:0:
457,38,85151,1,8,0:0:0:0:
392,16,85305,1,8,0:0:0:0:
331,46,85459,1,8,0:0:0:0:
104,192,85613,6,0,L|8:192,2,70,8|8|2,0:0|0:0|0:0,0:0:0:0:
344,192,86074,2,0,L|440:192,2,70,8|8|2,0:0|0:0|0:0,0:0:0:0:
48,192,86536,1,8,0:0:0:0:
280,192,86843,1,4,0:0:0:0:
48,192,87151,1,4,0:0:0:0:
426,192,87459,6,0,L|488:152,1,70,8|8,0:0|0:0,0:0:0:0:
336,192,87766,2,0,L|274:152,1,70,8|8,0:0|0:0,0:0:0:0:
426,192,88074,2,0,L|488:152,1,70,8|8,0:0|0:0,0:0:0:0:
106,192,88382,5,8,0:0:0:0:
