osu file format v14

[General]
AudioFilename: audio.mp3
AudioLeadIn: 0
PreviewTime: 8074
Countdown: 0
SampleSet: None
StackLeniency: 0.7
Mode: 2
LetterboxInBreaks: 0
WidescreenStoryboard: 0

[Editor]
Bookmarks: 22843,37613,56074,70843
DistanceSpacing: 1.4
BeatDivisor: 4
GridSize: 8
TimelineZoom: 1.7

[Metadata]
Title:Inferno
TitleUnicode:インフェルノ
Artist:9mm Parabellum Bullet
ArtistUnicode:9mm Parabellum Bullet
Creator:- Magic Bomb -
Version:Overdose
Source:ベルセルク
Tags:MBomb BERSERK guts casca griffith 2016 tv size opening
BeatmapID:1099819
BeatmapSetID:502553

[Difficulty]
HPDrainRate:6
CircleSize:4
OverallDifficulty:9.3
ApproachRate:9.3
SliderMultiplier:1.8
SliderTickRate:2

[Events]
//Background and Video events
0,0,"rsz_inferno.jpg",0,0
Video,-380,"video.avi"
//Break Periods
//Storyboard Layer 0 (Background)
//Storyboard Layer 1 (Fail)
//Storyboard Layer 2 (Pass)
//Storyboard Layer 3 (Foreground)
//Storyboard Sound Samples

[TimingPoints]
690,307.692307692308,3,3,1,90,1,0
6690,-83.3333333333333,3,3,1,90,0,0
6843,-100,3,3,1,90,0,0
8074,-100,3,3,0,50,0,0
11305,-100,3,3,1,75,0,0
11766,-100,3,3,1,90,0,0
22843,-100,3,3,1,70,0,0
25766,-100,3,3,0,50,0,0
26536,-100,3,3,1,70,0,0
29459,-100,3,3,0,50,0,0
30228,-100,3,3,1,70,0,0
32382,-100,3,3,0,70,0,0
32997,-100,3,3,1,70,0,0
37613,-100,3,3,1,35,0,0
40690,-100,3,3,0,35,0,0
41305,-100,3,3,1,50,0,0
44997,-100,3,3,1,90,0,1
49151,-83.3333333333333,3,3,1,90,0,1
49305,-100,3,3,1,90,0,1
52382,-100,3,3,1,90,0,0
56074,-100,3,3,1,45,0,0
59766,-100,3,3,1,90,0,0
75613,-100,3,3,1,50,0,0
75766,-100,3,3,1,90,0,0
77920,-100,3,3,1,50,0,0
78228,-100,3,3,1,90,0,1
79151,-83.3333333333333,3,3,1,90,0,1
79305,-100,3,3,1,90,0,1
82843,-83.3333333333333,3,3,1,90,0,1
82997,-100,3,3,1,90,0,1
85305,-100,3,3,0,70,0,1
85382,-100,3,3,1,90,0,1
86536,-100,3,3,0,70,0,1
87459,-100,3,3,1,100,0,1
88382,-100,3,3,1,100,0,0

[Colours]
Combo1 : 255,68,68
Combo2 : 255,255,0
Combo3 : 255,0,0
Combo4 : 255,128,0

[HitObjects]
192,192,690,5,8,0:0:0:0:
352,192,843,1,0,0:0:0:0:
395,191,920,1,0,0:0:0:0:
427,161,997,1,2,0:0:0:0:
429,117,1074,1,0,0:0:0:0:
240,192,1151,1,8,0:0:0:0:
368,192,1305,1,8,0:0:0:0:
349,151,1382,1,0,0:0:0:0:
316,121,1459,1,2,0:0:0:0:
273,109,1536,1,0,0:0:0:0:
56,192,1613,6,0,L|152:144,1,90,8|0,0:0|0:0,0:0:0:0:
456,192,1920,2,0,L|360:144,1,90,8|0,0:0|0:0,0:0:0:0:
24,192,2228,2,0,L|136:192,1,90,4|0,0:0|0:0,0:0:0:0:
344,192,2536,5,8,0:0:0:0:
208,192,2690,1,0,0:0:0:0:
165,190,2766,1,0,0:0:0:0:
154,149,2843,1,2,0:0:0:0:
188,126,2920,1,0,0:0:0:0:
376,192,2997,1,8,0:0:0:0:
232,192,3151,1,8,0:0:0:0:
187,191,3228,1,0,0:0:0:0:
146,173,3305,1,2,0:0:0:0:
117,139,3382,1,0,0:0:0:0:
312,192,3459,5,8,0:0:0:0:
353,187,3536,1,0,0:0:0:0:
360,145,3613,1,0,0:0:0:0:
323,127,3690,1,0,0:0:0:0:
128,192,3766,1,8,0:0:0:0:
87,187,3843,1,0,0:0:0:0:
80,146,3920,1,0,0:0:0:0:
117,127,3997,1,0,0:0:0:0:
392,192,4074,2,0,P|440:144|432:136,1,90,4|0,0:0|0:0,0:0:0:0:
224,192,4382,6,0,L|168:192,1,45,8|0,0:0|0:0,0:0:0:0:
328,192,4536,1,8,0:0:0:0:
370,192,4613,1,0,0:0:0:0:
384,153,4690,1,2,0:0:0:0:
351,127,4766,1,0,0:0:0:0:
128,192,4843,2,0,L|128:144,1,45,8|0,0:0|0:0,0:0:0:0:
352,192,4997,1,8,0:0:0:0:
323,158,5074,1,0,0:0:0:0:
280,144,5151,1,2,0:0:0:0:
237,156,5228,1,0,0:0:0:0:
56,192,5305,6,0,P|95:150|144:144,1,90,8|2,0:0|0:0,0:0:0:0:
424,192,5613,1,8,0:0:0:0:
466,190,5690,1,0,0:0:0:0:
478,150,5766,1,0,0:0:0:0:
444,126,5843,1,0,0:0:0:0:
224,192,5920,1,4,0:0:0:0:
181,190,5997,1,0,0:0:0:0:
169,150,6074,1,0,0:0:0:0:
203,126,6151,1,0,0:0:0:0:
352,192,6228,6,0,L|408:192,1,45,8|0,0:0|0:0,0:0:0:0:
181,190,6382,1,8,0:0:0:0:
138,190,6459,1,0,0:0:0:0:
115,154,6536,1,2,0:0:0:0:
136,116,6613,1,0,0:0:0:0:
272,192,6690,2,0,L|344:192,1,53.9999983520508,8|0,0:0|0:0,0:0:0:0:
480,192,6843,1,8,0:0:0:0:
467,149,6920,1,0,0:0:0:0:
433,121,6997,1,2,0:0:0:0:
389,118,7074,1,0,0:0:0:0:
160,192,7151,5,8,0:0:0:0:
117,190,7228,1,0,0:0:0:0:
101,150,7305,1,0,0:0:0:0:
132,120,7382,1,0,0:0:0:0:
304,192,7459,1,8,0:0:0:0:
346,190,7536,1,0,0:0:0:0:
362,150,7613,1,0,0:0:0:0:
331,120,7690,1,0,0:0:0:0:
192,192,7766,1,8,0:0:0:0:
149,190,7843,1,0,0:0:0:0:
133,150,7920,1,0,0:0:0:0:
164,120,7997,1,0,0:0:0:0:
368,192,8074,6,0,P|448:176|504:56,2,180,2|0|0,0:0|0:0|0:0,0:0:0:0:
128,192,8997,2,0,L|288:96,2,180,2|0|0,0:0|0:0|0:0,0:0:0:0:
496,192,9920,2,0,L|320:104,2,180,10|0|0,0:0|0:0|0:0,0:0:0:0:
32,192,10843,2,0,L|200:112,1,180,6|0,0:0|0:0,0:0:0:0:
264,192,11305,1,0,0:0:0:0:
112,192,11459,1,8,0:0:0:0:
488,192,11766,6,0,L|440:112,1,90,8|0,0:0|0:0,0:0:0:0:
280,192,12074,2,0,L|376:192,1,90,8|8,0:0|0:0,0:0:0:0:
112,192,12382,2,0,L|0:192,1,90,8|2,0:0|0:0,0:0:0:0:
320,192,12690,6,0,L|440:192,1,90,8|0,0:0|0:0,0:0:0:0:
248,192,12997,2,0,L|352:192,1,90,8|8,0:0|0:0,0:0:0:0:
48,192,13305,2,0,L|48:96,1,90,8|2,0:0|0:0,0:0:0:0:
338,192,13613,6,0,L|240:128,1,90,8|0,0:0|0:0,0:0:0:0:
104,192,13920,2,0,L|202:128,1,90,8|8,0:0|0:0,0:0:0:0:
408,192,14228,2,0,L|504:192,1,90,8|2,0:0|0:0,0:0:0:0:
136,192,14536,1,8,0:1:0:0:
96,176,14613,1,0,0:0:0:0:
91,133,14690,1,0,0:0:0:0:
126,109,14766,1,0,0:0:0:0:
376,192,14843,1,8,0:1:0:0:
415,176,14920,1,0,0:0:0:0:
420,133,14997,1,0,0:0:0:0:
385,109,15074,1,0,0:0:0:0:
136,192,15151,2,0,P|64:176|64:112,1,135,8|0,0:1|0:0,0:0:0:0:
296,192,15459,5,2,0:0:0:0:
339,199,15536,1,0,0:0:0:0:
375,174,15613,1,2,0:0:0:0:
383,131,15690,1,0,0:0:0:0:
358,95,15766,1,8,0:0:0:0:
136,192,15920,1,2,0:0:0:0:
424,192,16074,1,8,0:0:0:0:
104,192,16228,1,8,0:0:0:0:
376,192,16382,5,10,0:0:0:0:
344,159,16459,1,0,0:0:0:0:
303,141,16536,1,2,0:0:0:0:
259,141,16613,1,0,0:0:0:0:
217,157,16690,1,8,0:0:0:0:
440,192,16843,1,2,0:0:0:0:
168,192,16997,1,8,0:0:0:0:
488,192,17151,1,8,0:0:0:0:
208,192,17305,5,10,0:0:0:0:
165,185,17382,1,0,0:0:0:0:
144,148,17459,1,2,0:0:0:0:
162,108,17536,1,0,0:0:0:0:
204,99,17613,1,8,0:0:0:0:
432,192,17766,1,2,0:0:0:0:
176,192,17920,1,8,0:0:0:0:
480,192,18074,1,8,0:0:0:0:
120,192,18228,6,0,L|24:192,1,90,8|8,0:0|0:0,0:0:0:0:
192,192,18536,2,0,L|96:192,1,90,8|8,0:0|0:0,0:0:0:0:
256,192,18843,2,0,L|152:192,1,90,8|8,0:0|0:0,0:0:0:0:
408,192,19151,5,10,0:0:0:0:
451,188,19228,1,0,0:0:0:0:
472,150,19305,1,2,0:0:0:0:
452,112,19382,1,0,0:0:0:0:
409,106,19459,1,8,0:0:0:0:
166,192,19613,1,2,0:0:0:0:
440,192,19766,1,8,0:0:0:0:
112,192,19920,1,8,0:0:0:0:
392,192,20074,5,10,0:0:0:0:
382,148,20151,1,0,0:0:0:0:
355,112,20228,1,2,0:0:0:0:
316,91,20305,1,0,0:0:0:0:
271,89,20382,1,8,0:0:0:0:
24,192,20536,1,2,0:0:0:0:
256,192,20690,1,8,0:0:0:0:
488,192,20843,1,8,0:0:0:0:
176,192,20997,5,10,0:0:0:0:
132,187,21074,1,0,0:0:0:0:
111,149,21151,1,2,0:0:0:0:
130,110,21228,1,0,0:0:0:0:
173,103,21305,1,8,0:0:0:0:
432,192,21459,1,2,0:0:0:0:
160,192,21613,1,8,0:0:0:0:
408,192,21766,1,8,0:0:0:0:
160,192,21920,6,0,L|264:192,1,90,8|0,0:0|0:0,0:0:0:0:
408,192,22228,2,0,L|304:192,1,90,8|8,0:0|0:0,0:0:0:0:
160,192,22536,1,8,0:0:0:0:
118,184,22613,1,0,0:0:0:0:
112,143,22690,1,8,0:0:0:0:
150,124,22766,1,0,0:0:0:0:
408,192,22843,6,0,L|472:192,2,45,4|0|0,0:0|0:0|0:0,0:0:0:0:
144,192,23151,1,8,0:0:0:0:
103,181,23228,1,0,0:0:0:0:
102,139,23305,1,0,0:0:0:0:
143,127,23382,1,0,0:0:0:0:
368,192,23459,1,8,0:0:0:0:
408,181,23536,1,0,0:0:0:0:
409,139,23613,1,0,0:0:0:0:
368,127,23690,1,0,0:0:0:0:
144,192,23766,5,2,0:0:0:0:
272,192,24074,1,2,0:0:0:0:
112,192,24382,1,2,0:0:0:0:
488,192,24690,5,8,0:0:0:0:
456,160,24766,1,0,0:0:0:0:
414,144,24843,1,0,0:0:0:0:
200,192,24997,1,8,0:0:0:0:
159,180,25074,1,8,0:0:0:0:
157,138,25151,1,8,0:0:0:0:
196,123,25228,1,0,0:0:0:0:
56,192,25305,1,0,0:0:0:0:
15,184,25382,1,0,0:0:0:0:
15,143,25459,1,8,0:0:0:0:
56,136,25536,1,0,0:0:0:0:
256,192,25613,5,8,0:0:0:0:
352,192,25766,1,8,0:0:0:0:
432,192,25920,1,0,0:0:0:0:
368,192,26074,1,8,0:0:0:0:
120,192,26228,2,0,L|24:192,1,90,4|0,0:0|0:0,0:0:0:0:
304,192,26536,5,8,0:0:0:0:
347,191,26612,1,0,0:0:0:0:
374,157,26689,1,8,0:0:0:0:
365,115,26766,1,8,0:0:0:0:
176,192,26843,1,8,0:0:0:0:
336,192,27151,2,0,L|408:112,1,90,0|0,0:0|0:0,0:0:0:0:
104,192,27459,5,8,0:0:0:0:
60,191,27536,1,0,0:0:0:0:
33,157,27613,1,8,0:0:0:0:
42,115,27690,1,8,0:0:0:0:
232,192,27766,1,8,0:0:0:0:
88,192,28074,2,0,L|192:192,1,90,0|0,0:0|0:0,0:0:0:0:
448,192,28382,6,0,L|504:192,2,45,8|0|0,0:0|0:0|0:0,0:0:0:0:
232,192,28690,1,8,0:0:0:0:
189,190,28766,1,0,0:0:0:0:
178,149,28843,1,8,0:0:0:0:
212,126,28920,1,0,0:0:0:0:
360,192,28997,1,0,0:0:0:0:
402,190,29074,1,0,0:0:0:0:
413,149,29151,1,8,0:0:0:0:
379,126,29228,1,0,0:0:0:0:
224,192,29305,6,0,L|128:192,1,90,8|8,0:0|0:0,0:0:0:0:
44,192,29613,2,0,L|156:192,1,90,0|8,0:0|0:0,0:0:0:0:
224,192,29920,2,0,L|128:192,1,90,4|0,0:0|0:0,0:0:0:0:
400,192,30228,6,0,L|504:192,1,90,8|0,0:0|0:0,0:0:0:0:
328,192,30536,2,0,L|232:192,3,90,8|0|8|0,0:0|0:0|0:0|0:0,0:0:0:0:
80,192,31151,2,0,L|200:192,1,90,8|0,0:0|0:0,0:0:0:0:
24,192,31459,1,8,0:0:0:0:
320,192,31613,2,0,L|384:192,2,45,2|2|6,0:0|0:0|0:0,0:0:0:0:
80,192,32074,5,8,0:0:0:0:
216,192,32228,2,0,L|280:192,1,45,0|8,0:0|0:0,0:0:0:0:
120,192,32382,2,0,L|8:192,3,90,8|8|4|0,0:0|0:0|0:0|0:0,0:0:0:0:
272,192,32997,2,0,L|376:192,1,90,2|2,0:0|0:0,0:0:0:0:
216,192,33305,1,8,0:0:0:0:
448,192,33459,2,0,L|496:192,2,45,8|8|8,0:0|0:0|0:0,0:0:0:0:
320,192,33766,1,0,0:0:0:0:
88,192,33920,5,2,0:0:0:0:
45,186,33997,1,0,0:0:0:0:
33,146,34074,1,2,0:0:0:0:
66,118,34151,1,0,0:0:0:0:
224,192,34228,1,8,0:0:0:0:
88,192,34536,2,0,L|200:192,1,90,0|0,0:0|0:0,0:0:0:0:
424,192,34843,5,8,0:0:0:0:
466,186,34920,1,8,0:0:0:0:
478,146,34997,1,8,0:0:0:0:
445,118,35074,1,0,0:0:0:0:
288,192,35151,1,8,0:0:0:0:
48,192,35459,2,0,L|176:192,1,90
376,192,35766,5,8,0:0:0:0:
419,184,35843,1,0,0:0:0:0:
451,154,35920,1,0,0:0:0:0:
216,192,36074,1,8,0:0:0:0:
231,151,36151,1,0,0:0:0:0:
273,139,36228,1,8,0:0:0:0:
307,166,36305,1,0,0:0:0:0:
144,192,36382,1,0,0:0:0:0:
104,179,36459,1,0,0:0:0:0:
108,138,36536,1,8,0:0:0:0:
150,134,36613,1,0,0:0:0:0:
384,192,36690,1,8,0:0:0:0:
192,192,36997,2,0,P|120:192|40:120,1,180,0|0,0:0|0:0,0:0:0:0:
448,192,37613,6,0,B|496:152|466:88|245:83|152:184,1,360,4|0,0:1|0:0,0:0:0:0:
416,192,38536,2,0,L|72:88,1,360,0|0,0:0|0:0,0:0:0:0:
304,192,39459,2,0,P|472:128|368:24,1,360,8|0,0:0|0:0,0:0:0:0:
16,192,40382,2,0,L|176:96,1,180,0|2,0:0|0:0,0:0:0:0:
56,192,40843,2,0,L|11:176,2,45,8|8|8,0:3|0:3|0:3,0:0:0:0:
424,192,41305,6,0,P|488:144|504:48,2,180,10|2|2,0:0|0:0|0:0,0:0:0:0:
152,192,42228,2,0,L|312:104,2,180,10|2|2,0:0|0:0|0:0,0:0:0:0:
272,192,42997,1,0,0:0:0:0:
488,192,43151,6,0,L|328:96,2,180,2|2|2,0:0|0:0|0:0,0:0:0:0:
32,192,44074,2,0,L|192:96,2,180,2|2|2,0:0|0:0|0:0,0:0:0:0:
448,192,44997,6,0,L|504:192,1,45,8|0,0:0|0:0,0:0:0:0:
288,192,45151,1,8,0:0:0:0:
244,186,45228,1,0,0:0:0:0:
217,151,45305,1,0,0:0:0:0:
222,108,45382,1,0,0:0:0:0:
392,192,45459,2,0,L|336:184,1,45,8|0,0:0|0:0,0:0:0:0:
136,192,45613,1,8,0:0:0:0:
91,188,45690,1,0,0:0:0:0:
56,160,45766,1,8,0:0:0:0:
42,118,45843,1,8,0:0:0:0:
352,192,45920,6,0,L|408:192,2,45,8|0|2,0:0|0:0|0:0,0:0:0:0:
128,192,46228,2,0,L|72:192,2,45,8|0|2,0:0|0:0|0:0,0:0:0:0:
397,192,46536,2,0,L|453:192,2,45,8|0|2,0:0|0:0|0:0,0:0:0:0:
80,192,46843,6,0,L|24:192,1,45,8|0,0:0|0:0,0:0:0:0:
232,192,46997,1,8,0:0:0:0:
274,184,47074,1,8,0:0:0:0:
287,144,47151,1,10,0:0:0:0:
258,113,47228,1,0,0:0:0:0:
80,192,47305,2,0,L|128:192,1,45,8|0,0:0|0:0,0:0:0:0:
288,192,47459,1,8,0:0:0:0:
326,175,47536,1,0,0:0:0:0:
320,134,47613,1,8,0:0:0:0:
279,128,47690,1,0,0:0:0:0:
416,192,47766,6,0,L|480:192,2,45,2|0|8,0:0|0:0|0:0,0:0:0:0:
176,192,48074,2,0,L|88:192,2,45,2|0|8,0:0|0:0|0:0,0:0:0:0:
448,192,48382,2,0,L|496:192,2,45,2|0|8,0:0|0:0|0:0,0:0:0:0:
120,192,48690,6,0,L|176:192,1,45,2|0,0:0|0:0,0:0:0:0:
336,192,48843,1,8,0:0:0:0:
378,189,48920,1,8,0:0:0:0:
391,149,48997,1,8,0:0:0:0:
358,122,49074,1,0,0:0:0:0:
208,192,49151,2,0,L|152:192,1,53.9999983520508,8|0,0:0|0:0,0:0:0:0:
16,192,49305,1,8,0:0:0:0:
44,157,49382,1,0,0:0:0:0:
83,134,49459,1,8,0:0:0:0:
127,126,49536,1,8,0:0:0:0:
368,192,49613,6,0,L|416:192,2,45,10|0|0,0:0|0:0|0:0,0:0:0:0:
112,192,49920,2,0,L|64:192,2,45,10|0|0,0:0|0:0|0:0,0:0:0:0:
432,192,50228,2,0,L|480:192,2,45,8|0|8,0:0|0:0|0:0,0:0:0:0:
144,192,50536,6,0,L|192:192,1,45,8|0,0:0|0:0,0:0:0:0:
376,192,50690,1,0,0:0:0:0:
363,149,50766,1,0,0:0:0:0:
330,119,50843,1,2,0:0:0:0:
286,111,50920,1,0,0:0:0:0:
128,192,50997,2,0,L|72:192,1,45,8|0,0:0|0:0,0:0:0:0:
304,192,51151,1,0,0:0:0:0:
348,193,51228,1,0,0:0:0:0:
390,176,51305,1,2,0:0:0:0:
420,144,51382,1,0,0:0:0:0:
184,192,51459,5,8,0:0:0:0:
141,188,51536,1,0,0:0:0:0:
126,148,51613,1,8,0:0:0:0:
156,118,51690,1,0,0:0:0:0:
352,192,51766,1,8,0:0:0:0:
394,188,51843,1,0,0:0:0:0:
409,148,51920,1,8,0:0:0:0:
379,118,51997,1,0,0:0:0:0:
208,192,52074,1,2,0:0:0:0:
165,188,52151,1,0,0:0:0:0:
150,148,52228,1,2,0:0:0:0:
180,118,52305,1,0,0:0:0:0:
376,192,52382,6,0,L|472:192,1,90,2|8,0:0|0:0,0:0:0:0:
320,192,52690,2,0,L|416:192,3,90,8|2|8|8,0:0|0:0|0:0|0:0,0:0:0:0:
256,192,53305,2,0,L|160:192,1,90,2|8,0:0|0:0,0:0:0:0:
410,192,53613,2,0,L|506:192,1,90,8|2,0:0|0:0,0:0:0:0:
346,192,53920,2,0,L|242:192,1,90,8|8,0:0|0:0,0:0:0:0:
496,192,54228,5,2,0:0:0:0:
160,192,54382,1,10,0:0:0:0:
416,192,54690,1,2,0:0:0:0:
96,192,54843,1,10,0:0:0:0:
496,192,55151,1,10,0:0:0:0:
16,192,55459,1,10,0:0:0:0:
240,192,55766,2,0,P|336:152|336:136,1,135,8|0,0:0|0:0,0:0:0:0:
144,192,56074,6,0,P|32:160|16:96,2,180,4|0|0,0:1|0:0|0:0,0:0:0:0:
384,192,56997,2,0,L|224:104,2,180,4|0|0,0:1|0:0|0:0,0:0:0:0:
16,192,57920,2,0,L|160:80,2,180,4|0|0,0:1|0:0|0:0,0:0:0:0:
496,192,58843,2,0,L|352:80,1,180,4|0,0:1|0:0,0:0:0:0:
56,200,59459,2,0,P|56:152|144:112,1,135,10|0,0:0|0:0,0:0:0:0:
352,192,59766,6,0,L|464:192,1,90,8|0,0:0|0:0,0:0:0:0:
288,192,60074,2,0,L|400:192,1,90,8|8,0:0|0:0,0:0:0:0:
128,192,60382,2,0,L|16:192,1,90,8|2,0:0|0:0,0:0:0:0:
288,192,60690,2,0,L|200:144,1,90,8|0,0:0|0:0,0:0:0:0:
56,192,60997,2,0,L|160:192,1,90,8|8,0:0|0:0,0:0:0:0:
416,192,61305,2,0,P|464:136|440:112,1,90,8|2,0:0|0:0,0:0:0:0:
176,192,61613,6,0,L|80:192,1,90,8|0,0:0|0:0,0:0:0:0:
352,192,61920,2,0,L|240:192,1,90,8|8,0:0|0:0,0:0:0:0:
16,192,62228,2,0,L|136:192,1,90,8|2,0:0|0:0,0:0:0:0:
352,192,62536,5,8,0:1:0:0:
394,192,62613,1,0,0:0:0:0:
417,156,62690,1,0,0:0:0:0:
396,118,62766,1,0,0:0:0:0:
224,192,62843,1,8,0:1:0:0:
183,177,62920,1,0,0:0:0:0:
179,134,62997,1,0,0:0:0:0:
215,112,63074,1,0,0:0:0:0:
394,192,63151,2,0,P|480:160|488:120,1,135,8|0,0:1|0:0,0:0:0:0:
184,192,63459,6,0,L|88:192,1,90,8|0,0:0|0:0,0:0:0:0:
248,192,63766,2,0,L|360:192,1,90,8|0,0:0|0:0,0:0:0:0:
40,192,64074,2,0,L|136:192,1,90,8|0,0:0|0:0,0:0:0:0:
384,192,64382,2,0,L|280:192,1,90,8|0,0:0|0:0,0:0:0:0:
152,192,64690,2,0,L|264:192,1,90,8|0,0:0|0:0,0:0:0:0:
400,192,64997,2,0,L|496:192,1,90,8|0,0:0|0:0,0:0:0:0:
136,192,65305,6,0,L|32:192,1,90,8|0,0:0|0:0,0:0:0:0:
288,192,65613,2,0,L|192:192,1,90,2|8,0:0|0:0,0:0:0:0:
440,192,65920,2,0,L|336:192,1,90,0|2,0:0|0:0,0:0:0:0:
104,192,66228,2,0,L|216:192,1,90,8|0,0:0|0:0,0:0:0:0:
440,192,66536,2,0,L|336:192,1,90,8|0,0:0|0:0,0:0:0:0:
104,192,66843,2,0,P|48:176|40:144,1,90,8|0,0:0|0:0,0:0:0:0:
328,192,67151,6,0,L|424:192,1,90,8|0,0:0|0:0,0:0:0:0:
184,192,67459,2,0,L|88:192,1,90,8|0,0:0|0:0,0:0:0:0:
376,192,67766,2,0,P|416:136|392:112,1,90,8|0,0:0|0:0,0:0:0:0:
168,192,68074,2,0,L|264:192,1,90,8|0,0:0|0:0,0:0:0:0:
16,192,68382,2,0,L|112:192,1,90,8|0,0:0|0:0,0:0:0:0:
408,192,68690,2,0,P|480:152|480:120,1,90,8|0,0:0|0:0,0:0:0:0:
216,192,68997,6,0,L|184:104,1,90,8|0,0:0|0:0,0:0:0:0:
440,192,69305,2,0,L|472:104,1,90,8|0,0:0|0:0,0:0:0:0:
160,192,69613,2,0,L|128:104,1,90,8|0,0:0|0:0,0:0:0:0:
480,192,69920,6,0,L|400:152,1,90,8|0,0:0|0:0,0:0:0:0:
160,192,70228,2,0,L|264:192,1,90,8|0,0:0|0:0,0:0:0:0:
480,192,70536,2,0,L|424:192,1,45,8|0,0:0|0:0,0:0:0:0:
288,192,70690,2,0,L|336:192,1,45,0|0,0:0|0:0,0:0:0:0:
480,192,70843,5,2,0:0:0:0:
232,192,71151,2,0,L|336:192,1,90,8|8,0:0|0:0,0:0:0:0:
160,192,71459,2,0,L|264:192,1,90,8|0,0:0|0:0,0:0:0:0:
496,192,71766,2,0,L|432:128,1,90,8|0,0:0|0:0,0:0:0:0:
16,192,72074,2,0,L|80:128,1,90,8|0,0:0|0:0,0:0:0:0:
240,192,72382,2,0,L|144:192,1,90,8|8,0:0|0:0,0:0:0:0:
408,192,72690,6,0,L|504:192,1,90,2|0,0:0|0:0,0:0:0:0:
240,192,72997,2,0,L|144:192,1,90,8|8,0:0|0:0,0:0:0:0:
400,192,73305,2,0,L|296:192,1,90,8|8,0:0|0:0,0:0:0:0:
64,192,73613,6,0,L|16:192,1,45,8|0,0:0|0:0,0:0:0:0:
206,192,73766,2,0,L|256:192,1,45,8|0,0:0|0:0,0:0:0:0:
64,192,73920,2,0,L|16:192,1,45,8|8,0:0|0:0,0:0:0:0:
206,192,74074,2,0,L|256:192,1,45,8|0,0:0|0:0,0:0:0:0:
64,192,74228,1,10,0:0:0:0:
23,181,74305,1,8,0:0:0:0:
22,139,74382,1,8,0:0:0:0:
63,127,74459,1,8,0:0:0:0:
312,192,74536,6,0,L|496:192,2,180,2|0|8,0:0|0:0|0:0,0:0:0:0:
80,192,75459,2,0,L|240:96,2,180
472,192,76382,5,8,0:0:0:0:
488,151,76459,1,0,0:0:0:0:
468,113,76536,1,0,0:0:0:0:
426,104,76613,1,0,0:0:0:0:
280,192,76690,2,0,L|352:192,1,45,2|0,0:0|0:0,0:0:0:0:
488,192,76843,2,0,L|440:192,1,45,8|0,0:0|0:0,0:0:0:0:
280,192,76997,2,0,L|328:192,1,45,0|0,0:0|0:0,0:0:0:0:
392,192,77151,2,0,L|344:192,1,45,2|0,0:0|0:0,0:0:0:0:
120,192,77305,6,0,L|72:192,1,45,8|0,0:0|0:0,0:0:0:0:
280,192,77459,2,0,L|328:192,1,45,8|0,0:0|0:0,0:0:0:0:
120,192,77613,2,0,P|80:152|120:128,1,90,4|0,0:0|0:0,0:0:0:0:
248,192,77920,2,0,L|192:192,1,45,8|8,0:0|0:0,0:0:0:0:
128,192,78074,2,0,L|184:192,1,45,8|8,0:0|0:0,0:0:0:0:
416,192,78228,6,0,L|480:192,1,45,10|0,0:0|0:0,0:0:0:0:
272,192,78382,1,8,0:0:0:0:
228,193,78459,1,8,0:0:0:0:
201,160,78536,1,8,0:0:0:0:
211,118,78613,1,0,0:0:0:0:
392,192,78690,2,0,L|416:144,1,45,2|0,0:0|0:0,0:0:0:0:
256,192,78843,2,0,L|240:144,1,45,8|0,0:0|0:0,0:0:0:0:
448,192,78997,2,0,L|496:192,1,45,8|0,0:0|0:0,0:0:0:0:
288,192,79151,6,0,L|232:192,1,53.9999983520508,10|0,0:0|0:0,0:0:0:0:
88,192,79305,1,2,0:0:0:0:
45,190,79382,1,0,0:0:0:0:
29,150,79459,1,8,0:0:0:0:
60,120,79536,1,0,0:0:0:0:
216,192,79613,2,0,L|288:192,1,45,2|0,0:0|0:0,0:0:0:0:
88,192,79766,2,0,L|40:192,1,45,8|0,0:0|0:0,0:0:0:0:
261,192,79920,2,0,L|312:192,1,45,8|0,0:0|0:0,0:0:0:0:
88,192,80074,6,0,L|152:192,1,45,10|0,0:0|0:0,0:0:0:0:
328,192,80228,1,2,0:0:0:0:
370,187,80305,1,0,0:0:0:0:
382,146,80382,1,8,0:0:0:0:
349,120,80459,1,0,0:0:0:0:
144,192,80536,2,0,L|80:192,1,45,2|0,0:0|0:0,0:0:0:0:
272,192,80690,2,0,L|336:192,1,45,8|0,0:0|0:0,0:0:0:0:
99,192,80843,2,0,L|32:192,1,45,8|0,0:0|0:0,0:0:0:0:
360,192,80997,6,0,L|424:192,1,45,8|0,0:0|0:0,0:0:0:0:
248,192,81151,1,8,0:0:0:0:
205,195,81228,1,8,0:0:0:0:
179,161,81305,1,8,0:0:0:0:
196,121,81382,1,0,0:0:0:0:
384,192,81459,1,8,0:0:0:0:
426,195,81536,1,0,0:0:0:0:
452,161,81613,1,8,0:0:0:0:
435,121,81690,1,8,0:0:0:0:
256,192,81766,2,0,L|208:192,1,45,8|8,0:0|0:0,0:0:0:0:
384,192,81920,6,0,L|312:192,1,45,10|0,0:0|0:0,0:0:0:0:
136,192,82074,1,2,0:0:0:0:
155,152,82151,1,0,0:0:0:0:
196,137,82228,1,8,0:0:0:0:
237,154,82305,1,0,0:0:0:0:
64,192,82382,2,0,L|16:192,1,45,2|0,0:0|0:0,0:0:0:0:
248,192,82536,2,0,L|296:192,1,45,8|0,0:0|0:0,0:0:0:0:
64,192,82690,2,0,L|104:168,1,45,8|0,0:0|0:0,0:0:0:0:
272,192,82843,6,0,L|331:192,1,53.9999983520508,10|0,0:0|0:0,0:0:0:0:
496,192,82997,1,2,0:0:0:0:
463,161,83074,1,0,0:0:0:0:
422,141,83151,1,8,0:0:0:0:
378,135,83228,1,0,0:0:0:0:
192,192,83305,2,0,L|248:152,1,45,2|0,0:0|0:0,0:0:0:0:
392,192,83459,2,0,L|336:152,1,45,8|0,0:0|0:0,0:0:0:0:
160,192,83613,2,0,L|216:152,1,45,8|0,0:0|0:0,0:0:0:0:
416,192,83766,6,0,L|472:192,1,45,10|0,0:0|0:0,0:0:0:0:
224,192,83920,2,0,L|176:192,1,45,2|0,0:0|0:0,0:0:0:0:
347,192,84074,2,0,L|419:192,1,45,8|0,0:0|0:0,0:0:0:0:
224,192,84228,2,0,L|176:192,1,45,2|0,0:0|0:0,0:0:0:0:
347,192,84382,2,0,L|419:192,1,45,8|0,0:0|0:0,0:0:0:0:
224,192,84536,2,0,L|160:192,1,45,8|0,0:0|0:0,0:0:0:0:
424,192,84690,5,10,0:0:0:0:
464,181,84766,1,8,0:0:0:0:
469,139,84843,1,8,0:0:0:0:
432,119,84920,1,0,0:0:0:0:
256,192,84997,1,8,0:0:0:0:
212,187,85074,1,8,0:0:0:0:
191,149,85151,1,8,0:0:0:0:
211,110,85228,1,0,0:0:0:0:
424,192,85305,2,0,P|448:160|376:128,1,135,8|0,0:0|0:0,0:0:0:0:
192,192,85613,6,0,L|120:192,1,45,8|0,0:0|0:0,0:0:0:0:
328,192,85766,1,8,0:0:0:0:
309,151,85843,1,0,0:0:0:0:
275,122,85920,1,2,0:0:0:0:
232,111,85997,1,0,0:0:0:0:
48,192,86074,2,0,L|120:192,1,45,8|0,0:0|0:0,0:0:0:0:
352,192,86228,1,8,0:0:0:0:
394,184,86305,1,0,0:0:0:0:
407,143,86382,1,2,0:0:0:0:
377,112,86459,1,0,0:0:0:0:
216,192,86536,5,8,0:0:0:0:
178,171,86613,1,0,0:0:0:0:
179,128,86690,1,0,0:0:0:0:
218,111,86766,1,0,0:0:0:0:
64,192,86843,1,4,0:0:0:0:
26,171,86920,1,0,0:0:0:0:
27,128,86997,1,0,0:0:0:0:
66,111,87074,1,0,0:0:0:0:
320,192,87151,2,0,P|384:160|368:120,1,90,4|0,0:0|0:0,0:0:0:0:
128,192,87459,5,8,0:0:0:0:
264,192,87613,1,8,0:0:0:0:
128,192,87766,1,8,0:0:0:0:
384,192,87920,1,8,0:0:0:0:
248,192,88074,1,8,0:0:0:0:
384,192,88228,1,8,0:0:0:0:
16,192,88382,5,8,0:0:0:0:
