osu file format v14

[General]
AudioFilename: audio.mp3
AudioLeadIn: 0
PreviewTime: 8074
Countdown: 0
SampleSet: None
StackLeniency: 0.7
Mode: 2
LetterboxInBreaks: 0
WidescreenStoryboard: 0

[Editor]
Bookmarks: 22843,37613,56074,70843
DistanceSpacing: 1.4
BeatDivisor: 4
GridSize: 8
TimelineZoom: 0.8

[Metadata]
Title:Inferno
TitleUnicode:インフェルノ
Artist:9mm Parabellum Bullet
ArtistUnicode:9mm Parabellum Bullet
Creator:- Magic Bomb -
Version:Salad
Source:ベルセルク
Tags:MBomb BERSERK guts casca griffith 2016 tv size opening
BeatmapID:1070852
BeatmapSetID:502553

[Difficulty]
HPDrainRate:4
CircleSize:2.5
OverallDifficulty:7
ApproachRate:7
SliderMultiplier:1.2
SliderTickRate:1

[Events]
//Background and Video events
0,0,"rsz_inferno.jpg",0,0
Video,-380,"video.avi"
//Break Periods
//Storyboard Layer 0 (Background)
//Storyboard Layer 1 (Fail)
//Storyboard Layer 2 (Pass)
//Storyboard Layer 3 (Foreground)
//Storyboard Sound Samples

[TimingPoints]
690,307.692307692308,3,3,1,90,1,0
8074,-100,3,3,0,50,0,0
11305,-100,3,3,1,75,0,0
11766,-100,3,3,1,90,0,0
22843,-100,3,3,1,70,0,0
25766,-100,3,3,0,50,0,0
26536,-100,3,3,1,70,0,0
29459,-100,3,3,0,50,0,0
30228,-100,3,3,1,70,0,0
32382,-100,3,3,0,70,0,0
32997,-100,3,3,1,70,0,0
37613,-100,3,3,1,35,0,0
40690,-100,3,3,0,35,0,0
41305,-100,3,3,1,50,0,0
44997,-100,3,3,1,90,0,1
52382,-100,3,3,1,90,0,0
56074,-100,3,3,1,45,0,0
59766,-100,3,3,1,90,0,0
75613,-100,3,3,1,50,0,0
75766,-100,3,3,1,90,0,0
77920,-100,3,3,1,50,0,0
78228,-100,3,3,1,90,0,1
85305,-100,3,3,0,70,0,1
85382,-100,3,3,1,90,0,1
86536,-100,3,3,0,70,0,1
87459,-100,3,3,1,100,0,1
88382,-100,3,3,1,100,0,0

[Colours]
Combo1 : 255,68,68
Combo2 : 255,255,0
Combo3 : 255,0,0
Combo4 : 255,128,0

[HitObjects]
32,192,690,6,0,L|92:192,1,60,8|0,0:0|0:0,0:0:0:0:
248,192,1151,2,0,L|184:192,1,60,8|8,0:0|0:0,0:0:0:0:
344,192,1613,2,0,L|464:192,2,120,8|8|4,0:0|0:0|0:0,0:0:0:0:
168,192,2536,6,0,L|96:192,1,60,8|0,0:0|0:0,0:0:0:0:
264,192,2997,2,0,L|328:192,1,60,8|8,0:0|0:0,0:0:0:0:
168,192,3459,2,0,L|296:192,1,120,8|8,0:0|0:0,0:0:0:0:
128,192,4074,1,4,0:0:0:0:
416,192,4382,6,0,P|336:192|344:192,1,60,8|8,0:0|0:0,0:0:0:0:
200,192,4843,2,0,L|264:192,1,60,8|8,0:0|0:0,0:0:0:0:
416,192,5305,2,0,L|288:192,1,120,8|8,0:0|0:0,0:0:0:0:
464,192,5920,1,4,0:0:0:0:
176,192,6228,6,0,L|104:192,1,60,8|8,0:0|0:0,0:0:0:0:
256,192,6690,2,0,L|192:192,1,60,8|8,0:0|0:0,0:0:0:0:
40,192,7151,2,0,L|160:192,2,120,8|8|8,0:0|0:0|0:0,0:0:0:0:
328,192,8074,5,2,0:0:0:0:
40,192,8997,1,2,0:0:0:0:
416,192,9920,1,10,0:0:0:0:
16,192,10843,1,6,0:0:0:0:
208,192,11459,1,8,0:0:0:0:
488,192,11766,6,0,L|384:128,2,120,8|8|8,0:0|0:0|0:0,0:0:0:0:
320,192,12690,2,0,L|448:192,2,120,8|8|8,0:0|0:0|0:0,0:0:0:0:
152,192,13613,6,0,L|16:192,2,120,8|8|8,0:0|0:0|0:0,0:0:0:0:
304,192,14536,2,0,L|176:192,1,120,8|8,0:1|0:1,0:0:0:0:
352,192,15151,1,8,0:1:0:0:
72,192,15459,6,0,L|8:192,2,60,2|2|8,0:0|0:0|0:0,0:0:0:0:
240,192,16074,1,8,0:0:0:0:
408,192,16382,1,10,0:0:0:0:
344,192,16536,1,2,0:0:0:0:
288,192,16690,1,8,0:0:0:0:
440,192,16997,1,8,0:0:0:0:
264,192,17305,5,10,0:0:0:0:
328,192,17459,1,2,0:0:0:0:
368,192,17613,1,8,0:0:0:0:
200,192,17920,1,8,0:0:0:0:
464,192,18228,2,0,L|224:192,1,240,8|8,0:0|0:0,0:0:0:0:
56,192,19151,6,0,L|120:192,2,60,10|2|8,0:0|0:0|0:0,0:0:0:0:
224,192,19766,1,8,0:0:0:0:
384,192,20074,2,0,L|448:192,2,60,10|2|8,0:0|0:0|0:0,0:0:0:0:
224,192,20690,1,8,0:0:0:0:
392,192,20997,5,10,0:0:0:0:
328,192,21151,1,2,0:0:0:0:
264,192,21305,1,8,0:0:0:0:
104,192,21613,1,8,0:0:0:0:
376,192,21920,2,0,B|496:192|496:192|368:192,1,240,8|8,0:0|0:0,0:0:0:0:
96,192,22843,5,4,0:0:0:0:
240,192,23151,1,8,0:0:0:0:
283,155,23305,1,0,0:0:0:0:
281,96,23459,1,8,0:0:0:0:
235,62,23613,1,0,0:0:0:0:
179,78,23766,1,2,0:0:0:0:
480,192,24690,5,8,0:0:0:0:
336,192,24997,1,8,0:0:0:0:
298,147,25151,1,8,0:0:0:0:
306,90,25305,1,0,0:0:0:0:
355,58,25459,1,8,0:0:0:0:
411,74,25613,1,8,0:0:0:0:
24,192,26536,6,0,L|96:192,2,60,8|8|8,0:0|0:0|0:0,0:0:0:0:
440,192,27459,2,0,L|368:192,2,60,8|8|8,0:0|0:0|0:0,0:0:0:0:
184,192,28382,5,8,0:0:0:0:
336,192,28690,1,8,0:0:0:0:
276,192,28843,1,8,0:0:0:0:
216,192,28997,1,0,0:0:0:0:
156,192,29151,1,8,0:0:0:0:
96,192,29305,1,8,0:0:0:0:
496,192,30228,5,8,0:0:0:0:
368,192,30536,1,8,0:0:0:0:
240,192,30843,1,8,0:0:0:0:
368,192,31151,1,8,0:0:0:0:
240,192,31459,1,8,0:0:0:0:
408,192,31613,2,0,L|488:192,1,60,2|6,0:0|0:0,0:0:0:0:
304,192,32074,5,8,0:0:0:0:
432,192,32382,1,8,0:0:0:0:
304,192,32690,1,4,0:0:0:0:
176,192,32997,1,2,0:0:0:0:
48,192,33305,1,8,0:0:0:0:
216,192,33459,2,0,L|280:192,1,60,8|8,0:0|0:0,0:0:0:0:
424,192,33920,5,2,0:0:0:0:
488,192,34074,1,2,0:0:0:0:
424,192,34228,1,8,0:0:0:0:
16,192,34843,1,8,0:0:0:0:
80,192,34997,1,8,0:0:0:0:
144,192,35151,1,8,0:0:0:0:
424,192,35766,5,8,0:0:0:0:
272,192,36074,1,8,0:0:0:0:
214,194,36228,1,8,0:0:0:0:
183,146,36382,1,0,0:0:0:0:
209,95,36536,1,8,0:0:0:0:
266,93,36690,1,8,0:0:0:0:
408,192,36997,2,0,P|480:136|472:120,1,120,0|0,0:0|0:0,0:0:0:0:
192,192,37613,5,4,0:1:0:0:
488,192,38536,1,0,0:0:0:0:
248,192,39459,1,8,0:0:0:0:
456,192,40074,1,0,0:0:0:0:
296,192,40382,1,0,0:0:0:0:
72,192,40843,2,0,L|136:152,1,60,8|8,0:3|0:3,0:0:0:0:
400,192,41305,5,10,0:0:0:0:
88,192,42228,1,10,0:0:0:0:
464,192,43151,6,0,L|336:192,2,120,2|2|2,0:0|0:0|0:0,0:0:0:0:
304,192,44074,2,0,L|184:192,2,120,2|2|2,0:0|0:0|0:0,0:0:0:0:
24,192,44997,6,0,L|24:128,1,60,8|8,0:0|0:0,0:0:0:0:
184,192,45459,2,0,L|256:192,1,60,8|8,0:0|0:0,0:0:0:0:
96,192,45920,2,0,P|24:144|24:112,1,120,8|8,0:0|0:0,0:0:0:0:
192,192,46536,1,8,0:0:0:0:
472,192,46843,6,0,L|400:192,1,60,8|8,0:0|0:0,0:0:0:0:
248,192,47305,2,0,L|320:192,1,60,8|8,0:0|0:0,0:0:0:0:
472,192,47766,2,0,L|344:192,1,120,2|2,0:0|0:0,0:0:0:0:
496,192,48382,1,2,0:0:0:0:
208,192,48690,6,0,L|144:192,1,60,2|8,0:0|0:0,0:0:0:0:
312,192,49151,2,0,L|376:192,1,60,8|8,0:0|0:0,0:0:0:0:
192,192,49613,2,0,L|320:192,1,120,10|10,0:0|0:0,0:0:0:0:
480,192,50228,1,8,0:0:0:0:
208,192,50536,6,0,L|280:192,1,60,8|0,0:0|0:0,0:0:0:0:
432,192,50997,2,0,L|352:192,1,60,8|0,0:0|0:0,0:0:0:0:
192,192,51459,2,0,L|64:192,2,120,8|8|2,0:0|0:0|0:0,0:0:0:0:
472,192,52382,6,0,L|352:128,2,120,2|8|8,0:0|0:0|0:0,0:0:0:0:
328,192,53305,1,2,0:0:0:0:
168,192,53613,2,0,L|288:192,1,120,8|8,0:0|0:0,0:0:0:0:
16,192,54228,6,0,L|16:120,1,60,2|10,0:0|0:0,0:0:0:0:
184,192,54690,2,0,L|264:192,1,60,2|10,0:0|0:0,0:0:0:0:
400,192,55151,2,0,L|272:192,1,120,10|10,0:0|0:0,0:0:0:0:
432,192,55766,1,8,0:0:0:0:
152,192,56074,5,4,0:1:0:0:
480,192,56997,1,4,0:1:0:0:
128,192,57920,1,4,0:1:0:0:
496,192,58843,1,4,0:1:0:0:
288,192,59459,1,10,0:0:0:0:
24,192,59766,6,0,L|144:192,2,120,8|8|8,0:0|0:0|0:0,0:0:0:0:
192,192,60690,2,0,L|312:192,1,120,8|8,0:0|0:0,0:0:0:0:
160,192,61305,1,8,0:0:0:0:
328,192,61613,6,0,L|200:192,2,120,8|8|8,0:0|0:0|0:0,0:0:0:0:
48,192,62536,2,0,P|104:120|248:104,1,240,8|8,0:1|0:1,0:0:0:0:
496,192,63459,6,0,L|376:144,2,120,8|8|8,0:0|0:0|0:0,0:0:0:0:
336,192,64382,2,0,B|200:192|200:192,2,120,8|8|8,0:0|0:0|0:0,0:0:0:0:
184,192,65305,5,8,0:0:0:0:
312,192,65613,1,2,0:0:0:0:
440,192,65920,1,0,0:0:0:0:
168,192,66228,2,0,P|128:160|176:128,1,120,8|8,0:0|0:0,0:0:0:0:
312,192,66843,1,8,0:0:0:0:
472,192,67151,6,0,L|360:144,2,120,8|8|8,0:0|0:0|0:0,0:0:0:0:
296,192,68074,2,0,B|112:192|112:192|184:192,1,240,8|8,0:0|0:0,0:0:0:0:
328,192,68997,6,0,L|192:192,1,120,8|8,0:0|0:0,0:0:0:0:
360,192,69613,1,8,0:0:0:0:
88,192,69920,2,0,P|32:152|136:88,1,240,8|8,0:0|0:0,0:0:0:0:
416,192,70843,5,2,0:0:0:0:
264,192,71151,2,0,L|384:192,1,120,8|8,0:0|0:0,0:0:0:0:
224,192,71766,2,0,L|104:192,2,120,8|8|8,0:0|0:0|0:0,0:0:0:0:
64,192,72690,5,2,0:0:0:0:
200,192,72997,2,0,L|320:192,1,120,8|8,0:0|0:0,0:0:0:0:
152,192,73613,1,8,0:0:0:0:
408,192,73920,2,0,L|472:192,2,60,8|8|10,0:0|0:0|0:0,0:0:0:0:
144,192,74536,5,2,0:0:0:0:
472,192,75459,1,0,0:0:0:0:
104,192,76382,2,0,L|232:192,2,120,8|2|0,0:0|0:0|0:0,0:0:0:0:
360,192,77305,1,8,0:0:0:0:
296,192,77459,1,8,0:0:0:0:
232,192,77613,1,4,0:0:0:0:
400,192,77920,1,8,0:0:0:0:
136,192,78228,6,0,L|64:192,2,60,10|8|8,0:0|0:0|0:0,0:0:0:0:
296,192,78843,1,8,0:0:0:0:
144,192,79151,1,10,0:0:0:0:
208,192,79305,1,2,0:0:0:0:
256,192,79459,1,8,0:0:0:0:
104,192,79766,1,8,0:0:0:0:
256,192,80074,5,10,0:0:0:0:
320,192,80228,1,2,0:0:0:0:
360,192,80382,1,8,0:0:0:0:
200,192,80690,1,8,0:0:0:0:
464,192,80997,2,0,P|344:192|224:192,1,240,8|8,0:0|0:0,0:0:0:0:
496,192,81920,5,10,0:0:0:0:
432,192,82074,1,2,0:0:0:0:
368,192,82228,1,8,0:0:0:0:
216,192,82536,1,8,0:0:0:0:
368,192,82843,2,0,L|432:192,2,60,10|2|8,0:0|0:0|0:0,0:0:0:0:
216,192,83459,1,8,0:0:0:0:
64,192,83766,5,10,0:0:0:0:
124,192,83920,1,2,0:0:0:0:
184,192,84074,1,8,0:0:0:0:
124,192,84228,1,2,0:0:0:0:
64,192,84382,1,8,0:0:0:0:
304,192,84690,1,10,0:0:0:0:
362,191,84843,1,8,0:0:0:0:
398,146,84997,1,8,0:0:0:0:
386,89,85151,1,8,0:0:0:0:
334,62,85305,1,8,0:0:0:0:
56,192,85613,6,0,L|56:128,1,60,8|8,0:0|0:0,0:0:0:0:
304,192,86074,2,0,L|224:192,1,60,8|8,0:0|0:0,0:0:0:0:
488,192,86536,2,0,L|368:192,2,120,8|4|4,0:0|0:0|0:0,0:0:0:0:
216,192,87459,5,8,0:0:0:0:
144,192,87613,1,8,0:0:0:0:
216,192,87766,1,8,0:0:0:0:
288,192,87920,1,8,0:0:0:0:
216,192,88074,1,8,0:0:0:0:
144,192,88228,1,8,0:0:0:0:
312,192,88382,5,8,0:0:0:0:
