osu file format v14

[General]
AudioFilename: audio.mp3
AudioLeadIn: 0
PreviewTime: 8074
Countdown: 0
SampleSet: None
StackLeniency: 0.7
Mode: 2
LetterboxInBreaks: 0
WidescreenStoryboard: 0

[Editor]
Bookmarks: 22843,37613,56074,70843
DistanceSpacing: 1.4
BeatDivisor: 4
GridSize: 8
TimelineZoom: 1.2

[Metadata]
Title:Inferno
TitleUnicode:インフェルノ
Artist:9mm Parabellum Bullet
ArtistUnicode:9mm Parabellum Bullet
Creator:- Magic Bomb -
Version:Rain
Source:ベルセルク
Tags:MBomb BERSERK guts casca griffith 2016 tv size opening
BeatmapID:1076381
BeatmapSetID:502553

[Difficulty]
HPDrainRate:6
CircleSize:3.5
OverallDifficulty:9
ApproachRate:9
SliderMultiplier:1.6
SliderTickRate:2

[Events]
//Background and Video events
0,0,"rsz_inferno.jpg",0,0
Video,-380,"video.avi"
//Break Periods
//Storyboard Layer 0 (Background)
//Storyboard Layer 1 (Fail)
//Storyboard Layer 2 (Pass)
//Storyboard Layer 3 (Foreground)
//Storyboard Sound Samples

[TimingPoints]
690,307.692307692308,3,3,1,90,1,0
8074,-100,3,3,0,50,0,0
11305,-100,3,3,1,75,0,0
11766,-100,3,3,1,90,0,0
22843,-100,3,3,1,70,0,0
25766,-100,3,3,0,50,0,0
26536,-100,3,3,1,70,0,0
29459,-100,3,3,0,50,0,0
30228,-100,3,3,1,70,0,0
32382,-100,3,3,0,70,0,0
32997,-100,3,3,1,70,0,0
37613,-100,3,3,1,35,0,0
40690,-100,3,3,0,35,0,0
41305,-100,3,3,1,50,0,0
44997,-100,3,3,1,90,0,1
52382,-100,3,3,1,90,0,0
56074,-100,3,3,1,45,0,0
59766,-100,3,3,1,90,0,0
75613,-100,3,3,1,50,0,0
75766,-100,3,3,1,90,0,0
77920,-100,3,3,1,50,0,0
78228,-100,3,3,1,90,0,1
85305,-100,3,3,0,70,0,1
85382,-100,3,3,1,90,0,1
86536,-100,3,3,0,70,0,1
87459,-100,3,3,1,100,0,1
88382,-100,3,3,1,100,0,0

[Colours]
Combo1 : 255,68,68
Combo2 : 255,255,0
Combo3 : 255,0,0
Combo4 : 255,128,0

[HitObjects]
160,192,690,5,8,0:0:0:0:
328,192,843,2,0,L|224:192,1,80,0|2,0:0|0:0,0:0:0:0:
408,192,1151,1,8,0:0:0:0:
248,192,1305,2,0,L|168:192,1,80,8|2,0:0|0:0,0:0:0:0:
336,192,1613,6,0,L|440:192,1,80,8|0,0:0|0:0,0:0:0:0:
256,192,1920,2,0,L|352:192,1,80,8|0,0:0|0:0,0:0:0:0:
88,192,2228,2,0,P|32:192|8:176,1,80,4|0,0:0|0:0,0:0:0:0:
256,192,2536,5,8,0:0:0:0:
416,192,2690,2,0,L|328:192,1,80,0|2,0:0|0:0,0:0:0:0:
176,192,2997,1,8,0:0:0:0:
336,192,3151,2,0,L|240:192,1,80,8|2,0:0|0:0,0:0:0:0:
88,192,3459,6,0,L|192:192,1,80,8|0,0:0|0:0,0:0:0:0:
336,192,3766,2,0,L|232:192,1,80,8|0,0:0|0:0,0:0:0:0:
496,192,4074,2,0,L|408:144,1,80,4|0,0:0|0:0,0:0:0:0:
184,192,4382,5,8,0:0:0:0:
328,192,4536,2,0,L|424:192,1,80,8|2,0:0|0:0,0:0:0:0:
168,192,4843,1,8,0:0:0:0:
8,192,4997,2,0,L|104:192,1,80,8|2,0:0|0:0,0:0:0:0:
248,192,5305,6,0,L|144:192,1,80,8|2,0:0|0:0,0:0:0:0:
408,192,5613,2,0,L|512:192,1,80,8|0,0:0|0:0,0:0:0:0:
192,192,5920,2,0,L|88:192,1,80,4|0,0:0|0:0,0:0:0:0:
352,192,6228,5,8,0:0:0:0:
240,192,6382,2,0,L|320:192,1,80,8|2,0:0|0:0,0:0:0:0:
48,192,6690,1,8,0:0:0:0:
160,192,6843,2,0,L|80:192,1,80,8|2,0:0|0:0,0:0:0:0:
352,192,7151,5,8,0:0:0:0:
391,190,7228,1,0,0:0:0:0:
419,163,7305,1,0,0:0:0:0:
421,124,7382,1,0,0:0:0:0:
224,192,7459,1,8,0:0:0:0:
184,190,7536,1,0,0:0:0:0:
156,163,7613,1,0,0:0:0:0:
154,124,7690,1,0,0:0:0:0:
336,192,7766,2,0,L|424:192,1,80,8|0,0:0|0:0,0:0:0:0:
176,192,8074,6,0,L|16:192,2,160,2|0|0,0:0|0:0|0:0,0:0:0:0:
400,192,8997,2,0,L|240:192,2,160,2|0|0,0:0|0:0|0:0,0:0:0:0:
112,192,9920,2,0,L|272:192,2,160,10|0|0,0:0|0:0|0:0,0:0:0:0:
496,192,10843,2,0,L|328:192,1,160,6|0,0:0|0:0,0:0:0:0:
88,192,11459,1,8,0:0:0:0:
464,192,11766,6,0,L|496:112,1,80,8|0,0:0|0:0,0:0:0:0:
328,192,12074,2,0,L|288:112,1,80,8|8,0:0|0:0,0:0:0:0:
128,192,12382,2,0,L|208:192,1,80,8|2,0:0|0:0,0:0:0:0:
456,192,12690,6,0,L|400:112,1,80,8|0,0:0|0:0,0:0:0:0:
248,192,12997,2,0,L|304:112,1,80,8|8,0:0|0:0,0:0:0:0:
456,192,13305,2,0,L|352:192,1,80,8|2,0:0|0:0,0:0:0:0:
136,192,13613,6,0,L|48:192,1,80,8|0,0:0|0:0,0:0:0:0:
216,192,13920,2,0,L|128:192,1,80,8|8,0:0|0:0,0:0:0:0:
296,192,14228,2,0,L|384:192,1,80,8|2,0:0|0:0,0:0:0:0:
136,192,14536,5,8,0:1:0:0:
97,190,14613,1,0,0:0:0:0:
79,157,14690,1,0,0:0:0:0:
99,124,14766,1,0,0:0:0:0:
200,192,14843,1,8,0:1:0:0:
238,190,14920,1,0,0:0:0:0:
256,157,14997,1,0,0:0:0:0:
236,124,15074,1,0,0:0:0:0:
64,192,15151,2,0,P|16:144|24:120,1,80,8|0,0:1|0:0,0:0:0:0:
288,192,15459,6,0,L|368:192,2,80,2|2|8,0:0|0:0|0:0,0:0:0:0:
448,192,15920,1,2,0:0:0:0:
288,192,16074,1,8,0:0:0:0:
64,184,16228,1,8,0:0:0:0:
288,192,16382,6,0,L|360:136,2,80,10|2|8,0:0|0:0|0:0,0:0:0:0:
128,192,16843,1,2,0:0:0:0:
288,192,16997,1,8,0:0:0:0:
48,192,17151,1,8,0:0:0:0:
288,192,17305,6,0,L|392:192,2,80,10|2|8,0:0|0:0|0:0,0:0:0:0:
128,192,17766,1,2,0:0:0:0:
288,192,17920,1,8,0:0:0:0:
496,192,18074,1,8,0:0:0:0:
192,192,18228,2,0,P|32:144|168:40,1,400,8|8,0:0|0:0,0:0:0:0:
392,192,19151,6,0,L|496:192,2,80,10|2|8,0:0|0:0|0:0,0:0:0:0:
224,192,19613,1,2,0:0:0:0:
64,192,19766,1,8,0:0:0:0:
280,192,19920,1,8,0:0:0:0:
496,192,20074,6,0,L|400:192,2,80,10|2|8,0:0|0:0|0:0,0:0:0:0:
336,192,20536,1,2,0:0:0:0:
496,192,20690,1,8,0:0:0:0:
256,192,20843,1,8,0:0:0:0:
32,192,20997,6,0,L|120:192,1,80,10|2,0:0|0:0,0:0:0:0:
352,192,21305,2,0,L|432:192,1,80,8|2,0:0|0:0,0:0:0:0:
272,192,21613,2,0,L|176:192,1,80,8|8,0:0|0:0,0:0:0:0:
432,192,21920,2,0,B|472:152|448:96|272:96,1,240,8|8,0:0|0:0,0:0:0:0:
432,192,22536,2,0,P|456:152|424:128,1,80,8|8,0:0|0:0,0:0:0:0:
96,192,22843,5,4,0:0:0:0:
360,192,23151,1,8,0:0:0:0:
398,200,23228,1,0,0:0:0:0:
435,186,23305,1,0,0:0:0:0:
460,155,23382,1,0,0:0:0:0:
464,116,23459,1,8,0:0:0:0:
448,80,23536,1,0,0:0:0:0:
414,59,23613,1,0,0:0:0:0:
375,58,23690,1,0,0:0:0:0:
160,192,23766,5,2,0:0:0:0:
256,192,24074,1,2,0:0:0:0:
112,192,24382,1,2,0:0:0:0:
496,192,24690,5,8,0:0:0:0:
232,192,24997,1,8,0:0:0:0:
242,153,25074,1,8,0:0:0:0:
267,123,25151,1,8,0:0:0:0:
303,106,25228,1,0,0:0:0:0:
343,105,25305,1,0,0:0:0:0:
379,122,25382,1,0,0:0:0:0:
405,152,25459,1,8,0:0:0:0:
415,190,25536,1,0,0:0:0:0:
200,192,25613,6,0,L|112:192,1,80,8|8,0:0|0:0,0:0:0:0:
200,192,25920,2,0,L|288:192,1,80,0|8,0:0|0:0,0:0:0:0:
360,192,26228,2,0,P|336:144|296:128,1,80,4|0,0:0|0:0,0:0:0:0:
80,192,26536,5,8,0:0:0:0:
41,186,26613,1,0,0:0:0:0:
24,152,26690,1,8,0:0:0:0:
41,117,26766,1,8,0:0:0:0:
79,111,26843,1,8,0:0:0:0:
224,192,27151,2,0,L|128:192,1,80,0|0,0:0|0:0,0:0:0:0:
432,192,27459,5,8,0:0:0:0:
470,186,27536,1,0,0:0:0:0:
487,152,27613,1,8,0:0:0:0:
470,117,27690,1,8,0:0:0:0:
432,111,27766,1,8,0:0:0:0:
144,192,28074,2,0,L|40:192,1,80,0|0,0:0|0:0,0:0:0:0:
336,192,28382,5,8,0:0:0:0:
374,190,28459,1,0,0:0:0:0:
408,152,28536,1,0,0:0:0:0:
224,192,28690,1,8,0:0:0:0:
186,204,28766,1,0,0:0:0:0:
148,195,28843,1,8,0:0:0:0:
120,167,28920,1,0,0:0:0:0:
112,128,28997,1,0,0:0:0:0:
125,91,29074,1,0,0:0:0:0:
156,67,29151,1,8,0:0:0:0:
195,63,29228,1,0,0:0:0:0:
384,192,29305,6,0,L|464:192,3,80,8|8|0|8,0:0|0:0|0:0|0:0,0:0:0:0:
368,192,29920,2,0,L|272:192,1,80,4|0,0:0|0:0,0:0:0:0:
64,192,30228,6,0,L|144:192,1,80,8|0,0:0|0:0,0:0:0:0:
304,192,30536,2,0,L|208:192,3,80,8|0|8|0,0:0|0:0|0:0|0:0,0:0:0:0:
384,192,31151,2,0,L|480:192,2,80,8|0|8,0:0|0:0|0:0,0:0:0:0:
128,192,31613,1,2,0:0:0:0:
90,183,31690,1,2,0:0:0:0:
72,148,31766,1,6,0:0:0:0:
480,192,32074,6,0,L|384:192,1,80,8|0,0:0|0:0,0:0:0:0:
232,192,32382,2,0,L|328:192,3,80,8|8|4|0,0:0|0:0|0:0|0:0,0:0:0:0:
152,192,32997,2,0,L|232:192,2,80,2|2|8,0:0|0:0|0:0,0:0:0:0:
408,192,33459,1,8,0:0:0:0:
446,190,33536,1,8,0:0:0:0:
471,160,33613,1,8,0:0:0:0:
72,192,33920,5,2,0:0:0:0:
33,186,33997,1,0,0:0:0:0:
16,152,34074,1,2,0:0:0:0:
33,117,34151,1,0,0:0:0:0:
71,111,34228,1,8,0:0:0:0:
256,192,34536,2,0,L|344:192,1,80,0|0,0:0|0:0,0:0:0:0:
96,192,34843,5,8,0:0:0:0:
110,154,34920,1,8,0:0:0:0:
138,126,34997,1,8,0:0:0:0:
174,111,35074,1,0,0:0:0:0:
214,111,35151,1,8,0:0:0:0:
496,192,35459,2,0,L|392:192,1,80,0|0,0:0|0:0,0:0:0:0:
176,192,35766,6,0,L|136:192,2,40,8|0|0,0:0|0:0|0:0,0:0:0:0:
432,192,36074,1,8,0:0:0:0:
402,165,36151,1,0,0:0:0:0:
367,146,36228,1,8,0:0:0:0:
328,136,36305,1,0,0:0:0:0:
288,135,36382,1,0,0:0:0:0:
250,145,36459,1,0,0:0:0:0:
214,164,36536,1,8,0:0:0:0:
185,190,36613,1,0,0:0:0:0:
336,192,36690,5,8,0:0:0:0:
120,192,36997,2,0,P|36:154|32:88,1,160
408,192,37613,6,0,P|480:136|336:64,1,320,4|0,0:1|0:0,0:0:0:0:
64,192,38536,2,0,B|208:120|208:120|64:192,1,320
336,192,39459,1,8,0:0:0:0:
48,192,40074,1,0,0:0:0:0:
448,192,40382,2,0,P|472:112|408:96,1,160,0|2,0:0|0:0,0:0:0:0:
296,192,40843,2,0,L|352:192,1,40,8|8,0:3|0:3,0:0:0:0:
424,192,40997,1,8,0:3:0:0:
32,192,41305,6,0,P|72:120|288:72,1,320,10|2,0:0|0:0,0:0:0:0:
16,192,42228,2,0,L|184:192,2,160,10|2|2,0:0|0:0|0:0,0:0:0:0:
424,192,43151,2,0,L|264:192,2,160,2|2|2,0:0|0:0|0:0,0:0:0:0:
16,192,44074,1,2,0:0:0:0:
256,192,44382,2,0,L|88:192,1,160,2|2,0:0|0:0,0:0:0:0:
496,192,44997,5,8,0:0:0:0:
352,192,45151,2,0,L|248:192,1,80,8|0,0:0|0:0,0:0:0:0:
496,192,45459,1,8,0:0:0:0:
368,192,45613,2,0,L|448:192,1,80,8|8,0:0|0:0,0:0:0:0:
288,192,45920,6,0,L|184:136,1,80,8|2,0:0|0:0,0:0:0:0:
376,192,46228,2,0,L|480:136,1,80,8|2,0:0|0:0,0:0:0:0:
200,192,46536,2,0,L|88:192,1,80,8|2,0:0|0:0,0:0:0:0:
344,192,46843,5,8,0:0:0:0:
496,192,46997,2,0,L|400:192,1,80,8|10,0:0|0:0,0:0:0:0:
176,192,47305,1,8,0:0:0:0:
304,192,47459,2,0,L|224:192,1,80,8|8,0:0|0:0,0:0:0:0:
64,192,47766,6,0,L|120:136,1,80,2|8,0:0|0:0,0:0:0:0:
296,192,48074,2,0,L|240:136,1,80,2|8,0:0|0:0,0:0:0:0:
16,192,48382,2,0,L|112:192,1,80,2|8,0:0|0:0,0:0:0:0:
336,192,48690,5,2,0:0:0:0:
496,192,48843,2,0,L|392:192,1,80,8|8,0:0|0:0,0:0:0:0:
240,192,49151,1,8,0:0:0:0:
368,192,49305,2,0,L|272:192,1,80,8|8,0:0|0:0,0:0:0:0:
152,192,49613,6,0,L|248:192,1,80,10|0,0:0|0:0,0:0:0:0:
16,192,49920,2,0,L|104:192,1,80,10|0,0:0|0:0,0:0:0:0:
392,192,50228,2,0,L|304:192,1,80,8|8,0:0|0:0,0:0:0:0:
72,192,50536,5,8,0:0:0:0:
216,192,50690,2,0,L|304:192,1,80,0|2,0:0|0:0,0:0:0:0:
72,192,50997,1,8,0:0:0:0:
200,192,51151,2,0,L|120:192,1,80,0|2,0:0|0:0,0:0:0:0:
360,192,51459,5,8,0:0:0:0:
398,187,51536,1,0,0:0:0:0:
415,153,51613,1,8,0:0:0:0:
397,119,51690,1,0,0:0:0:0:
240,192,51766,1,8,0:0:0:0:
203,180,51843,1,0,0:0:0:0:
197,143,51920,1,8,0:0:0:0:
227,120,51997,1,0,0:0:0:0:
400,192,52074,1,2,0:0:0:0:
440,192,52151,1,0,0:0:0:0:
440,192,52228,1,2,0:0:0:0:
400,192,52305,1,0,0:0:0:0:
240,192,52382,6,0,L|144:192,1,80,2|8,0:0|0:0,0:0:0:0:
320,192,52690,2,0,L|432:192,1,80,8|2,0:0|0:0,0:0:0:0:
304,192,52997,2,0,L|400:192,1,80,8|8,0:0|0:0,0:0:0:0:
224,192,53305,6,0,L|136:192,1,80,2|8,0:0|0:0,0:0:0:0:
304,192,53613,2,0,L|224:192,1,80,8|2,0:0|0:0,0:0:0:0:
144,192,53920,2,0,L|224:192,1,80,8|8,0:0|0:0,0:0:0:0:
384,192,54228,5,2,0:0:0:0:
152,192,54382,1,10,0:0:0:0:
384,192,54690,1,2,0:0:0:0:
152,192,54843,1,10,0:0:0:0:
408,192,55151,1,10,0:0:0:0:
32,192,55459,2,0,P|16:144|88:72,1,160,10|8,0:0|0:0,0:0:0:0:
480,192,56074,6,0,L|336:112,2,160,4|0|0,0:1|0:0|0:0,0:0:0:0:
248,192,56997,2,0,L|408:192,2,160,4|0|0,0:1|0:0|0:0,0:0:0:0:
16,192,57920,2,0,L|176:192,2,160,4|0|0,0:1|0:0|0:0,0:0:0:0:
440,200,58843,2,0,L|288:136,1,160,4|0,0:1|0:0,0:0:0:0:
48,192,59459,1,10,0:0:0:0:
456,192,59766,6,0,L|496:120,1,80,8|0,0:0|0:0,0:0:0:0:
336,192,60074,2,0,L|240:192,1,80,8|8,0:0|0:0,0:0:0:0:
416,192,60382,2,0,L|352:104,1,80,8|2,0:0|0:0,0:0:0:0:
128,192,60690,6,0,L|48:192,1,80,8|0,0:0|0:0,0:0:0:0:
208,192,60997,2,0,L|256:120,1,80,8|8,0:0|0:0,0:0:0:0:
96,192,61305,2,0,L|176:192,1,80,8|2,0:0|0:0,0:0:0:0:
416,192,61613,6,0,L|496:192,1,80,8|0,0:0|0:0,0:0:0:0:
336,192,61920,2,0,L|248:192,1,80,8|8,0:0|0:0,0:0:0:0:
416,192,62228,2,0,L|336:192,1,80,8|2,0:0|0:0,0:0:0:0:
96,192,62536,5,8,0:1:0:0:
56,191,62613,1,0,0:0:0:0:
28,164,62690,1,0,0:0:0:0:
26,125,62766,1,0,0:0:0:0:
128,192,62843,1,8,0:1:0:0:
166,188,62920,1,0,0:0:0:0:
185,154,62997,1,0,0:0:0:0:
168,120,63074,1,0,0:0:0:0:
24,192,63151,2,0,P|64:128|80:128,1,80,8|0,0:1|0:0,0:0:0:0:
336,192,63459,6,0,L|440:192,1,80,8|0,0:0|0:0,0:0:0:0:
256,192,63766,2,0,L|160:192,1,80,8|0,0:0|0:0,0:0:0:0:
336,192,64074,2,0,P|368:168|336:144,1,80,8|0,0:0|0:0,0:0:0:0:
112,192,64382,6,0,L|208:192,1,80,8|0,0:0|0:0,0:0:0:0:
336,192,64690,2,0,L|240:192,1,80,8|0,0:0|0:0,0:0:0:0:
112,192,64997,2,0,L|192:192,1,80,8|0,0:0|0:0,0:0:0:0:
432,192,65305,6,0,L|480:128,1,80,8|0,0:0|0:0,0:0:0:0:
320,192,65613,2,0,L|272:128,1,80,2|8,0:0|0:0,0:0:0:0:
112,192,65920,2,0,L|208:192,1,80,0|2,0:0|0:0,0:0:0:0:
432,192,66228,6,0,L|344:192,1,80,8|0,0:0|0:0,0:0:0:0:
496,192,66536,2,0,L|408:192,1,80,8|0,0:0|0:0,0:0:0:0:
256,192,66843,2,0,L|184:120,1,80,8|0,0:0|0:0,0:0:0:0:
432,192,67151,6,0,L|344:192,1,80,8|0,0:0|0:0,0:0:0:0:
192,192,67459,2,0,L|288:192,1,80,8|0,0:0|0:0,0:0:0:0:
112,192,67766,2,0,L|208:192,1,80,8|0,0:0|0:0,0:0:0:0:
424,192,68074,6,0,L|504:192,1,80,8|0,0:0|0:0,0:0:0:0:
344,192,68382,2,0,L|448:192,1,80,8|0,0:0|0:0,0:0:0:0:
184,192,68690,2,0,L|72:192,1,80,8|0,0:0|0:0,0:0:0:0:
344,192,68997,6,0,L|272:136,1,80,8|0,0:0|0:0,0:0:0:0:
440,192,69305,2,0,L|352:192,1,80,8|0,0:0|0:0,0:0:0:0:
120,192,69613,2,0,L|24:192,1,80,8|0,0:0|0:0,0:0:0:0:
360,192,69920,6,0,L|464:192,1,80,8|0,0:0|0:0,0:0:0:0:
280,192,70228,2,0,L|168:192,1,80,8|0,0:0|0:0,0:0:0:0:
360,192,70536,1,8,0:0:0:0:
346,154,70613,1,0,0:0:0:0:
316,128,70690,1,0,0:0:0:0:
277,119,70766,1,0,0:0:0:0:
96,192,70843,5,2,0:0:0:0:
272,192,71151,2,0,L|192:192,1,80,8|8,0:0|0:0,0:0:0:0:
32,192,71459,2,0,L|112:192,1,80,8|0,0:0|0:0,0:0:0:0:
360,192,71766,6,0,L|448:192,1,80,8|0,0:0|0:0,0:0:0:0:
280,192,72074,2,0,L|184:192,1,80,8|0,0:0|0:0,0:0:0:0:
360,192,72382,2,0,L|272:192,1,80,8|8,0:0|0:0,0:0:0:0:
48,192,72690,6,0,P|24:144|48:128,1,80,2|0,0:0|0:0,0:0:0:0:
192,192,72997,2,0,L|280:192,1,80,8|8,0:0|0:0,0:0:0:0:
112,192,73305,2,0,L|24:192,1,80,8|8,0:0|0:0,0:0:0:0:
280,192,73613,5,8,0:0:0:0:
319,187,73690,1,0,0:0:0:0:
350,162,73766,1,8,0:0:0:0:
363,125,73843,1,0,0:0:0:0:
200,192,73920,1,8,0:0:0:0:
176,161,73997,1,8,0:0:0:0:
190,126,74074,1,8,0:0:0:0:
228,120,74151,1,0,0:0:0:0:
392,192,74228,1,10,0:0:0:0:
430,187,74305,1,8,0:0:0:0:
448,153,74382,1,8,0:0:0:0:
431,119,74459,1,8,0:0:0:0:
240,192,74536,6,0,L|80:192,2,160,2|0|8,0:0|0:0|0:0,0:0:0:0:
480,192,75459,2,0,L|304:192,2,160,0|0|0,0:0|0:0|0:0,0:0:0:0:
48,192,76382,6,0,L|128:192,1,80,8|0,0:0|0:0,0:0:0:0:
288,192,76690,2,0,L|208:192,1,80,2|8,0:0|0:0,0:0:0:0:
48,192,76997,2,0,L|128:192,1,80,0|2,0:0|0:0,0:0:0:0:
368,192,77305,5,8,0:0:0:0:
240,192,77459,1,8,0:0:0:0:
368,192,77613,1,4,0:0:0:0:
104,192,77920,1,8,0:0:0:0:
65,196,77997,1,8,0:0:0:0:
40,166,78074,1,8,0:0:0:0:
50,129,78151,1,8,0:0:0:0:
248,192,78228,6,0,L|336:192,2,80,10|8|8,0:0|0:0|0:0,0:0:0:0:
400,192,78690,1,2,0:0:0:0:
248,192,78843,1,8,0:0:0:0:
488,192,78997,1,8,0:0:0:0:
248,192,79151,6,0,L|144:192,2,80,10|2|8,0:0|0:0|0:0,0:0:0:0:
96,192,79613,1,2,0:0:0:0:
248,192,79766,1,8,0:0:0:0:
472,192,79920,1,8,0:0:0:0:
248,192,80074,6,0,L|176:152,2,80,10|2|8,0:0|0:0|0:0,0:0:0:0:
88,192,80536,1,2,0:0:0:0:
248,192,80690,1,8,0:0:0:0:
16,192,80843,1,8,0:0:0:0:
248,192,80997,2,0,L|168:192,1,80
312,192,81305,2,0,L|224:192,1,80
376,192,81613,2,0,L|280:192,1,80
72,192,81920,6,0,L|152:192,2,80,10|2|8,0:0|0:0|0:0,0:0:0:0:
232,192,82382,1,2,0:0:0:0:
384,192,82536,1,8,0:0:0:0:
152,192,82690,1,8,0:0:0:0:
384,192,82843,6,0,L|488:192,2,80,10|2|8,0:0|0:0|0:0,0:0:0:0:
224,192,83305,1,2,0:0:0:0:
384,192,83459,1,8,0:0:0:0:
152,192,83613,1,8,0:0:0:0:
384,192,83766,6,0,L|288:192,1,80,10|2,0:0|0:0,0:0:0:0:
72,192,84074,1,8,0:0:0:0:
34,194,84151,1,0,0:0:0:0:
16,160,84228,1,2,0:0:0:0:
38,130,84305,1,0,0:0:0:0:
200,192,84382,1,8,0:0:0:0:
238,192,84459,1,0,0:0:0:0:
263,162,84536,1,8,0:0:0:0:
34,194,84690,5,10,0:0:0:0:
37,154,84766,1,8,0:0:0:0:
64,126,84843,1,8,0:0:0:0:
103,121,84920,1,0,0:0:0:0:
256,192,84997,1,8,0:0:0:0:
296,192,85074,1,8,0:0:0:0:
296,192,85151,1,8,0:0:0:0:
256,192,85228,1,0,0:0:0:0:
152,192,85305,2,0,P|112:176|128:144,1,80,8|8,0:0|0:0,0:0:0:0:
416,192,85613,5,8,0:0:0:0:
272,192,85766,2,0,L|352:192,1,80,8|2,0:0|0:0,0:0:0:0:
96,192,86075,1,8,0:0:0:0:
240,192,86228,2,0,L|160:192,1,80,8|2,0:0|0:0,0:0:0:0:
400,192,86536,6,0,L|488:192,1,80,8|0,0:0|0:0,0:0:0:0:
240,192,86843,2,0,L|152:192,1,80,4|0,0:0|0:0,0:0:0:0:
312,192,87151,2,0,L|416:192,1,80,4|0,0:0|0:0,0:0:0:0:
160,192,87459,5,8,0:0:0:0:
16,192,87613,1,8,0:0:0:0:
160,192,87766,1,8,0:0:0:0:
16,192,87920,1,8,0:0:0:0:
160,192,88074,1,8,0:0:0:0:
16,192,88228,1,8,0:0:0:0:
384,192,88382,5,8,0:0:0:0:
