osu file format v14

[General]
AudioFilename: audio.mp3
AudioLeadIn: 0
PreviewTime: 8074
Countdown: 0
SampleSet: None
StackLeniency: 0.7
Mode: 2
LetterboxInBreaks: 0
WidescreenStoryboard: 0

[Editor]
Bookmarks: 22843,37613,56074,70843
DistanceSpacing: 1.4
BeatDivisor: 4
GridSize: 8
TimelineZoom: 0.8

[Metadata]
Title:Inferno
TitleUnicode:インフェルノ
Artist:9mm Parabellum Bullet
ArtistUnicode:9mm Parabellum Bullet
Creator:- Magic Bomb -
Version:Cup
Source:ベルセルク
Tags:MBomb BERSERK guts casca griffith 2016 tv size opening
BeatmapID:1070235
BeatmapSetID:502553

[Difficulty]
HPDrainRate:3
CircleSize:2
OverallDifficulty:6
ApproachRate:6
SliderMultiplier:1
SliderTickRate:1

[Events]
//Background and Video events
0,0,"rsz_inferno.jpg",0,0
Video,-380,"video.avi"
//Break Periods
//Storyboard Layer 0 (Background)
//Storyboard Layer 1 (Fail)
//Storyboard Layer 2 (Pass)
//Storyboard Layer 3 (Foreground)
//Storyboard Sound Samples

[TimingPoints]
690,307.692307692308,3,3,1,90,1,0
8074,-100,3,3,0,50,0,0
11305,-100,3,3,1,75,0,0
11766,-100,3,3,1,90,0,0
22843,-100,3,3,1,70,0,0
25766,-100,3,3,0,50,0,0
26536,-100,3,3,1,70,0,0
29459,-100,3,3,0,50,0,0
30228,-100,3,3,1,70,0,0
32382,-100,3,3,0,70,0,0
32997,-100,3,3,1,70,0,0
37613,-100,3,3,1,35,0,0
40690,-100,3,3,0,35,0,0
41305,-100,3,3,1,50,0,0
44997,-100,3,3,1,90,0,1
52382,-100,3,3,1,90,0,0
56074,-100,3,3,1,45,0,0
59766,-100,3,3,1,90,0,0
75613,-100,3,3,1,50,0,0
75766,-100,3,3,1,90,0,0
77920,-100,3,3,1,50,0,0
78228,-100,3,3,1,90,0,1
85305,-100,3,3,0,70,0,1
85382,-100,3,3,1,90,0,1
86536,-100,3,3,0,70,0,1
87459,-100,3,3,1,100,0,1
88382,-100,3,3,1,100,0,0

[Colours]
Combo1 : 255,68,68
Combo2 : 255,255,0
Combo3 : 255,0,0
Combo4 : 255,128,0

[HitObjects]
128,192,690,5,8,0:0:0:0:
288,192,1151,1,8,0:0:0:0:
128,192,1613,2,0,L|240:192,2,99.9999999999999,8|8|4,0:0|0:0|0:0,0:0:0:0:
288,192,2536,5,8,0:0:0:0:
448,192,2997,1,8,0:0:0:0:
288,192,3459,2,0,L|176:192,1,99.9999999999999,8|8,0:0|0:0,0:0:0:0:
328,192,4074,1,4,0:0:0:0:
160,192,4382,5,8,0:0:0:0:
352,192,4843,1,8,0:0:0:0:
160,192,5305,2,0,L|48:192,1,99.9999999999999,8|8,0:0|0:0,0:0:0:0:
216,192,5920,1,4,0:0:0:0:
368,192,6228,5,8,0:0:0:0:
192,192,6690,1,8,0:0:0:0:
368,192,7151,2,0,L|256:192,2,99.9999999999999,8|8|8,0:0|0:0|0:0,0:0:0:0:
208,192,8074,5,2,0:0:0:0:
496,192,8997,1,2,0:0:0:0:
152,192,9920,1,10,0:0:0:0:
472,192,10843,1,6,0:0:0:0:
264,192,11459,1,8,0:0:0:0:
144,192,11766,6,0,L|40:192,2,99.9999999999999,8|8|8,0:0|0:0|0:0,0:0:0:0:
280,192,12690,1,8,0:0:0:0:
120,192,13305,1,8,0:0:0:0:
264,192,13613,6,0,L|368:192,1,99.9999999999999,8|8,0:0|0:0,0:0:0:0:
232,192,14228,1,8,0:0:0:0:
384,192,14536,2,0,P|464:136|400:80,1,200,8|8,0:1|0:1,0:0:0:0:
256,192,15459,6,0,L|144:192,2,99.9999999999999,2|8|8,0:0|0:0|0:0,0:0:0:0:
128,192,16382,2,0,L|16:192,2,99.9999999999999,10|8|8,0:0|0:0|0:0,0:0:0:0:
272,192,17305,6,0,L|384:192,2,99.9999999999999,10|8|8,0:0|0:0|0:0,0:0:0:0:
128,192,18228,2,0,P|246:189|312:128,1,200,8|8,0:0|0:0,0:0:0:0:
160,192,19151,6,0,L|40:192,2,99.9999999999999,10|8|8,0:0|0:0|0:0,0:0:0:0:
288,192,20074,2,0,L|176:192,2,99.9999999999999,10|8|8,0:0|0:0|0:0,0:0:0:0:
168,192,20997,5,10,0:0:0:0:
296,192,21305,1,8,0:0:0:0:
408,192,21613,1,8,0:0:0:0:
264,192,21920,2,0,L|56:192,1,200,8|8,0:0|0:0,0:0:0:0:
208,192,22843,5,4,0:0:0:0:
344,192,23151,2,0,L|232:192,2,99.9999999999999,8|8|2,0:0|0:0|0:0,0:0:0:0:
16,192,24690,5,8,0:0:0:0:
152,192,24997,2,0,L|256:192,2,99.9999999999999,8|0|8,0:0|0:0|0:0,0:0:0:0:
480,192,26536,6,0,L|368:192,1,99.9999999999999,8|8,0:0|0:0,0:0:0:0:
128,192,27459,2,0,L|240:192,1,99.9999999999999,8|8,0:0|0:0,0:0:0:0:
480,192,28382,5,8,0:0:0:0:
352,192,28690,2,0,L|464:192,2,99.9999999999999,8|0|8,0:0|0:0|0:0,0:0:0:0:
56,192,30228,5,8,0:0:0:0:
152,192,30536,1,8,0:0:0:0:
248,192,30843,1,8,0:0:0:0:
344,192,31151,1,8,0:0:0:0:
248,192,31459,1,8,0:0:0:0:
88,192,31766,1,6,0:0:0:0:
216,192,32074,5,8,0:0:0:0:
312,192,32382,1,8,0:0:0:0:
216,192,32690,1,4,0:0:0:0:
312,192,32997,1,2,0:0:0:0:
408,192,33305,1,8,0:0:0:0:
248,192,33612,1,8,0:0:0:0:
104,192,33920,6,0,L|216:192,1,99.9999999999999,2|8,0:0|0:0,0:0:0:0:
432,192,34843,2,0,L|320:192,1,99.9999999999999,8|8,0:0|0:0,0:0:0:0:
56,192,35766,5,8,0:0:0:0:
192,192,36074,2,0,L|80:192,2,99.9999999999999,8|0|8,0:0|0:0|0:0,0:0:0:0:
496,192,37613,5,4,0:1:0:0:
200,192,38536,1,0,0:0:0:0:
376,192,39459,1,8,0:0:0:0:
200,192,40074,1,0,0:0:0:0:
320,192,40382,1,0,0:0:0:0:
488,192,40997,1,8,0:3:0:0:
360,192,41305,5,10,0:0:0:0:
56,192,42228,1,10,0:0:0:0:
384,192,43151,2,0,L|496:192,2,99.9999999999999,2|2|2,0:0|0:0|0:0,0:0:0:0:
256,192,44074,2,0,L|144:192,2,99.9999999999999,2|2|2,0:0|0:0|0:0,0:0:0:0:
104,192,44997,5,8,0:0:0:0:
304,192,45459,1,8,0:0:0:0:
488,192,45920,2,0,L|384:192,2,99.9999999999999,8|8|8,0:0|0:0|0:0,0:0:0:0:
336,192,46843,5,8,0:0:0:0:
136,192,47305,1,8,0:0:0:0:
336,192,47766,2,0,L|216:192,1,99.9999999999999,2|2,0:0|0:0,0:0:0:0:
376,192,48382,1,2,0:0:0:0:
224,192,48690,5,2,0:0:0:0:
416,192,49151,1,8,0:0:0:0:
216,192,49613,2,0,L|104:192,1,99.9999999999999,10|10,0:0|0:0,0:0:0:0:
272,192,50228,1,8,0:0:0:0:
416,192,50536,5,8,0:0:0:0:
232,192,50997,1,8,0:0:0:0:
32,192,51459,2,0,L|136:192,2,99.9999999999999,8|8|2,0:0|0:0|0:0,0:0:0:0:
160,192,52382,6,0,L|272:192,2,99.9999999999999,2|8|8,0:0|0:0|0:0,0:0:0:0:
288,192,53305,1,2,0:0:0:0:
432,192,53613,2,0,L|320:192,1,99.9999999999999,8|8,0:0|0:0,0:0:0:0:
200,192,54228,6,0,L|184:144,1,50,2|10,0:0|0:0,0:0:0:0:
320,192,54690,2,0,L|336:144,1,50,2|10,0:0|0:0,0:0:0:0:
200,192,55151,1,10,0:0:0:0:
336,192,55459,1,10,0:0:0:0:
232,192,55766,1,8,0:0:0:0:
88,192,56074,5,4,0:1:0:0:
400,192,56997,1,4,0:1:0:0:
128,192,57920,1,4,0:1:0:0:
464,192,58843,1,4,0:1:0:0:
304,192,59459,1,10,0:0:0:0:
160,192,59766,6,0,L|48:192,2,99.9999999999999,8|8|8,0:0|0:0|0:0,0:0:0:0:
304,192,60690,1,8,0:0:0:0:
80,192,61305,1,8,0:0:0:0:
208,192,61613,6,0,L|96:192,2,99.9999999999999,8|8|8,0:0|0:0|0:0,0:0:0:0:
352,192,62536,2,0,P|424:144|352:104,1,200,8|8,0:1|0:1,0:0:0:0:
200,192,63459,6,0,L|320:192,2,99.9999999999999,8|8|8,0:0|0:0|0:0,0:0:0:0:
336,192,64382,2,0,L|440:192,2,99.9999999999999,8|8|8,0:0|0:0|0:0,0:0:0:0:
200,192,65305,5,8,0:0:0:0:
104,192,65613,1,2,0:0:0:0:
16,192,65920,1,0,0:0:0:0:
152,192,66228,2,0,L|264:192,2,99.9999999999999,8|8|8,0:0|0:0|0:0,0:0:0:0:
280,192,67151,6,0,L|160:192,2,99.9999999999999,8|8|8,0:0|0:0|0:0,0:0:0:0:
424,192,68074,2,0,L|216:192,1,200,8|8,0:0|0:0,0:0:0:0:
368,192,68997,6,0,L|480:192,2,99.9999999999999,8|8|8,0:0|0:0|0:0,0:0:0:0:
224,192,69920,2,0,B|72:192|72:192|40:152,1,200,8|8,0:0|0:0,0:0:0:0:
184,192,70843,5,2,0:0:0:0:
312,192,71151,1,8,0:0:0:0:
424,192,71459,1,8,0:0:0:0:
284,192,71766,2,0,L|164:192,1,99.9999999999999,8|8,0:0|0:0,0:0:0:0:
456,192,72690,6,0,L|356:192,1,99.9999999999999,2|8,0:0|0:0,0:0:0:0:
212,192,73304,1,8,0:0:0:0:
344,192,73612,2,0,L|444:192,2,99.9999999999999,8|8|10,0:0|0:0|0:0,0:0:0:0:
212,192,74536,5,2,0:0:0:0:
448,192,75459,1,0,0:0:0:0:
144,192,76382,1,8,0:0:0:0:
472,192,77305,2,0,L|472:136,2,50,8|8|4,0:0|0:0|0:0,0:0:0:0:
368,192,77920,1,8,0:0:0:0:
224,192,78228,6,0,L|112:192,1,99.9999999999999,10|8,0:0|0:0,0:0:0:0:
280,192,78843,1,8,0:0:0:0:
400,192,79151,2,0,L|280:192,1,99.9999999999999,10|8,0:0|0:0,0:0:0:0:
160,192,79766,1,8,0:0:0:0:
304,192,80074,6,0,L|408:192,2,99.9999999999999,10|8|8,0:0|0:0|0:0,0:0:0:0:
160,192,80997,2,0,P|96:128|168:80,1,200,8|8,0:0|0:0,0:0:0:0:
304,192,81920,6,0,L|184:192,1,99.9999999999999,10|8,0:0|0:0,0:0:0:0:
352,192,82536,1,8,0:0:0:0:
224,192,82843,2,0,L|324:192,1,99.9999999999999,10|8,0:0|0:0,0:0:0:0:
184,192,83459,1,8,0:0:0:0:
40,192,83766,6,0,L|160:192,2,99.9999999999999,10|8|8,0:0|0:0|0:0,0:0:0:0:
184,192,84690,2,0,L|384:192,1,200,10|8,0:0|0:0,0:0:0:0:
248,192,85613,6,0,L|184:192,1,50,8|8,0:0|0:0,0:0:0:0:
344,192,86074,2,0,L|416:192,1,50,8|8,0:0|0:0,0:0:0:0:
248,192,86536,1,8,0:0:0:0:
112,192,86843,1,4,0:0:0:0:
224,192,87151,1,4,0:0:0:0:
64,192,87459,5,8,0:0:0:0:
120,192,87613,1,8,0:0:0:0:
184,192,87766,1,8,0:0:0:0:
256,192,87920,1,8,0:0:0:0:
328,192,88074,1,8,0:0:0:0:
400,192,88228,1,8,0:0:0:0:
472,192,88382,5,8,0:0:0:0:
