osu file format v14

[General]
AudioFilename: audio.mp3
AudioLeadIn: 0
PreviewTime: 8074
Countdown: 0
SampleSet: None
StackLeniency: 0.7
Mode: 2
LetterboxInBreaks: 0
WidescreenStoryboard: 0

[Editor]
Bookmarks: 22843,37613,56074,70843
DistanceSpacing: 1.4
BeatDivisor: 4
GridSize: 8
TimelineZoom: 2.3

[Metadata]
Title:Inferno
TitleUnicode:インフェルノ
Artist:9mm Parabellum Bullet
ArtistUnicode:9mm Parabellum Bullet
Creator:- Magic Bomb -
Version:Conflagration
Source:ベルセルク
Tags:MBomb BERSERK guts casca griffith 2016 tv size opening
BeatmapID:1069541
BeatmapSetID:502553

[Difficulty]
HPDrainRate:6
CircleSize:4
OverallDifficulty:9.7
ApproachRate:9.7
SliderMultiplier:2
SliderTickRate:2

[Events]
//Background and Video events
0,0,"rsz_inferno.jpg",0,0
Video,-380,"video.avi"
//Break Periods
//Storyboard Layer 0 (Background)
//Storyboard Layer 1 (Fail)
//Storyboard Layer 2 (Pass)
//Storyboard Layer 3 (Foreground)
//Storyboard Sound Samples

[TimingPoints]
690,307.692307692308,3,3,1,90,1,0
8074,-100,3,3,0,50,0,0
11305,-100,3,3,1,75,0,0
11766,-100,3,3,1,90,0,0
22843,-100,3,3,1,70,0,0
25766,-100,3,3,0,50,0,0
26536,-100,3,3,1,70,0,0
29459,-100,3,3,0,50,0,0
30228,-100,3,3,1,70,0,0
32382,-100,3,3,0,70,0,0
32997,-100,3,3,1,70,0,0
37613,-100,3,3,1,35,0,0
40690,-100,3,3,0,35,0,0
41305,-100,3,3,1,50,0,0
44997,-100,3,3,1,90,0,1
52382,-100,3,3,1,90,0,0
56074,-100,3,3,1,45,0,0
59766,-100,3,3,1,90,0,0
75613,-100,3,3,1,50,0,0
75766,-100,3,3,1,90,0,0
77920,-100,3,3,1,50,0,0
78228,-100,3,3,1,90,0,1
85305,-100,3,3,0,70,0,1
85382,-100,3,3,1,90,0,1
86536,-100,3,3,0,70,0,1
87459,-100,3,3,1,100,0,1
88382,-100,3,3,1,100,0,0

[Colours]
Combo1 : 255,68,68
Combo2 : 255,255,0
Combo3 : 255,0,0
Combo4 : 255,128,0

[HitObjects]
176,192,690,5,8,0:0:0:0:
120,192,766,1,0,0:0:0:0:
288,192,843,1,0,0:0:0:0:
335,185,920,1,0,0:0:0:0:
351,140,997,1,2,0:0:0:0:
319,105,1074,1,0,0:0:0:0:
160,192,1151,2,0,L|216:192,1,50,8|0,0:0|0:0,0:0:0:0:
400,192,1305,1,8,0:0:0:0:
374,149,1382,1,0,0:0:0:0:
334,119,1459,1,2,0:0:0:0:
286,107,1536,1,0,0:0:0:0:
96,192,1613,5,8,0:0:0:0:
49,193,1690,1,0,0:0:0:0:
32,149,1766,1,0,0:0:0:0:
68,119,1843,1,0,0:0:0:0:
296,192,1920,1,8,0:0:0:0:
254,164,1997,1,0,0:0:0:0:
205,162,2074,1,0,0:0:0:0:
168,194,2151,1,0,0:0:0:0:
392,192,2228,1,4,0:0:0:0:
437,179,2305,1,0,0:0:0:0:
446,132,2382,1,0,0:0:0:0:
409,104,2459,1,0,0:0:0:0:
256,192,2536,6,0,L|200:192,1,50,8|0,0:0|0:0,0:0:0:0:
392,192,2690,2,0,L|448:192,1,50,0|0,0:0|0:0,0:0:0:0:
442,192,2843,2,0,L|378:192,1,50,2|0,0:0|0:0,0:0:0:0:
256,192,2997,1,8,0:0:0:0:
184,192,3074,1,0,0:0:0:0:
32,192,3151,1,8,0:0:0:0:
46,145,3228,1,0,0:0:0:0:
86,116,3305,1,2,0:0:0:0:
136,116,3382,1,0,0:0:0:0:
304,192,3459,5,8,0:0:0:0:
352,194,3536,1,0,0:0:0:0:
392,165,3613,1,0,0:0:0:0:
405,118,3690,1,0,0:0:0:0:
208,192,3766,1,8,0:0:0:0:
160,194,3843,1,0,0:0:0:0:
120,165,3920,1,0,0:0:0:0:
107,118,3997,1,0,0:0:0:0:
448,192,4074,1,4,0:0:0:0:
479,156,4151,1,0,0:0:0:0:
459,113,4228,1,0,0:0:0:0:
412,114,4305,1,0,0:0:0:0:
96,192,4382,6,0,L|160:152,1,50,8|0,0:0|0:0,0:0:0:0:
344,192,4536,1,8,0:0:0:0:
294,192,4613,1,0,0:0:0:0:
244,192,4690,1,2,0:0:0:0:
194,192,4766,1,0,0:0:0:0:
448,192,4843,2,0,L|504:192,1,50,8|0,0:0|0:0,0:0:0:0:
232,192,4997,1,8,0:0:0:0:
250,147,5074,1,0,0:0:0:0:
297,137,5151,1,2,0:0:0:0:
333,170,5228,1,0,0:0:0:0:
136,192,5305,5,8,0:0:0:0:
168,168,5382,1,0,0:0:0:0:
184,144,5459,1,2,0:0:0:0:
168,168,5536,1,0,0:0:0:0:
368,192,5613,1,8,0:0:0:0:
409,167,5690,1,0,0:0:0:0:
413,119,5766,1,0,0:0:0:0:
376,88,5843,1,0,0:0:0:0:
40,192,5920,1,4,0:0:0:0:
34,143,5997,1,0,0:0:0:0:
65,106,6074,1,0,0:0:0:0:
114,104,6151,1,0,0:0:0:0:
346,192,6228,6,0,L|250:192,1,50,8|0,0:0|0:0,0:0:0:0:
80,192,6382,1,8,0:0:0:0:
37,172,6459,1,0,0:0:0:0:
39,125,6536,1,2,0:0:0:0:
84,110,6613,1,0,0:0:0:0:
232,192,6690,1,8,0:0:0:0:
296,192,6766,1,0,0:0:0:0:
480,192,6843,1,8,0:0:0:0:
453,150,6920,1,0,0:0:0:0:
410,126,6997,1,2,0:0:0:0:
360,125,7074,1,0,0:0:0:0:
208,192,7151,5,8,0:0:0:0:
159,195,7228,1,0,0:0:0:0:
120,166,7305,1,0,0:0:0:0:
110,118,7382,1,0,0:0:0:0:
304,192,7459,1,8,0:0:0:0:
352,195,7536,1,0,0:0:0:0:
391,166,7613,1,0,0:0:0:0:
401,118,7690,1,0,0:0:0:0:
232,192,7766,1,8,0:0:0:0:
282,192,7843,1,0,0:0:0:0:
332,192,7920,1,0,0:0:0:0:
382,192,7997,1,0,0:0:0:0:
176,192,8074,6,0,P|56:136|56:72,2,200,2|0|0,0:0|0:0|0:0,0:0:0:0:
472,192,8997,2,0,L|312:72,2,200,2|0|0,0:0|0:0|0:0,0:0:0:0:
24,192,9920,2,0,L|184:72,2,200,10|0|0,0:0|0:0|0:0,0:0:0:0:
464,192,10843,2,0,P|392:128|456:80,1,200,6|0,0:0|0:0,0:0:0:0:
352,192,11305,2,0,L|280:192,1,50,0|8,0:0|0:0,0:0:0:0:
120,192,11459,2,0,P|48:152|112:112,1,150,8|0,0:0|0:0,0:0:0:0:
368,192,11766,6,0,L|480:192,1,100,8|0,0:0|0:0,0:0:0:0:
216,192,12074,2,0,L|328:192,1,100,8|8,0:0|0:0,0:0:0:0:
64,192,12382,2,0,P|32:152|64:128,1,100,8|2,0:0|0:0,0:0:0:0:
316,192,12690,2,0,L|212:192,1,100,8|0,0:0|0:0,0:0:0:0:
464,192,12997,2,0,L|336:192,1,100,8|8,0:0|0:0,0:0:0:0:
56,192,13305,2,0,L|168:192,1,100,8|2,0:0|0:0,0:0:0:0:
416,192,13613,5,8,0:0:0:0:
156,192,13766,1,0,0:0:0:0:
496,192,13920,1,8,0:0:0:0:
256,192,14074,1,8,0:0:0:0:
16,192,14228,1,8,0:0:0:0:
328,192,14382,1,2,0:0:0:0:
64,192,14536,5,8,0:1:0:0:
21,172,14613,1,0,0:0:0:0:
24,125,14690,1,0,0:0:0:0:
69,111,14766,1,0,0:0:0:0:
328,192,14843,1,8,0:1:0:0:
370,172,14920,1,0,0:0:0:0:
367,125,14997,1,0,0:0:0:0:
322,111,15074,1,0,0:0:0:0:
24,192,15151,2,0,L|184:192,1,150,8|0,0:1|0:0,0:0:0:0:
472,192,15459,6,0,L|416:144,1,50,2|0,0:0|0:0,0:0:0:0:
208,192,15613,1,2,0:0:0:0:
162,180,15690,1,0,0:0:0:0:
157,134,15766,1,8,0:0:0:0:
198,113,15843,1,0,0:0:0:0:
392,192,15920,2,0,L|320:192,1,50,2|0,0:0|0:0,0:0:0:0:
120,192,16074,2,0,L|192:192,1,50,8|0,0:0|0:0,0:0:0:0:
480,192,16228,2,0,L|408:192,1,50,8|0,0:0|0:0,0:0:0:0:
272,192,16382,5,10,0:0:0:0:
200,192,16459,1,0,0:0:0:0:
32,192,16536,1,2,0:0:0:0:
47,145,16613,1,0,0:0:0:0:
86,114,16690,1,8,0:0:0:0:
135,109,16766,1,0,0:0:0:0:
352,192,16843,2,0,L|272:192,1,50,2|0,0:0|0:0,0:0:0:0:
136,192,16997,2,0,L|200:192,1,50,8|0,0:0|0:0,0:0:0:0:
440,192,17151,2,0,L|496:192,1,50,8|0,0:0|0:0,0:0:0:0:
232,192,17305,6,0,L|176:192,1,50,10|0,0:0|0:0,0:0:0:0:
352,192,17459,1,2,0:0:0:0:
402,192,17536,1,0,0:0:0:0:
452,192,17613,1,8,0:0:0:0:
410,192,17690,1,0,0:0:0:0:
152,192,17766,2,0,L|80:192,1,50,2|0,0:0|0:0,0:0:0:0:
256,192,17920,2,0,L|312:192,1,50,8|0,0:0|0:0,0:0:0:0:
80,192,18074,2,0,L|24:192,1,50,8|0,0:0|0:0,0:0:0:0:
432,192,18228,5,8,0:0:0:0:
488,192,18305,1,0,0:0:0:0:
304,192,18382,2,0,L|248:192,1,50,8|8,0:0|0:0,0:0:0:0:
432,192,18536,2,0,L|376:192,1,50,8|0,0:0|0:0,0:0:0:0:
160,192,18690,2,0,L|224:192,1,50,8|8,0:0|0:0,0:0:0:0:
392,192,18843,2,0,L|392:136,1,50,8|8,0:0|0:0,0:0:0:0:
120,192,18997,1,8,0:0:0:0:
95,192,19036,1,0,0:0:0:0:
95,192,19074,1,0,0:0:0:0:
240,192,19151,5,10,0:0:0:0:
304,192,19228,1,0,0:0:0:0:
480,192,19305,1,2,0:0:0:0:
447,154,19382,1,0,0:0:0:0:
403,131,19459,1,8,0:0:0:0:
353,127,19536,1,0,0:0:0:0:
136,192,19613,2,0,L|64:192,1,50,2|0,0:0|0:0,0:0:0:0:
256,192,19766,2,0,L|200:192,1,50,8|0,0:0|0:0,0:0:0:0:
56,192,19920,2,0,L|96:152,1,50,8|0,0:0|0:0,0:0:0:0:
272,192,20074,6,0,L|344:192,1,50,10|0,0:0|0:0,0:0:0:0:
112,192,20228,1,2,0:0:0:0:
138,150,20305,1,0,0:0:0:0:
182,128,20382,1,8,0:0:0:0:
232,131,20459,1,0,0:0:0:0:
432,192,20536,2,0,L|368:192,1,50,2|0,0:0|0:0,0:0:0:0:
184,192,20690,2,0,L|120:192,1,50,8|0,0:0|0:0,0:0:0:0:
472,192,20843,2,0,L|408:192,1,50,8|0,0:0|0:0,0:0:0:0:
272,192,20997,6,0,L|200:192,1,50,10|0,0:0|0:0,0:0:0:0:
72,192,21151,1,2,0:0:0:0:
26,180,21228,1,0,0:0:0:0:
232,192,21305,1,8,0:0:0:0:
312,192,21382,1,0,0:0:0:0:
496,192,21459,2,0,L|432:192,1,50,2|0,0:0|0:0,0:0:0:0:
272,192,21613,2,0,L|312:152,1,50,8|0,0:0|0:0,0:0:0:0:
120,192,21766,6,0,L|120:136,1,50,8|0,0:0|0:0,0:0:0:0:
344,192,21920,2,0,L|344:136,1,50,8|8,0:0|0:0,0:0:0:0:
88,192,22074,2,0,P|56:160|96:136,1,100,0|8,0:0|0:0,0:0:0:0:
368,192,22382,1,8,0:0:0:0:
88,192,22536,1,8,0:0:0:0:
424,192,22690,1,8,0:0:0:0:
88,192,22843,6,0,P|56:160|88:128,1,100,4|0,0:0|0:0,0:0:0:0:
368,192,23151,1,8,0:0:0:0:
384,192,23228,1,0,0:0:0:0:
400,192,23305,1,0,0:0:0:0:
416,192,23382,1,0,0:0:0:0:
144,192,23459,1,8,0:0:0:0:
96,197,23536,1,0,0:0:0:0:
64,161,23613,1,0,0:0:0:0:
75,114,23690,1,0,0:0:0:0:
424,192,23766,6,0,P|472:160|472:120,1,100,2|0,0:0|0:0,0:0:0:0:
320,192,24074,1,2,0:0:0:0:
488,192,24228,1,0,0:0:0:0:
388,192,24382,2,0,L|492:192,1,100,2|0,0:0|0:0,0:0:0:0:
160,192,24690,6,0,L|64:192,2,50,8|0|0,0:0|0:0|0:0,0:0:0:0:
416,192,24997,2,0,L|416:136,1,50,8|8,0:0|0:0,0:0:0:0:
256,192,25151,1,8,0:0:0:0:
208,196,25228,1,0,0:0:0:0:
184,155,25305,1,0,0:0:0:0:
210,115,25382,1,0,0:0:0:0:
384,192,25459,2,0,L|296:192,1,50,8|0,0:0|0:0,0:0:0:0:
96,192,25613,5,8,0:0:0:0:
216,192,25766,2,0,L|328:192,2,100,8|0|8,0:0|0:0|0:0,0:0:0:0:
360,192,26228,2,0,L|464:136,1,100,4|0,0:0|0:0,0:0:0:0:
88,192,26536,6,0,L|32:192,1,50,8|0,0:0|0:0,0:0:0:0:
208,192,26690,2,0,L|264:192,1,50,8|8,0:0|0:0,0:0:0:0:
88,192,26843,1,8,0:0:0:0:
176,192,26997,1,0,0:0:0:0:
88,192,27151,1,0,0:0:0:0:
232,192,27305,1,0,0:0:0:0:
496,192,27459,6,0,L|446:192,1,50,8|0,0:0|0:0,0:0:0:0:
256,192,27613,2,0,L|306:192,1,50,8|8,0:0|0:0,0:0:0:0:
496,192,27766,1,8,0:0:0:0:
408,192,27920,1,0,0:0:0:0:
248,192,28074,2,0,L|368:192,1,100
72,192,28382,6,0,L|8:192,2,50,8|0|0,0:0|0:0|0:0,0:0:0:0:
384,192,28690,1,8,0:0:0:0:
440,192,28766,1,0,0:0:0:0:
280,192,28843,1,8,0:0:0:0:
224,192,28920,1,0,0:0:0:0:
440,192,28997,1,0,0:0:0:0:
384,192,29074,1,0,0:0:0:0:
224,192,29151,1,0,0:0:0:0:
280,192,29228,1,8,0:0:0:0:
480,192,29305,5,8,0:0:0:0:
384,192,29459,1,8,0:0:0:0:
288,192,29613,1,0,0:0:0:0:
208,192,29766,1,8,0:0:0:0:
288,192,29920,1,4,0:0:0:0:
384,192,30074,1,0,0:0:0:0:
128,192,30228,6,0,L|8:192,1,100,8|0,0:0|0:0,0:0:0:0:
192,192,30536,2,0,L|304:192,3,100,8|0|8|0,0:0|0:0|0:0|0:0,0:0:0:0:
32,192,31151,2,0,L|144:192,2,100,8|0|8,0:0|0:0|0:0,0:0:0:0:
336,192,31613,2,0,L|336:128,1,50,2|2,0:0|0:0,0:0:0:0:
80,192,31766,1,6,0:0:0:0:
336,192,32074,5,8,0:0:0:0:
448,192,32228,2,0,L|512:192,2,50,0|8|8,0:0|0:0|0:0,0:0:0:0:
336,192,32536,1,8,0:0:0:0:
96,192,32690,2,0,L|216:192,1,100,4|0,0:0|0:0,0:0:0:0:
448,192,32997,2,0,P|480:144|448:128,1,100,2|2,0:0|0:0,0:0:0:0:
352,192,33305,1,8,0:0:0:0:
64,192,33459,1,8,0:0:0:0:
24,167,33536,1,8,0:0:0:0:
224,192,33613,1,8,0:0:0:0:
368,192,33766,1,0,0:0:0:0:
136,192,33920,6,0,P|96:192|80:192,1,50,2|0,0:0|0:0,0:0:0:0:
224,192,34074,2,0,L|288:192,1,50,2|0,0:0|0:0,0:0:0:0:
136,192,34228,1,8,0:0:0:0:
224,192,34382,1,0,0:0:0:0:
56,192,34536,2,0,L|168:192,1,100,0|0,0:0|0:0,0:0:0:0:
464,192,34843,6,0,L|400:192,1,50,8|8,0:0|0:0,0:0:0:0:
256,192,34997,2,0,L|192:192,1,50,8|0,0:0|0:0,0:0:0:0:
464,192,35151,1,8,0:0:0:0:
352,192,35305,1,0,0:0:0:0:
176,192,35459,2,0,P|144:152|176:128,1,100,0|0,0:0|0:0,0:0:0:0:
432,192,35766,6,0,L|496:192,2,50,8|0|0,0:0|0:0|0:0,0:0:0:0:
144,192,36074,2,0,L|80:192,1,50,8|0,0:0|0:0,0:0:0:0:
304,192,36228,2,0,L|232:192,1,50,8|0,0:0|0:0,0:0:0:0:
80,192,36382,2,0,L|24:192,1,50,0|0,0:0|0:0,0:0:0:0:
192,192,36536,2,0,L|248:192,1,50,8|0,0:0|0:0,0:0:0:0:
80,192,36690,1,8,0:0:0:0:
304,192,36997,2,0,P|448:128|464:96,1,200,0|0,0:0|0:0,0:0:0:0:
48,192,37613,5,4,0:1:0:0:
240,192,37920,2,0,L|72:80,1,200,0|0,0:0|0:0,0:0:0:0:
144,192,38382,1,0,0:0:0:0:
312,192,38536,2,0,P|432:152|432:96,1,200
256,192,39151,2,0,L|368:192,1,100,0|0,0:0|0:0,0:0:0:0:
72,192,39459,6,0,B|0:184|64:24|256:128,1,300,8|0,0:0|0:0,0:0:0:0:
152,192,40074,2,0,L|40:192,1,100,0|0,0:0|0:0,0:0:0:0:
232,192,40382,2,0,L|432:192,1,200,0|2,0:0|0:0,0:0:0:0:
280,192,40843,2,0,L|344:192,1,50,8|8,0:3|0:3,0:0:0:0:
408,192,40997,1,8,0:3:0:0:
16,192,41305,5,10,0:0:0:0:
208,192,41613,2,0,L|96:192,1,100,2|0,0:0|0:0,0:0:0:0:
280,192,41920,2,0,L|392:192,1,100,2|0,0:0|0:0,0:0:0:0:
208,192,42228,2,0,P|112:136|160:80,1,200,10|2,0:0|0:0,0:0:0:0:
352,192,42843,2,0,L|240:192,1,100,2|0,0:0|0:0,0:0:0:0:
496,192,43151,6,0,L|432:104,1,100,2|0,0:0|0:0,0:0:0:0:
192,192,43459,2,0,L|256:112,1,100,2|0,0:0|0:0,0:0:0:0:
16,192,43766,2,0,L|80:112,1,100,2|0,0:0|0:0,0:0:0:0:
384,192,44074,2,0,L|248:192,1,100,2|0,0:0|0:0,0:0:0:0:
32,192,44382,2,0,L|168:192,1,100,2|0,0:0|0:0,0:0:0:0:
384,192,44690,2,0,L|488:192,1,100,2|0,0:0|0:0,0:0:0:0:
80,192,44997,6,0,L|24:192,1,50,8|0,0:0|0:0,0:0:0:0:
208,192,45151,1,8,0:0:0:0:
250,171,45228,1,0,0:0:0:0:
250,124,45305,1,0,0:0:0:0:
207,104,45382,1,0,0:0:0:0:
424,192,45459,2,0,L|480:192,1,50,8|0,0:0|0:0,0:0:0:0:
320,192,45613,1,8,0:0:0:0:
334,145,45690,1,0,0:0:0:0:
379,128,45766,1,8,0:0:0:0:
421,152,45843,1,8,0:0:0:0:
232,192,45920,5,8,0:0:0:0:
194,164,45997,1,0,0:0:0:0:
208,119,46074,1,2,0:0:0:0:
254,119,46151,1,0,0:0:0:0:
88,192,46228,1,8,0:0:0:0:
42,181,46305,1,0,0:0:0:0:
35,134,46382,1,2,0:0:0:0:
76,111,46459,1,0,0:0:0:0:
296,192,46536,1,8,0:0:0:0:
345,196,46613,1,0,0:0:0:0:
393,183,46690,1,2,0:0:0:0:
421,152,46766,1,0,0:0:0:0:
88,192,46843,6,0,L|16:192,1,50,8|0,0:0|0:0,0:0:0:0:
216,192,46997,1,8,0:0:0:0:
296,192,47074,1,8,0:0:0:0:
480,192,47151,2,0,L|424:192,1,50,10|0,0:0|0:0,0:0:0:0:
256,192,47305,2,0,L|200:192,1,50,8|0,0:0|0:0,0:0:0:0:
432,192,47459,1,8,0:0:0:0:
469,162,47536,1,0,0:0:0:0:
459,116,47613,1,8,0:0:0:0:
413,104,47690,1,0,0:0:0:0:
176,192,47766,5,2,0:0:0:0:
128,189,47843,1,0,0:0:0:0:
103,148,47920,1,8,0:0:0:0:
123,105,47997,1,8,0:0:0:0:
344,192,48074,1,2,0:0:0:0:
294,192,48151,1,0,0:0:0:0:
294,192,48228,1,8,0:0:0:0:
336,192,48305,1,8,0:0:0:0:
88,192,48382,1,2,0:0:0:0:
24,192,48459,1,0,0:0:0:0:
24,192,48536,1,8,0:0:0:0:
88,192,48613,1,8,0:0:0:0:
416,192,48690,6,0,L|376:152,1,50,2|0,0:0|0:0,0:0:0:0:
240,192,48843,2,0,L|304:192,1,50,8|8,0:0|0:0,0:0:0:0:
480,192,48997,2,0,L|416:192,1,50,8|0,0:0|0:0,0:0:0:0:
144,192,49151,2,0,L|72:192,1,50,8|0,0:0|0:0,0:0:0:0:
320,192,49305,1,8,0:0:0:0:
367,197,49382,1,0,0:0:0:0:
394,158,49459,1,8,0:0:0:0:
374,115,49536,1,8,0:0:0:0:
144,192,49613,6,0,L|200:192,1,50,10|0,0:0|0:0,0:0:0:0:
392,192,49766,2,0,L|472:192,1,50,0|0,0:0|0:0,0:0:0:0:
128,192,49920,2,0,L|72:192,1,50,10|0,0:0|0:0,0:0:0:0:
280,192,50074,2,0,L|208:192,1,50,0|0,0:0|0:0,0:0:0:0:
56,192,50228,1,8,0:0:0:0:
80,149,50305,1,0,0:0:0:0:
122,123,50382,1,8,0:0:0:0:
172,121,50459,1,0,0:0:0:0:
320,192,50536,5,8,0:0:0:0:
464,192,50613,1,0,0:0:0:0:
480,145,50690,1,0,0:0:0:0:
464,99,50766,1,0,0:0:0:0:
423,72,50843,1,2,0:0:0:0:
374,76,50920,1,0,0:0:0:0:
176,192,50997,2,0,L|248:192,1,50,8|0,0:0|0:0,0:0:0:0:
416,192,51151,1,0,0:0:0:0:
463,185,51228,1,0,0:0:0:0:
487,143,51305,1,2,0:0:0:0:
467,99,51382,1,0,0:0:0:0:
104,192,51459,6,0,L|32:192,1,50,8|0,0:0|0:0,0:0:0:0:
256,192,51613,1,8,0:0:0:0:
448,192,51690,1,0,0:0:0:0:
208,192,51766,1,8,0:0:0:0:
164,174,51843,1,0,0:0:0:0:
171,128,51920,1,8,0:0:0:0:
217,123,51997,1,0,0:0:0:0:
408,192,52074,2,0,L|480:192,1,50,2|0,0:0|0:0,0:0:0:0:
256,192,52228,2,0,L|184:192,1,50,2|0,0:0|0:0,0:0:0:0:
384,192,52382,6,0,L|488:192,1,100,2|8,0:0|0:0,0:0:0:0:
324,192,52690,2,0,L|444:192,3,100,8|2|8|8,0:0|0:0|0:0|0:0,0:0:0:0:
144,192,53305,2,0,L|16:192,1,100,2|8,0:0|0:0,0:0:0:0:
296,192,53613,2,0,L|408:192,1,100,8|2,0:0|0:0,0:0:0:0:
144,192,53920,2,0,L|272:192,1,100,8|8,0:0|0:0,0:0:0:0:
16,192,54228,5,2,0:0:0:0:
496,192,54382,1,10,0:0:0:0:
256,192,54690,1,2,0:0:0:0:
496,192,54843,1,10,0:0:0:0:
16,192,55151,1,10,0:0:0:0:
496,192,55459,1,10,0:0:0:0:
232,192,55766,2,0,P|136:184|104:136,1,150,8|0,0:0|0:0,0:0:0:0:
352,192,56074,5,4,0:1:0:0:
144,192,56382,2,0,P|56:168|48:72,1,200,0|0,0:0|0:0,0:0:0:0:
480,192,56997,2,0,L|320:72,2,200,4|0|0,0:1|0:0|0:0,0:0:0:0:
24,192,57920,6,0,P|80:112|264:192,1,300,4|0,0:1|0:0,0:0:0:0:
184,192,58536,1,0,0:0:0:0:
48,192,58690,1,0,0:0:0:0:
376,192,58843,2,0,P|456:112|392:80,1,200,4|0,0:1|0:0,0:0:0:0:
280,192,59305,2,0,L|184:192,1,50,8|8,0:0|0:0,0:0:0:0:
432,192,59459,2,0,B|488:192|488:192|488:96,1,150,10|0,0:0|0:0,0:0:0:0:
192,192,59766,6,0,L|296:192,1,100,8|0,0:0|0:0,0:0:0:0:
40,192,60074,2,0,L|168:192,1,100,8|8,0:0|0:0,0:0:0:0:
392,192,60382,2,0,B|496:192|496:192,1,100,8|2,0:0|0:0,0:0:0:0:
176,192,60690,2,0,L|48:192,1,100,8|0,0:0|0:0,0:0:0:0:
352,192,60997,2,0,L|240:192,1,100,8|8,0:0|0:0,0:0:0:0:
16,192,61305,2,0,L|144:192,1,100,8|2,0:0|0:0,0:0:0:0:
400,192,61613,5,8,0:0:0:0:
104,192,61766,1,0,0:0:0:0:
480,192,61920,1,8,0:0:0:0:
208,192,62074,1,8,0:0:0:0:
496,192,62228,1,8,0:0:0:0:
256,192,62382,1,2,0:0:0:0:
24,192,62536,6,0,P|24:144|24:128,1,50,8|0,0:1|0:0,0:0:0:0:
296,192,62690,2,0,L|368:192,1,50,0|0,0:0|0:0,0:0:0:0:
160,192,62843,2,0,L|216:192,1,50,8|0,0:1|0:0,0:0:0:0:
448,192,62997,2,0,L|368:192,1,50,0|0,0:0|0:0,0:0:0:0:
104,192,63151,2,0,P|56:144|104:96,1,150,8|0,0:1|0:0,0:0:0:0:
416,192,63459,6,0,P|472:128|456:112,1,100,8|0,0:0|0:0,0:0:0:0:
56,192,63766,2,0,L|192:192,1,100,8|0,0:0|0:0,0:0:0:0:
416,192,64074,2,0,P|400:160|400:96,1,100,8|0,0:0|0:0,0:0:0:0:
156,192,64382,2,0,L|260:192,1,100,8|0,0:0|0:0,0:0:0:0:
16,192,64690,2,0,L|152:192,1,100,8|0,0:0|0:0,0:0:0:0:
368,192,64997,2,0,L|240:192,1,100,8|0,0:0|0:0,0:0:0:0:
496,192,65305,6,0,L|384:192,1,100,8|0,0:0|0:0,0:0:0:0:
128,192,65613,2,0,L|24:192,1,100,2|8,0:0|0:0,0:0:0:0:
384,192,65920,2,0,L|272:192,1,100,0|2,0:0|0:0,0:0:0:0:
16,192,66228,2,0,L|136:192,1,100,8|0,0:0|0:0,0:0:0:0:
384,192,66536,2,0,L|488:192,1,100,8|0,0:0|0:0,0:0:0:0:
80,192,66843,2,0,P|24:160|40:128,1,100,8|0,0:0|0:0,0:0:0:0:
384,192,67151,6,0,L|272:192,1,100,8|0,0:0|0:0,0:0:0:0:
16,192,67459,2,0,L|136:192,1,100,8|0,0:0|0:0,0:0:0:0:
384,192,67766,2,0,L|488:192,1,100,8|0,0:0|0:0,0:0:0:0:
16,192,68074,2,0,L|128:192,1,100,8|0,0:0|0:0,0:0:0:0:
360,192,68382,2,0,L|232:192,1,100,8|0,0:0|0:0,0:0:0:0:
496,192,68690,2,0,L|384:192,1,100,8|0,0:0|0:0,0:0:0:0:
72,192,68997,5,8,0:0:0:0:
216,192,69151,1,0,0:0:0:0:
496,192,69305,1,0,0:0:0:0:
352,192,69459,1,8,0:0:0:0:
88,192,69613,1,8,0:0:0:0:
248,192,69766,1,0,0:0:0:0:
16,192,69920,1,8,0:0:0:0:
256,192,70074,1,0,0:0:0:0:
496,192,70228,1,8,0:0:0:0:
216,192,70382,1,0,0:0:0:0:
496,192,70536,2,0,L|432:192,1,50,8|0,0:0|0:0,0:0:0:0:
192,192,70690,2,0,L|136:192,1,50,0|0,0:0|0:0,0:0:0:0:
400,192,70843,5,2,0:0:0:0:
160,192,71151,2,0,L|272:192,1,100,8|8,0:0|0:0,0:0:0:0:
496,192,71459,2,0,L|384:192,1,100,8|0,0:0|0:0,0:0:0:0:
72,192,71766,2,0,P|32:144|72:112,1,100,8|0,0:0|0:0,0:0:0:0:
440,192,72074,2,0,L|336:192,1,100,8|0,0:0|0:0,0:0:0:0:
48,192,72382,2,0,L|168:192,1,100,8|8,0:0|0:0,0:0:0:0:
392,192,72690,6,0,L|496:192,1,100,2|0,0:0|0:0,0:0:0:0:
232,192,72997,2,0,L|368:192,1,100,8|8,0:0|0:0,0:0:0:0:
48,192,73305,2,0,L|168:192,1,100,8|8,0:0|0:0,0:0:0:0:
424,192,73613,6,0,L|344:192,1,50,8|0,0:0|0:0,0:0:0:0:
160,192,73766,2,0,L|240:192,1,50,8|0,0:0|0:0,0:0:0:0:
456,192,73920,2,0,L|512:192,1,50,8|8,0:0|0:0,0:0:0:0:
288,192,74074,2,0,L|208:192,1,50,8|0,0:0|0:0,0:0:0:0:
448,192,74228,1,10,0:0:0:0:
424,148,74305,1,8,0:0:0:0:
380,126,74382,1,8,0:0:0:0:
332,133,74459,1,8,0:0:0:0:
80,192,74536,6,0,P|12:126|72:64,1,200,2|0,0:0|0:0,0:0:0:0:
496,192,75151,1,8,0:0:0:0:
48,192,75459,1,0,0:0:0:0:
296,192,75613,1,8,0:0:0:0:
400,192,75766,2,0,L|296:192,1,100,0|0,0:0|0:0,0:0:0:0:
48,192,76074,2,0,P|64:128|160:104,1,150,0|0,0:0|0:0,0:0:0:0:
360,192,76382,6,0,L|288:192,1,50,8|0,0:0|0:0,0:0:0:0:
88,192,76536,2,0,L|16:192,1,50
248,192,76690,2,0,L|312:192,1,50,2|0,0:0|0:0,0:0:0:0:
32,192,76843,2,0,L|32:136,1,50,8|0,0:0|0:0,0:0:0:0:
208,192,76997,1,0,0:0:0:0:
288,192,77074,1,0,0:0:0:0:
488,192,77151,2,0,L|432:192,1,50,2|0,0:0|0:0,0:0:0:0:
32,192,77305,6,0,L|80:144,1,50,8|0,0:0|0:0,0:0:0:0:
208,192,77459,1,8,0:0:0:0:
352,192,77536,1,0,0:0:0:0:
488,192,77613,2,0,P|432:152|400:144,1,100,4|0,0:0|0:0,0:0:0:0:
32,192,77920,1,8,0:0:0:0:
176,192,77997,1,8,0:0:0:0:
320,192,78074,1,8,0:0:0:0:
464,192,78151,1,8,0:0:0:0:
128,192,78228,6,0,L|56:192,1,50,10|0,0:0|0:0,0:0:0:0:
216,192,78382,1,8,0:0:0:0:
288,192,78459,1,8,0:0:0:0:
424,192,78536,2,0,L|480:192,1,50,8|0,0:0|0:0,0:0:0:0:
200,192,78690,2,0,L|136:192,1,50,2|0,0:0|0:0,0:0:0:0:
464,192,78843,2,0,L|400:192,1,50,8|0,0:0|0:0,0:0:0:0:
104,192,78997,2,0,L|40:192,1,50,8|0,0:0|0:0,0:0:0:0:
336,192,79151,6,0,L|400:192,1,50,10|0,0:0|0:0,0:0:0:0:
176,192,79305,2,0,L|176:136,1,50,2|0,0:0|0:0,0:0:0:0:
432,192,79459,2,0,L|360:192,1,50,8|0,0:0|0:0,0:0:0:0:
176,192,79613,2,0,L|232:192,1,50,2|0,0:0|0:0,0:0:0:0:
488,192,79766,2,0,L|432:192,1,50,8|0,0:0|0:0,0:0:0:0:
32,192,79920,2,0,L|88:192,1,50,8|0,0:0|0:0,0:0:0:0:
304,192,80074,6,0,L|384:192,1,50,10|0,0:0|0:0,0:0:0:0:
160,192,80228,2,0,L|104:192,1,50,2|0,0:0|0:0,0:0:0:0:
304,192,80382,2,0,L|304:136,1,50,8|0,0:0|0:0,0:0:0:0:
80,192,80536,2,0,L|80:120,1,50,2|0,0:0|0:0,0:0:0:0:
384,192,80690,2,0,L|448:192,1,50,8|0,0:0|0:0,0:0:0:0:
72,192,80843,2,0,L|8:192,1,50,8|0,0:0|0:0,0:0:0:0:
496,192,80997,6,0,L|432:160,1,50,8|0,0:0|0:0,0:0:0:0:
280,192,81151,1,8,0:0:0:0:
192,192,81228,1,8,0:0:0:0:
24,192,81305,2,0,L|88:192,1,50,8|0,0:0|0:0,0:0:0:0:
280,192,81459,2,0,L|216:192,1,50,8|0,0:0|0:0,0:0:0:0:
74,192,81613,2,0,L|128:144,1,50,8|8,0:0|0:0,0:0:0:0:
384,192,81766,2,0,L|448:192,1,50,8|8,0:0|0:0,0:0:0:0:
88,192,81920,6,0,L|16:192,1,50,10|0,0:0|0:0,0:0:0:0:
224,192,82074,2,0,L|144:192,1,50,2|0,0:0|0:0,0:0:0:0:
16,192,82228,2,0,L|88:192,1,50,8|0,0:0|0:0,0:0:0:0:
224,192,82382,1,2,0:0:0:0:
304,192,82459,1,0,0:0:0:0:
480,192,82536,2,0,L|480:136,1,50,8|0,0:0|0:0,0:0:0:0:
96,192,82690,2,0,L|24:192,1,50,8|0,0:0|0:0,0:0:0:0:
336,192,82843,6,0,L|336:136,1,50,10|0,0:0|0:0,0:0:0:0:
160,192,82997,2,0,L|248:192,1,50,2|0,0:0|0:0,0:0:0:0:
376,192,83151,2,0,L|296:192,1,50,8|0,0:0|0:0,0:0:0:0:
160,192,83305,2,0,L|104:192,1,50,2|0,0:0|0:0,0:0:0:0:
376,192,83459,2,0,L|432:192,1,50,8|0,0:0|0:0,0:0:0:0:
80,192,83613,2,0,L|80:136,1,50,8|0,0:0|0:0,0:0:0:0:
480,192,83766,6,0,L|424:192,1,50,10|0,0:0|0:0,0:0:0:0:
280,192,83920,1,2,0:0:0:0:
136,192,83997,1,0,0:0:0:0:
320,192,84074,1,8,0:0:0:0:
464,192,84151,1,0,0:0:0:0:
280,192,84228,1,2,0:0:0:0:
136,192,84305,1,0,0:0:0:0:
352,192,84382,6,0,L|408:192,1,50,8|0,0:0|0:0,0:0:0:0:
120,192,84536,2,0,L|40:192,1,50,8|0,0:0|0:0,0:0:0:0:
216,192,84690,1,10,0:0:0:0:
352,192,84766,1,8,0:0:0:0:
488,192,84843,2,0,L|448:152,1,50,8|0,0:0|0:0,0:0:0:0:
160,192,84997,1,8,0:0:0:0:
104,176,85074,1,8,0:0:0:0:
88,128,85151,1,8,0:0:0:0:
143,96,85228,1,0,0:0:0:0:
320,192,85305,2,0,P|448:152|464:104,1,150,8|0,0:0|0:0,0:0:0:0:
24,192,85613,6,0,L|74:192,1,50,8|0,0:0|0:0,0:0:0:0:
488,192,85766,2,0,L|438:192,1,50,8|0,0:0|0:0,0:0:0:0:
192,192,85920,2,0,L|120:192,1,50,2|0,0:0|0:0,0:0:0:0:
488,192,86074,2,0,L|432:192,1,50,8|0,0:0|0:0,0:0:0:0:
24,192,86228,2,0,L|80:192,1,50,8|0,0:0|0:0,0:0:0:0:
320,192,86382,2,0,L|392:192,1,50,2|0,0:0|0:0,0:0:0:0:
208,192,86536,5,8,0:0:0:0:
48,192,86613,1,0,0:0:0:0:
320,192,86690,2,0,L|384:192,1,50,0|0,0:0|0:0,0:0:0:0:
48,192,86843,2,0,L|48:128,1,50,4|0,0:0|0:0,0:0:0:0:
258,192,86997,2,0,L|256:136,1,50,0|0,0:0|0:0,0:0:0:0:
24,192,87151,2,0,P|64:128|104:128,1,100,4|0,0:0|0:0,0:0:0:0:
496,192,87459,5,8,0:0:0:0:
192,192,87613,1,8,0:0:0:0:
496,192,87766,1,8,0:0:0:0:
48,192,87920,1,8,0:0:0:0:
352,192,88074,1,8,0:0:0:0:
48,192,88228,1,8,0:0:0:0:
496,192,88382,5,12,0:0:0:0:
