osu file format v14

[General]
AudioFilename: audio.mp3
AudioLeadIn: 0
PreviewTime: -1
Countdown: 0
SampleSet: None
StackLeniency: 0.4
Mode: 0
LetterboxInBreaks: 0
WidescreenStoryboard: 0

[Editor]
Bookmarks: 3873,10019,12068,14409,21434,28458,30800,40165,49531,58897,68263,86995,91970,92848,94019,101043,103385,111580,121531,124458,140848,143190,152556,163092,180653,181824,191190,202165,205239,208751,209921,214604,216946,223970,226312,229824,230995,233336,235678,238019
DistanceSpacing: 0.8
BeatDivisor: 4
GridSize: 8
TimelineZoom: 1

[Metadata]
Title:Heart ni Hi o Tsukete
TitleUnicode:ハートに火をつけて
Artist:9mm Parabellum Bullet
ArtistUnicode:キューミリ・パラベラム・バレット
Creator:Pozy
Version:Setting My Heart On Fire
Source:
Tags:
BeatmapID:1725657
BeatmapSetID:823455

[Difficulty]
HPDrainRate:6
CircleSize:4
OverallDifficulty:8
ApproachRate:9.4
SliderMultiplier:2.1
SliderTickRate:1

[Events]
//Background and Video events
0,0,"Z23oX.jpg",0,0
//Break Periods
//Storyboard Layer 0 (Background)
//Storyboard Layer 1 (Fail)
//Storyboard Layer 2 (Pass)
//Storyboard Layer 3 (Foreground)
//Storyboard Sound Samples

[TimingPoints]
361,292.682926829268,4,2,0,100,1,0
4458,-200,4,2,0,100,0,0
4558,-133.333333333333,4,2,0,100,0,0
11775,-200,4,2,0,100,0,0
12068,-100,4,2,0,100,0,0
13824,-100,4,2,0,100,0,0
21141,-133.333333333333,4,2,0,100,0,0
68263,-100,4,2,0,100,0,1
86995,-100,4,2,0,100,0,0
163092,-100,4,2,0,100,0,1
181824,-100,4,2,0,100,0,0
191190,-100,4,2,0,100,0,1
205239,-100,4,2,0,100,0,0

[Colours]
Combo1 : 240,240,240
Combo2 : 0,0,0
Combo3 : 43,3,117

[HitObjects]
127,93,361,5,0,0:0:0:0:
127,111,1531,5,0,0:0:0:0:
127,129,2702,5,0,0:0:0:0:
127,147,3873,5,0,0:0:0:0:
218,200,4019,1,0,0:0:0:0:
218,95,4165,1,0,0:0:0:0:
135,252,4312,1,0,0:0:0:0:
122,48,4458,2,0,P|174:0|271:-1,1,157.5
377,46,5043,5,0,0:0:0:0:
126,190,5336,5,0,0:0:0:0:
126,190,5921,5,0,0:0:0:0:
447,189,6214,1,0,0:0:0:0:
153,59,6507,1,0,0:0:0:0:
153,59,7092,5,0,0:0:0:0:
365,259,7385,1,0,0:0:0:0:
78,323,7678,1,0,0:0:0:0:
78,323,8263,5,0,0:0:0:0:
249,158,8556,5,0,0:0:0:0:
365,259,8702,1,0,0:0:0:0:
395,106,8848,1,0,0:0:0:0:
228,182,8995,5,0,0:0:0:0:
395,263,9141,1,0,0:0:0:0:
383,79,9287,1,0,0:0:0:0:
213,216,9434,5,0,0:0:0:0:
434,259,9580,1,0,0:0:0:0:
360,49,9726,2,0,P|316:18|271:9,1,78.7500030040742
260,23,10019,5,0,0:0:0:0:
165,301,10165,1,0,0:0:0:0:
133,270,10458,5,0,0:0:0:0:
441,338,10604,1,0,0:0:0:0:
228,36,10897,5,0,0:0:0:0:
314,377,11190,1,0,0:0:0:0:
493,24,11482,1,0,0:0:0:0:
144,211,11775,6,0,P|186:227|226:225,1,78.75
81,130,12068,6,0,P|149:114|204:124,1,105
477,57,12360,2,0,P|425:64|373:57,1,105
285,186,12653,1,0,0:0:0:0:
426,110,12800,1,0,0:0:0:0:
235,33,12946,2,0,L|220:156,1,105
146,278,13239,5,0,0:0:0:0:
222,137,13386,1,0,0:0:0:0:
219,336,13531,1,0,0:0:0:0:
56,255,13678,1,0,0:0:0:0:
341,232,13824,2,0,L|223:242,1,105
352,84,14117,2,0,L|470:74,1,105
341,232,14409,5,0,0:0:0:0:
352,84,14556,1,0,0:0:0:0:
341,232,14702,2,0,L|223:242,1,105
131,232,14995,5,0,0:0:0:0:
120,84,15142,1,0,0:0:0:0:
131,232,15288,2,0,L|249:242,1,105
120,84,15580,1,0,0:0:0:0:
56,266,15726,1,0,0:0:0:0:
240,128,15873,1,0,0:0:0:0:
169,310,16019,1,0,0:0:0:0:
360,172,16165,2,0,P|343:235|366:295,1,105
505,103,16458,2,0,P|522:40|499:-20,1,105
171,131,16751,5,0,0:0:0:0:
264,155,16897,1,0,0:0:0:0:
360,172,17043,2,0,L|350:296,1,105
196,221,17336,5,0,0:0:0:0:
103,197,17482,1,0,0:0:0:0:
7,180,17628,2,0,L|15:75,1,105
43,255,17921,1,0,0:0:0:0:
166,144,18068,1,0,0:0:0:0:
212,295,18214,1,0,0:0:0:0:
7,180,18360,1,0,0:0:0:0:
301,242,18507,2,0,P|313:282|294:362,1,105
166,144,18800,2,0,P|154:104|173:24,1,105
396,295,19092,5,0,0:0:0:0:
173,252,19239,1,0,0:0:0:0:
413,210,19385,5,0,0:0:0:0:
145,261,19532,1,0,0:0:0:0:
374,99,19678,5,0,0:0:0:0:
323,367,19825,1,0,0:0:0:0:
145,159,19970,5,0,0:0:0:0:
413,210,20117,1,0,0:0:0:0:
188,348,20263,5,0,0:0:0:0:
132,85,20409,1,0,0:0:0:0:
324,348,20556,5,0,0:0:0:0:
380,85,20702,1,0,0:0:0:0:
188,348,20848,1,0,0:0:0:0:
188,348,21141,2,0,P|120:345|86:350,1,78.7500030040742
