osu file format v14

[General]
AudioFilename: audio.mp3
AudioLeadIn: 0
PreviewTime: -1
Countdown: 1
SampleSet: Soft
StackLeniency: 0.7
Mode: 0
LetterboxInBreaks: 0
WidescreenStoryboard: 0

[Editor]
Bookmarks: 5106
DistanceSpacing: 1
BeatDivisor: 4
GridSize: 4
TimelineZoom: 1

[Metadata]
Title:Uso no Hibana
TitleUnicode:Uso no Hibana
Artist:96neko
ArtistUnicode:96neko
Creator:zDevor
Version:Expert
Source:Kuzu no Honkai
Tags:kuzu no honkai anime 2017 96neko jump
BeatmapID:1200401
BeatmapSetID:566703

[Difficulty]
HPDrainRate:6.9
CircleSize:4
OverallDifficulty:8.7
ApproachRate:9.3
SliderMultiplier:1.8
SliderTickRate:2

[Events]
//Background and Video events
0,0,"0005c043_337890.png",0,0
//Break Periods
//Storyboard Layer 0 (Background)
//Storyboard Layer 1 (Fail)
//Storyboard Layer 2 (Pass)
//Storyboard Layer 3 (Foreground)
//Storyboard Sound Samples

[TimingPoints]
878,319.148936170213,4,2,1,50,1,0
878,-125,4,2,1,50,0,0
3431,-129.87012987013,4,2,1,50,0,0
3909,-125,4,2,1,50,0,0
4707,-125,4,2,0,60,0,0
5984,-100,4,2,0,70,0,0
16197,-125,4,2,0,50,0,0
26409,-100,4,2,0,70,0,0
33590,-111.111111111111,4,2,0,70,0,0
36463,-100,4,2,0,70,0,1
45558,-100,4,2,0,70,0,0
46675,-100,4,2,0,70,0,1
57048,-100,4,2,0,70,0,0
59601,-111.111111111111,4,2,0,60,0,0
62154,-111.111111111111,4,2,0,70,0,0
67260,-100,4,2,0,70,0,1
77473,-111.111111111111,4,2,0,60,0,0

[HitObjects]
112,132,878,6,0,B|60:208|84:288,1,144
272,72,1356,2,0,P|404:100|416:144,1,144
176,336,1835,2,0,L|312:280,1,144
384,224,2314,1,0,0:0:0:0:
304,120,2473,1,0,0:0:0:0:
240,228,2633,1,0,0:0:0:0:
144,292,2792,1,0,0:0:0:0:
140,288,2952,6,0,L|112:216,1,72
208,100,3271,1,0,0:0:0:0:
208,100,3431,1,0,0:0:0:0:
380,328,3750,6,0,L|452:280,3,69.2999986253357
288,244,4388,1,0,0:0:0:0:
168,304,4548,1,0,0:0:0:0:
152,292,4628,1,0,0:0:0:0:
136,276,4707,1,0,0:0:0:0:
272,68,4867,1,0,0:0:0:0:
284,88,4947,1,0,0:0:0:0:
300,112,5026,1,0,0:0:0:0:
376,296,5186,5,0,0:0:0:0:
160,312,5346,1,0,0:0:0:0:
140,288,5425,1,0,0:0:0:0:
124,260,5505,1,0,0:0:0:0:
108,232,5585,1,0,0:0:0:0:
96,204,5665,1,0,0:0:0:0:
284,68,5824,1,0,0:0:0:0:
288,72,5984,5,4,0:0:0:0:
324,324,6143,1,0,0:0:0:0:
76,168,6303,1,0,0:0:0:0:
400,96,6463,1,0,0:0:0:0:
200,320,6622,1,0,0:0:0:0:
124,80,6782,1,0,0:0:0:0:
260,136,6941,6,0,P|368:84|368:84,2,90
396,292,7420,1,4,0:0:0:0:
124,56,7580,1,0,0:0:0:0:
172,320,7739,1,0,0:0:0:0:
408,64,7899,1,0,0:0:0:0:
356,320,8058,1,0,0:0:0:0:
96,176,8218,1,0,0:0:0:0:
352,308,8378,1,0,0:0:0:0:
404,192,8537,6,0,P|340:88|340:88,2,90
104,80,9016,1,4,0:0:0:0:
392,192,9176,1,0,0:0:0:0:
104,272,9335,1,0,0:0:0:0:
392,192,9495,1,0,0:0:0:0:
104,80,9654,1,0,0:0:0:0:
388,188,9814,1,0,0:0:0:0:
104,272,9974,1,0,0:0:0:0:
272,240,10133,6,0,P|368:312|368:312,2,90
400,88,10612,1,4,0:0:0:0:
104,88,10771,1,0,0:0:0:0:
400,192,10931,1,0,0:0:0:0:
104,192,11091,1,0,0:0:0:0:
400,332,11250,1,0,0:0:0:0:
108,332,11409,1,0,0:0:0:0:
256,192,11569,1,0,0:0:0:0:
168,292,11729,6,0,L|80:232,2,90
212,48,12208,1,4,0:0:0:0:
156,336,12367,1,0,0:0:0:0:
428,192,12527,1,0,0:0:0:0:
72,136,12686,1,0,0:0:0:0:
304,336,12846,1,0,0:0:0:0:
364,60,13006,1,0,0:0:0:0:
128,268,13166,1,0,0:0:0:0:
232,56,13324,6,0,P|348:92|348:92,2,90
352,328,13803,1,4,0:0:0:0:
92,72,13963,1,0,0:0:0:0:
132,328,14122,1,0,0:0:0:0:
412,72,14282,1,0,0:0:0:0:
372,328,14441,1,0,0:0:0:0:
92,76,14601,1,0,0:0:0:0:
260,192,14761,1,0,0:0:0:0:
92,304,14920,6,0,P|72:192|72:192,2,90
228,244,15399,1,0,0:0:0:0:
240,240,15558,1,0,0:0:0:0:
248,236,15718,1,0,0:0:0:0:
256,232,15878,1,0,0:0:0:0:
372,320,16197,6,0,B|412:188|408:172|392:168,1,144
212,76,16835,2,0,L|64:40,2,144
348,320,17792,1,0,0:0:0:0:
348,320,17952,1,0,0:0:0:0:
252,68,18271,1,0,0:0:0:0:
248,64,18431,1,0,0:0:0:0:
116,284,18750,6,0,L|140:128,2,144
284,64,19707,1,0,0:0:0:0:
408,224,20026,1,0,0:0:0:0:
248,328,20346,2,0,L|108:244,1,144
256,96,20824,5,0,0:0:0:0:
256,96,20984,1,0,0:0:0:0:
256,96,21143,1,0,0:0:0:0:
256,96,21303,2,0,L|340:108,2,72
136,268,21941,1,0,0:0:0:0:
412,92,22260,1,0,0:0:0:0:
368,328,22580,6,0,L|280:292,2,72
120,64,23218,1,0,0:0:0:0:
112,72,23378,6,0,L|64:128,2,72
444,136,24016,2,0,B|468:212,2,72
76,256,24654,2,0,L|160:212,2,72
360,320,25133,5,0,0:0:0:0:
360,320,25292,1,0,0:0:0:0:
360,320,25452,1,0,0:0:0:0:
408,84,25612,1,0,0:0:0:0:
408,84,25771,1,0,0:0:0:0:
156,124,25931,1,0,0:0:0:0:
156,124,26090,1,0,0:0:0:0:
248,76,26409,2,0,P|384:160|404:200,1,180
424,272,26888,1,0,0:0:0:0:
420,272,27048,5,0,0:0:0:0:
304,296,27207,1,0,0:0:0:0:
184,288,27367,1,0,0:0:0:0:
84,224,27526,1,0,0:0:0:0:
92,108,27686,2,0,L|196:96,2,90
168,300,28165,1,0,0:0:0:0:
168,304,28324,5,0,0:0:0:0:
172,308,28484,1,0,0:0:0:0:
396,204,28643,1,0,0:0:0:0:
396,204,28803,1,0,0:0:0:0:
240,80,28963,2,0,L|112:64,1,90
328,312,29282,2,0,L|400:228,1,90
92,208,29601,2,0,L|136:304,1,90
392,280,29920,5,0,0:0:0:0:
328,144,30080,1,0,0:0:0:0:
172,120,30239,1,0,0:0:0:0:
192,324,30558,1,0,0:0:0:0:
192,324,30718,1,0,0:0:0:0:
152,112,31037,1,0,0:0:0:0:
152,112,31197,1,0,0:0:0:0:
152,112,31356,1,0,0:0:0:0:
168,340,31675,6,0,L|72:268,2,90
372,48,32314,2,0,L|432:148,2,90
68,176,32952,2,0,L|128:76,2,90
364,304,33590,6,0,B|216:236|176:96|432:80|376:304|284:260|180:184|192:164|180:124,1,404.999987640381
184,136,34548,1,0,0:0:0:0:
184,128,34707,1,0,0:0:0:0:
320,28,35026,1,0,0:0:0:0:
428,168,35346,1,0,0:0:0:0:
384,272,35665,6,0,L|276:240,4,80.9999975280763
160,312,36463,5,0,0:0:0:0:
160,312,36622,1,0,0:0:0:0:
136,240,36782,2,0,L|244:184,1,90
396,96,37101,1,0,0:0:0:0:
80,300,37260,1,0,0:0:0:0:
240,44,37420,1,0,0:0:0:0:
384,320,37580,1,0,0:0:0:0:
88,112,37739,1,0,0:0:0:0:
400,64,37899,1,0,0:0:0:0:
196,316,38058,1,0,0:0:0:0:
260,48,38218,1,0,0:0:0:0:
440,284,38378,1,0,0:0:0:0:
368,56,38537,6,0,L|252:104,1,90
304,296,39016,6,0,L|188:360,2,90
120,332,39495,5,0,0:0:0:0:
412,236,39654,1,0,0:0:0:0:
92,236,39814,1,0,0:0:0:0:
396,136,39973,1,0,0:0:0:0:
56,144,40133,1,0,0:0:0:0:
368,40,40293,1,0,0:0:0:0:
192,64,40452,2,0,L|236:160,1,90
328,324,40771,5,0,0:0:0:0:
440,68,40931,1,0,0:0:0:0:
172,312,41090,1,0,0:0:0:0:
284,40,41250,1,0,0:0:0:0:
184,172,41569,2,0,L|384:220,1,180
176,328,42207,6,0,B|56:312,2,90
104,116,42846,6,0,L|308:44,1,180
344,72,43484,2,0,P|424:104|432:104,1,90
408,296,43803,2,0,P|312:276|304:280,1,90
176,300,44122,1,0,0:0:0:0:
176,300,44282,1,0,0:0:0:0:
148,96,44601,1,0,0:0:0:0:
376,64,44920,1,0,0:0:0:0:
424,260,45239,6,0,L|324:348,1,90
368,116,45558,2,0,B|452:44|448:48,1,90
168,88,45878,2,0,L|76:164,1,90
148,284,46197,1,0,0:0:0:0:
148,284,46356,1,0,0:0:0:0:
280,296,46675,6,0,P|404:276|408:276,1,90
388,64,46995,1,0,0:0:0:0:
128,296,47154,1,0,0:0:0:0:
240,40,47314,1,0,0:0:0:0:
420,324,47473,1,0,0:0:0:0:
116,188,47633,1,0,0:0:0:0:
392,132,47792,1,0,0:0:0:0:
212,88,47952,6,0,P|136:36|136:36,1,90
76,192,48271,5,0,0:0:0:0:
448,200,48431,1,0,0:0:0:0:
76,192,48590,1,0,0:0:0:0:
448,200,48750,1,0,0:0:0:0:
232,132,48909,2,0,L|272:224,1,90
392,268,49229,6,0,L|276:332,2,90
160,316,49707,1,0,0:0:0:0:
420,152,49867,1,0,0:0:0:0:
72,228,50026,1,0,0:0:0:0:
336,44,50186,1,0,0:0:0:0:
420,248,50345,1,0,0:0:0:0:
88,92,50505,6,0,L|108:188,1,90
408,80,50825,1,0,0:0:0:0:
304,332,50984,1,0,0:0:0:0:
68,160,51144,1,0,0:0:0:0:
344,56,51304,1,0,0:0:0:0:
180,324,51463,1,0,0:0:0:0:
336,112,51782,6,0,P|456:244|456:260,1,180
292,208,52420,6,0,P|140:136|136:124,1,180
64,256,53058,6,0,P|204:336|208:348,1,180
424,256,53697,2,0,L|476:148,2,90
228,56,54175,5,0,0:0:0:0:
104,208,54335,1,0,0:0:0:0:
280,344,54495,1,0,0:0:0:0:
280,344,54574,1,0,0:0:0:0:
280,344,54654,1,0,0:0:0:0:
424,252,54814,2,0,L|392:132,1,90
108,248,55133,6,0,L|140:128,1,90
220,44,55452,6,0,L|256:160,1,90
396,232,55771,1,0,0:0:0:0:
396,232,55931,1,0,0:0:0:0:
148,280,56090,1,0,0:0:0:0:
140,256,56170,1,0,0:0:0:0:
132,232,56250,1,0,0:0:0:0:
124,212,56330,1,0,0:0:0:0:
116,188,56409,1,0,0:0:0:0:
108,160,56489,1,0,0:0:0:0:
104,136,56569,2,0,L|168:72,1,90
400,208,56888,6,0,L|352:304,1,90
256,192,57048,12,0,59282,0:0:0:0:
236,96,59601,5,0,0:0:0:0:
104,272,59920,1,0,0:0:0:0:
104,272,60080,1,0,0:0:0:0:
348,344,60239,1,0,0:0:0:0:
348,344,60399,1,0,0:0:0:0:
340,120,60558,2,0,P|268:204|264:208,2,80.9999975280763
340,120,61037,5,0,0:0:0:0:
340,120,61197,1,0,0:0:0:0:
340,120,61356,1,0,0:0:0:0:
344,128,61516,2,0,L|152:180,1,161.999995056153
148,328,62154,2,0,P|236:308|240:312,1,80.9999975280763
296,320,62473,1,0,0:0:0:0:
408,112,62792,1,0,0:0:0:0:
136,60,63112,1,0,0:0:0:0:
136,60,63271,1,0,0:0:0:0:
112,252,63591,1,0,0:0:0:0:
108,260,63750,2,0,L|256:360,1,161.999995056153
392,224,64388,5,0,0:0:0:0:
112,92,64707,1,0,0:0:0:0:
248,320,65026,1,0,0:0:0:0:
256,320,65186,1,0,0:0:0:0:
380,48,65346,1,0,0:0:0:0:
376,44,65505,1,0,0:0:0:0:
100,164,65665,1,0,0:0:0:0:
100,164,65824,1,0,0:0:0:0:
104,168,65984,2,0,L|252:280,1,161.999995056153
344,68,66463,2,0,L|432:28,3,80.9999975280763
344,284,67260,6,0,B|428:240|424:240|436:220,1,90
112,60,67580,5,0,0:0:0:0:
256,344,67739,1,0,0:0:0:0:
420,64,67899,1,0,0:0:0:0:
104,236,68058,1,0,0:0:0:0:
392,284,68218,2,0,B|364:172|364:176,1,90
148,96,68537,2,0,L|160:204,2,90
296,284,69016,1,0,0:0:0:0:
296,284,69175,1,0,0:0:0:0:
296,284,69335,2,0,L|184:336,1,90
400,344,69814,5,0,0:0:0:0:
108,272,69973,1,0,0:0:0:0:
364,264,70133,1,0,0:0:0:0:
68,152,70292,1,0,0:0:0:0:
320,172,70452,1,0,0:0:0:0:
56,44,70612,1,0,0:0:0:0:
344,92,70771,2,0,L|444:64,1,90
400,296,71090,2,0,L|288:336,1,90
96,72,71409,5,0,0:0:0:0:
356,328,71569,1,0,0:0:0:0:
352,48,71729,1,0,0:0:0:0:
128,320,71888,1,0,0:0:0:0:
200,40,72048,1,0,0:0:0:0:
404,332,72207,1,0,0:0:0:0:
84,96,72367,1,0,0:0:0:0:
436,64,72526,2,0,L|408:160,1,90
92,236,72846,5,0,0:0:0:0:
372,44,73005,1,0,0:0:0:0:
316,320,73165,1,0,0:0:0:0:
136,56,73324,1,0,0:0:0:0:
440,216,73484,1,0,0:0:0:0:
108,292,73643,1,0,0:0:0:0:
240,80,73803,2,0,L|332:108,2,90
432,268,74282,2,0,L|480:160,1,90
248,256,74601,2,0,L|184:360,1,90
108,156,74920,5,0,0:0:0:0:
320,64,75239,1,0,0:0:0:0:
320,64,75399,1,0,0:0:0:0:
400,312,75558,1,0,0:0:0:0:
400,312,75718,1,0,0:0:0:0:
104,128,75878,1,0,0:0:0:0:
104,128,76037,1,0,0:0:0:0:
304,44,76197,6,0,L|352:124,1,90
128,324,76516,6,0,L|80:212,1,90
396,300,76835,6,0,L|436:188,1,90
168,96,77154,1,0,0:0:0:0:
256,192,77473,12,0,81622,0:0:0:0:
388,40,81941,5,0,0:0:0:0:
388,40,82101,6,0,P|460:216|464:220,1,161.999995056153
448,268,82580,1,0,0:0:0:0:
264,324,82739,1,0,0:0:0:0:
316,180,82899,1,0,0:0:0:0:
224,80,83058,1,0,0:0:0:0:
120,40,83218,6,0,L|80:128,1,80.9999975280763
112,316,83537,1,0,0:0:0:0:
112,312,83697,1,0,0:0:0:0:
112,316,83856,1,0,0:0:0:0:
296,48,84175,1,0,0:0:0:0:
368,328,84495,5,0,0:0:0:0:
368,328,84654,2,0,L|200:224,1,161.999995056153
88,152,85133,1,0,0:0:0:0:
388,52,85452,1,0,0:0:0:0:
392,332,85771,1,0,0:0:0:0:
128,232,86090,5,0,0:0:0:0:
132,236,86250,1,0,0:0:0:0:
404,48,86409,2,0,L|388:128,1,80.9999975280763
172,192,86729,6,0,L|192:84,1,80.9999975280763
420,304,87048,6,0,L|440:204,1,80.9999975280763
156,264,87367,1,0,0:0:0:0:
156,264,87526,1,0,0:0:0:0:
