osu file format v14

[General]
AudioFilename: audio.mp3
AudioLeadIn: 0
PreviewTime: 112551
Countdown: 0
SampleSet: Soft
StackLeniency: 0.4
Mode: 0
LetterboxInBreaks: 0
WidescreenStoryboard: 0

[Editor]
Bookmarks: 450,5556,15769,25981,36194,46407,56620,66832,77045,87258,92364,102577,112790,123003,133215,143428,153641,165130,175343,185556,195769,205981,216832
DistanceSpacing: 1
BeatDivisor: 2
GridSize: 4
TimelineZoom: 2.999999

[Metadata]
Title:Uso no Hibana
TitleUnicode:嘘の火花
Artist:96neko
ArtistUnicode:96猫
Creator:lit120
Version:Lies
Source:クズの本懐
Tags:kuzu no honkai opening full size -Hakurei-
BeatmapID:4281645
BeatmapSetID:840689

[Difficulty]
HPDrainRate:6.5
CircleSize:4.5
OverallDifficulty:9.5
ApproachRate:9.6
SliderMultiplier:1.85
SliderTickRate:1

[Events]
//Background and Video events
0,0,"lit120.jpg",0,0
//Break Periods
2,165330,171643
//Storyboard Layer 0 (Background)
//Storyboard Layer 1 (Fail)
//Storyboard Layer 2 (Pass)
//Storyboard Layer 3 (Foreground)
//Storyboard Layer 4 (Overlay)
//Storyboard Sound Samples

[TimingPoints]
450,319.148936170213,4,2,1,60,1,0
450,-166.666666666667,4,2,1,60,0,0
4279,-100,4,2,1,70,0,0
4359,-100,4,2,1,5,0,0
4439,-66.6666666666667,4,2,1,70,0,0
4678,-66.6666666666667,4,2,1,5,0,0
4758,-66.6666666666667,4,2,1,70,0,0
4997,-66.6666666666667,4,2,1,5,0,0
5077,-66.6666666666667,4,2,1,70,0,0
5317,-66.6666666666667,4,2,1,5,0,0
5396,-66.6666666666667,4,2,1,70,0,0
5556,-83.3333333333333,4,2,1,80,0,0
15769,-133.333333333333,4,2,1,50,0,0
24705,-100,4,2,1,60,0,0
24944,-100,4,2,1,5,0,0
25024,-100,4,2,1,60,0,0
25423,-100,4,2,1,5,0,0
25503,-100,4,2,1,60,0,0
25981,-100,4,2,1,70,0,0
35476,-100,4,2,1,5,0,0
35556,-66.6666666666667,4,2,1,70,0,0
35636,-66.6666666666667,4,2,1,5,0,0
35715,-66.6666666666667,4,2,1,70,0,0
35795,-66.6666666666667,4,2,1,5,0,0
35875,-66.6666666666667,4,2,1,70,0,0
35955,-66.6666666666667,4,2,1,5,0,0
36035,-66.6666666666667,4,2,1,70,0,0
36194,-83.3333333333333,4,2,1,80,0,1
45130,-83.3333333333333,4,2,1,80,0,0
45529,-83.3333333333333,4,2,1,5,0,0
45609,-83.3333333333333,4,2,1,80,0,0
45689,-83.3333333333333,4,2,1,5,0,0
45769,-83.3333333333333,4,2,1,80,0,0
46008,-83.3333333333333,4,2,1,5,0,0
46088,-83.3333333333333,4,2,1,80,0,0
46327,-83.3333333333333,4,2,1,5,0,0
46407,-71.4285714285714,4,2,1,80,0,1
54146,-71.4285714285714,4,2,1,5,0,1
54226,-71.4285714285714,4,2,1,80,0,1
54465,-71.4285714285714,4,2,1,5,0,1
54545,-71.4285714285714,4,2,1,80,0,1
54944,-71.4285714285714,4,2,1,5,0,1
55024,-71.4285714285714,4,2,1,80,0,1
55104,-71.4285714285714,4,2,1,5,0,1
55184,-71.4285714285714,4,2,1,80,0,1
55423,-71.4285714285714,4,2,1,5,0,1
55503,-71.4285714285714,4,2,1,80,0,1
55582,-71.4285714285714,4,2,1,5,0,1
55662,-71.4285714285714,4,2,1,80,0,1
56620,-133.333333333333,4,2,1,60,0,0
64279,-100,4,2,1,70,0,0
65715,-66.6666666666667,4,2,1,70,0,0
65795,-66.6666666666667,4,2,1,5,0,0
65875,-66.6666666666667,4,2,1,70,0,0
65955,-66.6666666666667,4,2,1,5,0,0
66035,-66.6666666666667,4,2,1,70,0,0
66114,-66.6666666666667,4,2,1,5,0,0
66194,-66.6666666666667,4,2,1,70,0,0
66832,-83.3333333333333,4,2,1,80,0,1
77045,-133.333333333333,4,2,1,60,0,0
85343,-100,4,2,1,60,0,0
85423,-100,4,2,1,5,0,0
85503,-100,4,2,1,60,0,0
85582,-100,4,2,1,5,0,0
85662,-100,4,2,1,60,0,0
85742,-100,4,2,1,5,0,0
85822,-100,4,2,1,60,0,0
85902,-100,4,2,1,5,0,0
85981,-100,4,2,1,60,0,0
86061,-100,4,2,1,5,0,0
86141,-100,4,2,1,60,0,0
86221,-100,4,2,1,5,0,0
86301,-100,4,2,1,60,0,0
86380,-100,4,2,1,5,0,0
86460,-100,4,2,1,60,0,0
91088,-100,4,2,1,70,0,0
91487,-100,4,2,1,5,0,0
91567,-100,4,2,1,70,0,0
91646,-100,4,2,1,5,0,0
91726,-100,4,2,1,70,0,0
91806,-100,4,2,1,5,0,0
91886,-100,4,2,1,70,0,0
92604,-100,4,2,1,5,0,0
92684,-100,4,2,1,70,0,0
95157,-100,4,2,1,5,0,0
95237,-100,4,2,1,70,0,0
97710,-100,4,2,1,5,0,0
97790,-100,4,2,1,70,0,0
101380,-100,4,2,1,5,0,0
101460,-100,4,2,1,70,0,0
102019,-100,4,2,1,5,0,0
102098,-100,4,2,1,70,0,0
112072,-100,4,2,1,5,0,0
112152,-66.6666666666667,4,2,1,70,0,0
112231,-66.6666666666667,4,2,1,5,0,0
112311,-66.6666666666667,4,2,1,70,0,0
112790,-83.3333333333333,4,2,1,80,0,1
121726,-83.3333333333333,4,2,1,80,0,0
122125,-83.3333333333333,4,2,1,5,0,0
122205,-83.3333333333333,4,2,1,80,0,0
122285,-83.3333333333333,4,2,1,5,0,0
122364,-83.3333333333333,4,2,1,80,0,0
122604,-83.3333333333333,4,2,1,5,0,0
122684,-83.3333333333333,4,2,1,80,0,0
123003,-71.4285714285714,4,2,1,80,0,1
130742,-71.4285714285714,4,2,1,5,0,1
130822,-71.4285714285714,4,2,1,80,0,1
131061,-71.4285714285714,4,2,1,5,0,1
131141,-71.4285714285714,4,2,1,80,0,1
131221,-71.4285714285714,4,2,1,5,0,1
131301,-71.4285714285714,4,2,1,80,0,1
131540,-71.4285714285714,4,2,1,5,0,1
131620,-71.4285714285714,4,2,1,80,0,1
131700,-71.4285714285714,4,2,1,5,0,1
131779,-71.4285714285714,4,2,1,80,0,1
132019,-71.4285714285714,4,2,1,5,0,1
132098,-71.4285714285714,4,2,1,80,0,1
132178,-71.4285714285714,4,2,1,5,0,1
132258,-71.4285714285714,4,2,1,80,0,1
133215,-133.333333333333,4,2,1,60,0,0
140875,-100,4,2,1,60,0,0
142311,-66.6666666666667,4,2,1,60,0,0
142391,-66.6666666666667,4,2,1,5,0,0
142471,-66.6666666666667,4,2,1,60,0,0
142551,-66.6666666666667,4,2,1,5,0,0
142630,-66.6666666666667,4,2,1,60,0,0
142710,-66.6666666666667,4,2,1,5,0,0
142790,-66.6666666666667,4,2,1,60,0,0
143428,-71.4285714285714,4,2,1,80,0,0
153082,-71.4285714285714,4,2,1,5,0,0
153162,-71.4285714285714,4,2,1,80,0,0
153242,-71.4285714285714,4,2,1,5,0,0
153322,-71.4285714285714,4,2,1,80,0,0
154359,-71.4285714285714,4,2,1,5,0,0
154439,-71.4285714285714,4,2,1,80,0,0
154519,-71.4285714285714,4,2,1,5,0,0
154598,-71.4285714285714,4,2,1,80,0,0
154838,-71.4285714285714,4,2,1,5,0,0
155077,-142.857142857143,4,2,1,80,0,0
155556,-71.4285714285714,4,2,1,80,0,0
156912,-71.4285714285714,4,2,1,5,0,0
156992,-71.4285714285714,4,2,1,80,0,0
157072,-71.4285714285714,4,2,1,5,0,0
157152,-71.4285714285714,4,2,1,80,0,0
158029,-71.4285714285714,4,2,1,5,0,0
158109,-71.4285714285714,4,2,1,80,0,0
158189,-71.4285714285714,4,2,1,5,0,0
158269,-71.4285714285714,4,2,1,80,0,0
158348,-71.4285714285714,4,2,1,5,0,0
158428,-71.4285714285714,4,2,1,80,0,0
158508,-71.4285714285714,4,2,1,5,0,0
158588,-71.4285714285714,4,2,1,80,0,0
158668,-71.4285714285714,4,2,1,5,0,0
158747,-71.4285714285714,4,2,1,80,0,0
159465,-71.4285714285714,4,2,1,5,0,0
159545,-71.4285714285714,4,2,1,80,0,0
159625,-71.4285714285714,4,2,1,5,0,0
159705,-71.4285714285714,4,2,1,80,0,0
159785,-71.4285714285714,4,2,1,5,0,0
159864,-71.4285714285714,4,2,1,80,0,0
159944,-71.4285714285714,4,2,1,5,0,0
160024,-71.4285714285714,4,2,1,80,0,0
160104,-71.4285714285714,4,2,1,5,0,0
160184,-71.4285714285714,4,2,1,80,0,0
160423,-71.4285714285714,4,2,1,5,0,0
160503,-71.4285714285714,4,2,1,80,0,0
160582,-71.4285714285714,4,2,1,5,0,0
160662,-71.4285714285714,4,2,1,80,0,0
161380,-71.4285714285714,4,2,1,5,0,0
161460,-71.4285714285714,4,2,1,80,0,0
162019,-71.4285714285714,4,2,1,5,0,0
162098,-71.4285714285714,4,2,1,80,0,0
162338,-71.4285714285714,4,2,1,5,0,0
162418,-71.4285714285714,4,2,1,80,0,0
162497,-71.4285714285714,4,2,1,5,0,0
162577,-71.4285714285714,4,2,1,80,0,0
162817,-71.4285714285714,4,2,1,5,0,0
162896,-71.4285714285714,4,2,1,80,0,0
162976,-71.4285714285714,4,2,1,5,0,0
163056,-71.4285714285714,4,2,1,80,0,0
163295,-71.4285714285714,4,2,1,5,0,0
163375,-71.4285714285714,4,2,1,80,0,0
163455,-71.4285714285714,4,2,1,5,0,0
163535,-71.4285714285714,4,2,1,80,0,0
163774,-71.4285714285714,4,2,1,5,0,0
163854,-50,4,2,1,80,0,0
163934,-50,4,2,1,5,0,0
164013,-50,4,2,1,80,0,0
164253,-50,4,2,1,5,0,0
164332,-50,4,2,1,80,0,0
164412,-50,4,2,1,5,0,0
164492,-50,4,2,1,80,0,0
164572,-50,4,2,1,5,0,0
164652,-50,4,2,1,80,0,0
164731,-50,4,2,1,5,0,0
164811,-50,4,2,1,80,0,0
164891,-50,4,2,1,5,0,0
164971,-50,4,2,1,80,0,0
165051,-50,4,2,1,5,0,0
165130,-50,4,2,1,80,0,0
172152,-166.666666666667,4,2,1,60,0,0
172710,-166.666666666667,4,2,1,5,0,0
172790,-86.9565217391304,4,2,1,70,0,0
173029,-86.9565217391304,4,2,1,5,0,0
173109,-86.9565217391304,4,2,1,70,0,0
173348,-86.9565217391304,4,2,1,5,0,0
173428,-86.9565217391304,4,2,1,70,0,0
174067,-166.666666666667,4,2,1,70,0,0
175263,-166.666666666667,4,2,1,5,0,0
175343,-71.4285714285714,4,2,1,80,0,1
183082,-71.4285714285714,4,2,1,5,0,1
183162,-71.4285714285714,4,2,1,80,0,1
183402,-71.4285714285714,4,2,1,5,0,1
183481,-71.4285714285714,4,2,1,80,0,1
183561,-71.4285714285714,4,2,1,5,0,1
183641,-71.4285714285714,4,2,1,80,0,1
183880,-71.4285714285714,4,2,1,5,0,1
183960,-71.4285714285714,4,2,1,80,0,1
184040,-71.4285714285714,4,2,1,5,0,1
184120,-71.4285714285714,4,2,1,80,0,1
184359,-71.4285714285714,4,2,1,5,0,1
184439,-71.4285714285714,4,2,1,80,0,1
184519,-71.4285714285714,4,2,1,5,0,1
184598,-71.4285714285714,4,2,1,80,0,1
185556,-133.333333333333,4,2,1,60,0,0
193215,-100,4,2,1,60,0,0
194652,-66.6666666666667,4,2,1,60,0,0
194731,-66.6666666666667,4,2,1,5,0,0
194811,-66.6666666666667,4,2,1,60,0,0
194891,-66.6666666666667,4,2,1,5,0,0
194971,-66.6666666666667,4,2,1,60,0,0
195051,-66.6666666666667,4,2,1,5,0,0
195130,-66.6666666666667,4,2,1,60,0,0
195769,-83.3333333333333,4,2,1,80,0,1
205981,-133.333333333333,4,2,1,60,0,0
214279,-100,4,2,1,60,0,0
214359,-100,4,2,1,5,0,0
214439,-100,4,2,1,60,0,0
214519,-100,4,2,1,5,0,0
214598,-100,4,2,1,60,0,0
214678,-100,4,2,1,5,0,0
214758,-100,4,2,1,60,0,0
214838,-100,4,2,1,5,0,0
214918,-100,4,2,1,60,0,0
214997,-100,4,2,1,5,0,0
215077,-62.5,4,2,1,60,0,0
215636,-62.5,4,2,1,5,0,0
215715,-62.5,4,2,1,60,0,0
215795,-62.5,4,2,1,5,0,0
215875,-62.5,4,2,1,60,0,0
215955,-62.5,4,2,1,5,0,0
216035,-133.333333333333,4,2,1,60,0,0
216832,-200,4,2,1,10,0,0

[Colours]
Combo1 : 63,106,180
Combo2 : 224,78,129
Combo3 : 211,163,168
Combo4 : 164,96,140

[HitObjects]
79,94,450,6,0,B|75:41|120:27|120:27|175:75|164:135|127:186|127:186|252:202|250:373|112:410|51:383|45:254|124:271,1,665.999979675294,4|0,3:2|0:0,0:0:0:0:
309,213,2524,5,8,0:3:0:0:
384,244,2684,1,8,0:3:0:0:
353,320,2844,1,4,0:3:0:0:
276,288,3003,1,0,3:2:0:0:
276,288,3801,5,8,0:0:0:0:
272,269,3880,1,8,0:0:0:0:
269,251,3960,1,8,0:0:0:0:
265,233,4040,1,8,0:0:0:0:
262,215,4120,1,8,0:0:0:0:
258,197,4200,1,8,0:0:0:0:
255,179,4279,2,0,L|246:133,1,46.25,2|0,3:2|0:0,0:0:0:0:
100,16,4439,5,8,0:0:0:0:
81,68,4519,1,8,0:0:0:0:
124,100,4598,2,0,P|157:92|191:84,1,69.3750026464463,8|0,0:0|0:0,0:0:0:0:
337,202,4758,5,8,0:0:0:0:
356,150,4838,1,8,0:0:0:0:
313,118,4918,2,0,P|279:125|245:133,1,69.3750026464463,8|0,0:0|0:0,0:0:0:0:
87,337,5077,5,8,3:2:0:0:
129,301,5157,1,8,0:0:0:0:
184,308,5237,2,0,P|249:313|313:317,1,69.3750026464463,8|0,3:2|0:0,0:0:0:0:
451,176,5396,5,8,3:2:0:0:
410,140,5476,1,8,0:0:0:0:
356,150,5556,5,6,3:2:0:0:
238,120,5715,1,2,0:0:0:0:
442,32,5875,1,10,0:0:0:0:
407,266,6035,1,2,0:0:0:0:
230,106,6194,2,0,P|168:115|94:124,1,110.999996612549,2|0,3:2|0:0,0:0:0:0:
359,8,6513,1,10,0:0:0:0:
246,134,6673,1,2,0:0:0:0:
449,273,6832,5,2,3:2:0:0:
360,373,6992,1,2,0:0:0:0:
318,245,7152,2,0,P|326:174|336:87,1,110.999996612549,10|0,0:0|0:0,0:0:0:0:
63,273,7471,5,2,3:2:0:0:
152,373,7630,1,2,0:0:0:0:
194,245,7790,2,0,P|185:174|175:87,1,110.999996612549,10|0,0:0|0:0,0:0:0:0:
446,289,8109,5,2,3:2:0:0:
305,237,8269,1,2,0:0:0:0:
486,209,8428,1,10,0:0:0:0:
264,316,8588,1,2,0:0:0:0:
353,117,8747,2,0,P|341:64|322:-28,1,110.999996612549,2|0,3:2|0:0,0:0:0:0:
183,249,9067,1,10,0:0:0:0:
329,139,9226,1,2,0:0:0:0:
137,57,9386,5,2,3:2:0:0:
66,193,9545,1,2,0:0:0:0:
170,158,9705,1,10,0:0:0:0:
33,90,9864,1,2,0:0:0:0:
148,265,10024,5,2,3:2:0:0:
431,170,10184,1,2,0:0:0:0:
242,76,10343,1,10,0:0:0:0:
337,359,10503,1,2,0:0:0:0:
242,76,10662,5,2,3:2:0:0:
365,228,10822,1,2,0:0:0:0:
142,147,10981,1,10,0:0:0:0:
352,4,11141,1,2,0:0:0:0:
154,59,11301,2,0,P|58:48|-3:44,1,110.999996612549,2|0,3:2|0:0,0:0:0:0:
281,184,11620,1,10,0:0:0:0:
147,274,11779,1,2,0:0:0:0:
266,29,11939,5,2,3:2:0:0:
150,132,12098,1,2,0:0:0:0:
357,171,12258,2,0,P|437:164|504:161,1,110.999996612549,10|0,0:0|0:0,0:0:0:0:
246,355,12577,5,2,3:2:0:0:
362,252,12737,1,2,0:0:0:0:
155,213,12896,2,0,P|75:220|8:223,1,110.999996612549,10|0,0:0|0:0,0:0:0:0:
266,29,13215,6,0,P|253:115|246:170,1,110.999996612549,2|0,3:2|0:0,0:0:0:0:
246,355,13535,1,10,0:0:0:0:
354,269,13694,1,2,0:0:0:0:
145,186,13854,5,2,3:2:0:0:
281,149,14013,1,2,0:0:0:0:
43,85,14173,1,10,0:0:0:0:
108,322,14332,1,2,0:0:0:0:
267,57,14492,5,10,3:2:0:0:
296,364,14652,1,2,0:0:0:0:
91,132,14811,1,2,3:2:0:0:
394,199,14971,1,10,0:0:0:0:
108,322,15130,1,10,3:2:0:0:
453,282,15290,1,10,0:0:0:0:
487,238,15370,1,8,0:0:0:0:
494,188,15450,1,8,3:0:0:0:
480,146,15529,1,8,0:3:0:0:
453,117,15609,1,4,0:3:0:0:
423,102,15689,1,4,0:3:0:0:
395,97,15769,6,0,P|336:103|237:114,1,138.750005292893,2|0,3:2|0:0,0:0:0:0:
174,121,16247,1,2,3:2:0:0:
117,287,17045,6,0,P|176:281|275:270,1,138.750005292893,2|0,3:2|0:0,0:0:0:0:
338,263,17524,1,2,3:2:0:0:
256,192,17843,5,0,0:0:0:0:
256,192,18003,1,0,0:0:0:0:
103,3,18322,6,0,P|96:74|86:168,1,138.750005292893,2|0,3:2|0:0,0:0:0:0:
80,224,18801,1,2,3:2:0:0:
409,381,19598,6,0,P|416:310|426:216,1,138.750005292893,2|0,3:2|0:0,0:0:0:0:
432,160,20077,1,2,3:2:0:0:
256,192,20396,5,0,0:0:0:0:
256,192,20556,1,0,0:0:0:0:
141,56,20875,6,0,P|208:62|298:68,1,138.750005292893,2|0,3:2|0:0,0:0:0:0:
362,73,21354,1,2,3:2:0:0:
371,328,22152,6,0,P|304:322|214:316,1,138.750005292893,2|0,3:2|0:0,0:0:0:0:
150,311,22630,1,2,3:2:0:0:
258,189,22950,5,2,0:0:0:0:
256,195,23109,1,2,0:0:0:0:
252,191,23269,1,2,0:0:0:0:
368,315,23428,6,0,P|374:254|386:156,1,138.750005292893,2|0,3:2|0:0,0:0:0:0:
396,94,23907,1,2,3:2:0:0:
144,69,24705,5,8,0:2:0:0:
144,69,24785,1,8,0:0:0:0:
144,69,24864,2,0,L|136:138,1,46.25,0|0,3:2|0:0,0:0:0:0:
128,206,25024,1,0,3:2:0:0:
16,24,25184,5,8,0:0:0:0:
16,24,25263,1,8,0:0:0:0:
16,24,25343,2,0,L|23:93,1,46.25,0|0,3:2|0:0,0:0:0:0:
31,161,25503,1,0,3:2:0:0:
212,16,25662,5,10,0:0:0:0:
257,22,25742,1,10,0:0:0:0:
303,28,25822,1,10,0:0:0:0:
349,34,25902,1,10,0:0:0:0:
395,40,25981,5,6,3:2:0:0:
472,249,26141,1,2,0:0:0:0:
358,153,26301,1,10,0:0:0:0:
509,136,26460,1,2,0:0:0:0:
381,308,26620,2,0,P|315:300|268:296,1,92.5,2|0,3:2|0:0,0:0:0:0:
144,131,26939,2,0,P|190:126|235:120,1,92.5,10|0,0:0|0:0,0:0:0:0:
88,361,27258,6,0,P|79:298|68:240,1,92.5,2|0,3:2|0:0,0:0:0:0:
149,40,27577,1,10,0:0:0:0:
309,219,27737,1,2,0:0:0:0:
111,154,27896,1,2,3:2:0:0:
191,244,28056,1,2,0:0:0:0:
229,129,28215,2,0,P|231:63|235:11,1,92.5,10|0,0:0|0:0,0:0:0:0:
425,252,28535,5,2,3:2:0:0:
267,383,28694,1,2,0:0:0:0:
509,299,28854,1,10,0:0:0:0:
383,181,29013,2,0,P|302:201|257:209,1,92.5,2|0,0:0|3:2,0:0:0:0:
469,22,29332,2,0,P|461:92|458:144,1,92.5,2|8,0:0|0:0,0:0:0:0:
294,307,29652,6,0,P|302:237|305:185,1,92.5,2|0,0:0|3:2,0:0:0:0:
96,80,29971,2,0,P|169:90|225:96,1,92.5,2|8,0:0|0:0,0:0:0:0:
29,296,30290,2,0,P|6:249|28:196,1,92.5,2|0,0:0|3:2,0:0:0:0:
238,362,30609,2,0,P|160:349|119:346,1,92.5,2|8,0:0|0:0,0:0:0:0:
385,188,30928,2,0,P|339:197|294:202,1,92.5,2|0,0:0|3:2,0:0:0:0:
84,62,31247,5,2,0:0:0:0:
189,121,31407,1,10,0:0:0:0:
339,31,31567,2,0,P|293:24|248:16,1,92.5,2|0,0:0|3:2,0:0:0:0:
469,168,31886,5,2,0:0:0:0:
364,227,32045,1,10,0:0:0:0:
213,137,32205,2,0,P|258:130|304:121,1,92.5,2|0,0:0|3:2,0:0:0:0:
83,273,32524,5,2,0:0:0:0:
188,332,32684,1,10,0:0:0:0:
339,242,32843,2,0,P|293:235|247:226,1,92.5,2|0,0:0|3:2,0:0:0:0:
406,375,33162,2,0,P|451:366|497:359,1,92.5,2|8,0:0|0:0,0:0:0:0:
364,227,33481,1,2,0:0:0:0:
508,73,33641,6,0,P|496:144|492:192,1,92.5,2|0,3:2|0:0,0:0:0:0:
304,9,33960,2,0,P|316:80|320:128,1,92.5,8|0,0:0|0:0,0:0:0:0:
193,316,34279,1,2,3:2:0:0:
339,242,34439,1,0,0:0:0:0:
173,149,34598,1,10,0:0:0:0:
286,383,34758,1,2,0:0:0:0:
395,193,34918,6,0,B|460:181|460:181|397:363|397:363|354:315,1,323.75,2|0,3:2|0:0,0:0:0:0:
276,229,35556,6,0,B|311:222|311:222|339:242,1,69.3750026464463,8|0,0:0|0:0,0:0:0:0:
98,335,35715,2,0,B|86:368|86:368|55:382,1,69.3750026464463,8|0,0:0|0:0,0:0:0:0:
95,127,35875,2,0,B|71:99|71:99|74:66,1,69.3750026464463,8|0,0:0|0:0,0:0:0:0:
339,242,36035,1,10,0:0:0:0:
380,205,36114,1,10,0:0:0:0:
363,163,36194,5,6,3:2:0:0:
181,29,36354,1,2,0:0:0:0:
329,253,36513,1,10,0:0:0:0:
418,67,36673,1,2,0:0:0:0:
191,256,36832,5,2,3:2:0:0:
129,124,36992,1,2,0:0:0:0:
224,160,37152,1,10,0:0:0:0:
93,221,37311,1,2,0:0:0:0:
208,60,37471,5,2,3:2:0:0:
290,239,37630,1,2,0:0:0:0:
112,319,37790,2,0,P|28:305|-21:299,1,110.999996612549,10|0,0:0|0:0,0:0:0:0:
224,160,38109,1,2,3:2:0:0:
365,347,38269,2,0,P|372:285|383:223,1,110.999996612549,2|8,0:0|0:0,0:0:0:0:
509,27,38588,6,0,B|422:40|422:40|398:80|398:80|312:94,1,221.999993225098,2|0,0:0|0:0,0:0:0:0:
91,236,39067,1,10,0:0:0:0:
224,65,39226,1,2,0:0:0:0:
98,15,39386,5,2,3:2:0:0:
217,286,39545,1,2,0:0:0:0:
85,220,39705,1,10,0:0:0:0:
229,80,39864,1,2,0:0:0:0:
347,340,40024,5,2,3:2:0:0:
391,236,40184,1,2,0:0:0:0:
243,295,40343,5,10,0:2:0:0:
287,192,40503,1,2,0:0:0:0:
457,326,40662,5,2,3:2:0:0:
176,205,40822,2,0,P|94:217|31:223,1,110.999996612549,2|8,0:0|0:0,0:0:0:0:
348,6,41141,6,0,P|335:72|327:131,1,110.999996612549,2|0,0:0|3:2,0:0:0:0:
164,6,41460,2,0,P|177:72|185:131,1,110.999996612549,2|8,0:0|0:0,0:0:0:0:
419,147,41779,6,0,P|387:191|361:241,1,110.999996612549,2|0,0:0|3:2,0:0:0:0:
93,147,42098,2,0,P|125:191|151:241,1,110.999996612549,2|8,0:0|0:2,0:0:0:0:
481,298,42418,6,0,P|434:328|393:366,1,110.999996612549,2|0,0:0|3:2,0:0:0:0:
30,298,42737,2,0,P|77:328|118:366,1,110.999996612549,2|8,0:0|0:0,0:0:0:0:
256,113,43056,6,0,L|256:2,1,110.999996612549,2|0,0:0|3:2,0:0:0:0:
140,204,43375,1,2,0:0:0:0:
372,204,43535,1,10,0:0:0:0:
256,138,43694,1,2,0:0:0:0:
139,338,43854,6,0,P|134:267|124:198,1,110.999996612549,2|0,3:2|0:0,0:0:0:0:
373,46,44173,2,0,P|378:117|388:186,1,110.999996612549,10|0,0:0|0:0,0:0:0:0:
110,75,44492,2,0,P|181:70|250:60,1,110.999996612549,2|0,3:2|0:0,0:0:0:0:
402,309,44811,1,10,0:0:0:0:
256,192,44971,1,2,0:0:0:0:
388,58,45130,5,8,0:3:0:0:
308,11,45290,1,10,0:0:0:0:
308,11,45370,1,8,0:0:0:0:
308,11,45450,2,0,P|296:44|300:91,1,55.4999983062745,10|0,0:0|0:0,0:0:0:0:
467,104,45610,2,0,P|478:70|474:23,1,55.4999983062745,10|0,0:0|0:0,0:0:0:0:
366,148,45769,5,10,0:0:0:0:
366,148,45848,1,8,0:0:0:0:
366,148,45928,2,0,P|370:184|372:214,1,55.4999983062745,10|0,0:0|0:0,0:0:0:0:
495,320,46088,1,8,0:0:0:0:
495,320,46168,1,8,0:0:0:0:
495,320,46247,2,0,P|491:284|489:254,1,55.4999983062745,8|0,0:3|0:0,0:0:0:0:
256,383,46407,5,6,3:2:0:0:
143,151,46567,1,2,0:0:0:0:
358,288,46726,1,10,0:0:0:0:
471,56,46886,1,2,0:0:0:0:
232,242,47045,5,2,3:2:0:0:
461,142,47205,1,2,0:0:0:0:
248,4,47364,1,10,0:0:0:0:
352,146,47524,1,2,0:0:0:0:
134,295,47684,5,2,3:2:0:0:
44,196,47843,1,2,0:0:0:0:
241,108,48003,5,10,0:0:0:0:
255,240,48162,1,2,0:0:0:0:
111,81,48322,5,2,3:2:0:0:
221,328,48481,2,0,P|296:316|378:302,1,129.499996047974,2|8,0:0|0:0,0:0:0:0:
483,69,48801,6,0,P|395:76|367:128,1,129.499996047974,2|0,0:0|3:2,0:0:0:0:
206,324,49120,1,2,0:0:0:0:
409,191,49279,1,10,0:0:0:0:
170,237,49439,1,2,0:0:0:0:
445,278,49598,5,2,3:2:0:0:
240,103,49758,1,2,0:0:0:0:
349,380,49918,1,10,0:0:0:0:
96,321,50077,1,2,0:0:0:0:
342,175,50237,5,2,3:2:0:0:
314,301,50396,1,2,0:0:0:0:
167,93,50556,5,10,0:0:0:0:
195,219,50715,1,2,0:0:0:0:
370,49,50875,5,2,3:2:0:0:
130,167,51035,2,0,P|65:162|0:159,1,129.499996047974,2|8,0:0|0:0,0:0:0:0:
175,14,51354,6,0,P|211:102|192:163,1,129.499996047974,2|0,0:0|3:2,0:0:0:0:
337,370,51673,2,0,P|301:282|320:221,1,129.499996047974,2|8,0:0|0:0,0:0:0:0:
369,32,51992,6,0,P|311:108|249:122,1,129.499996047974,2|0,0:0|3:2,0:0:0:0:
142,351,52311,2,0,P|200:275|262:261,1,129.499996047974,2|8,0:0|0:0,0:0:0:0:
450,210,52630,6,0,P|356:198|313:151,1,129.499996047974,2|0,0:0|3:2,0:0:0:0:
61,173,52950,2,0,P|155:185|198:232,1,129.499996047974,2|8,0:0|0:0,0:0:0:0:
337,370,53269,6,0,P|301:282|320:221,1,129.499996047974,2|0,0:0|3:2,0:0:0:0:
175,14,53588,1,2,0:0:0:0:
61,173,53747,1,10,0:0:0:0:
282,119,53907,1,2,0:0:0:0:
182,316,54067,6,0,L|159:248,1,64.7499980239869,2|0,3:2|0:0,0:0:0:0:
95,49,54226,1,8,0:0:0:0:
95,49,54306,1,8,0:0:0:0:
95,49,54386,2,0,L|117:116,1,64.7499980239869,10|0,3:2|0:0,0:0:0:0:
138,182,54545,1,8,0:3:0:0:
270,139,54705,5,10,3:2:0:0:
270,139,54785,1,8,0:0:0:0:
270,139,54864,2,0,L|208:159,1,64.7499980239869,8|0,0:0|0:0,0:0:0:0:
5,226,55024,2,0,L|66:205,1,64.7499980239869,10|0,3:2|0:0,0:0:0:0:
175,39,55184,5,10,0:0:0:0:
175,39,55263,1,8,0:0:0:0:
175,39,55343,2,0,P|236:48|266:50,1,64.7499980239869,10|0,3:2|0:0,0:0:0:0:
365,239,55503,2,0,P|304:230|274:228,1,64.7499980239869,8|0,0:3|0:0,0:0:0:0:
32,343,55662,5,8,3:2:0:0:
83,370,55742,1,8,0:0:0:0:
141,364,55822,1,10,0:0:0:0:
185,327,55902,1,8,0:0:0:0:
201,272,55981,1,8,3:2:0:0:
183,218,56061,1,8,0:0:0:0:
138,182,56141,1,10,0:0:0:0:
94,142,56221,1,8,0:0:0:0:
87,83,56301,1,8,3:2:0:0:
110,30,56380,1,8,0:0:0:0:
166,15,56460,1,10,0:0:0:0:
221,33,56540,1,8,0:0:0:0:
239,88,56620,5,6,3:2:0:0:
270,164,56779,1,2,0:0:0:0:
352,157,56939,1,2,0:0:0:0:
372,77,57098,1,2,0:0:0:0:
302,34,57258,1,2,0:0:0:0:
302,34,57577,5,2,0:0:0:0:
372,77,57737,1,2,0:0:0:0:
352,157,57896,1,2,0:0:0:0:
270,164,58056,1,2,0:0:0:0:
239,88,58215,1,2,0:0:0:0:
239,88,58535,5,2,0:0:0:0:
270,164,58694,1,2,0:0:0:0:
352,157,58854,1,2,0:0:0:0:
372,77,59013,1,0,3:2:0:0:
503,278,59173,5,2,0:0:0:0:
428,242,59332,1,2,0:0:0:0:
346,249,59492,1,2,0:0:0:0:
279,297,59652,1,2,0:0:0:0:
244,371,59811,1,2,0:0:0:0:
244,371,60130,5,2,0:0:0:0:
279,297,60290,1,2,0:0:0:0:
135,184,60450,5,2,0:0:0:0:
170,258,60609,1,2,0:0:0:0:
244,223,60769,1,2,0:0:0:0:
209,149,60928,1,2,0:0:0:0:
88,251,61088,5,2,0:0:0:0:
142,102,61247,1,2,0:0:0:0:
291,156,61407,1,2,0:0:0:0:
237,305,61567,1,2,3:2:0:0:
84,165,61726,6,0,P|67:62|174:22,1,208.125007939339,2|0,3:2|0:0,0:0:0:0:
279,120,62364,2,0,P|210:109|142:102,1,138.750005292893,2|0,0:0|0:0,0:0:0:0:
331,28,62843,6,0,B|399:20|469:10|469:10|454:43|415:59,1,208.125007939339,2|0,0:0|0:0,0:0:0:0:
322,307,63641,2,0,B|308:356|308:356|357:342|357:342|322:307,1,138.750005292893,2|0,0:0|0:0,0:0:0:0:
302,232,64120,1,0,3:2:0:0:
174,343,64279,6,0,P|94:379|31:319,1,185,8|0,3:2|0:0,0:0:0:0:
69,81,64758,2,0,P|148:44|211:104,1,185,8|0,3:2|0:0,0:0:0:0:
106,302,65237,2,0,L|136:119,1,185,8|0,3:2|0:0,0:0:0:0:
387,311,65715,6,0,P|376:353|369:387,1,69.3750026464463,8|0,3:2|0:0,0:0:0:0:
223,197,65875,2,0,P|234:239|241:273,1,69.3750026464463,8|0,3:2|0:0,0:0:0:0:
440,118,66035,2,0,P|429:160|422:194,1,69.3750026464463,8|0,3:2|0:0,0:0:0:0:
169,3,66194,2,0,B|211:55|211:55|285:42,1,138.750005292893,8|0,0:0|0:0,0:0:0:0:
49,204,66513,1,10,0:0:0:0:
16,256,66593,1,10,0:0:0:0:
21,317,66673,1,10,0:0:0:0:
61,363,66753,1,10,0:0:0:0:
121,376,66832,5,6,0:0:0:0:
238,286,66992,1,2,0:0:0:0:
49,204,67152,1,10,0:0:0:0:
310,114,67311,1,2,0:0:0:0:
152,20,67471,2,0,P|168:117|172:182,1,110.999996612549,2|0,3:2|0:0,0:0:0:0:
256,378,67790,1,10,0:0:0:0:
128,267,67950,1,2,0:0:0:0:
380,186,68109,5,2,3:2:0:0:
301,303,68269,1,2,0:0:0:0:
270,125,68428,2,0,P|276:66|281:-26,1,110.999996612549,10|0,0:0|0:0,0:0:0:0:
69,217,68747,5,2,3:2:0:0:
148,334,68907,1,2,0:0:0:0:
179,156,69067,2,0,P|173:97|168:5,1,110.999996612549,10|0,0:0|0:0,0:0:0:0:
324,300,69386,5,2,3:2:0:0:
157,245,69545,1,2,0:0:0:0:
364,224,69705,1,10,0:0:0:0:
117,321,69864,1,2,0:0:0:0:
284,376,70024,2,0,P|369:370|432:370,1,110.999996612549,2|0,3:2|0:0,0:0:0:0:
296,111,70342,1,10,0:0:0:0:
209,303,70503,1,2,0:0:0:0:
74,115,70662,5,2,3:2:0:0:
168,84,70821,1,2,0:0:0:0:
197,175,70981,1,10,0:0:0:0:
103,208,71141,1,2,0:0:0:0:
92,17,71301,5,2,3:2:0:0:
7,186,71460,1,2,0:0:0:0:
179,272,71619,1,10,0:0:0:0:
264,103,71779,1,2,0:0:0:0:
409,324,71939,5,2,3:2:0:0:
255,249,72098,1,2,0:0:0:0:
458,187,72258,1,10,0:0:0:0:
268,360,72418,1,2,0:0:0:0:
184,121,72577,2,0,P|192:50|198:-17,1,110.999996612549,2|0,3:2|0:0,0:0:0:0:
342,237,72896,1,10,0:0:0:0:
181,356,73056,1,2,0:0:0:0:
81,104,73215,5,2,3:2:0:0:
18,228,73375,1,2,0:0:0:0:
194,146,73535,2,0,P|277:152|341:157,1,110.999996612549,10|0,0:0|0:0,0:0:0:0:
439,316,73854,5,2,3:2:0:0:
502,192,74013,1,2,0:0:0:0:
326,274,74173,2,0,P|243:268|179:263,1,110.999996612549,10|0,0:0|0:0,0:0:0:0:
422,23,74492,6,0,P|409:118|402:187,1,110.999996612549,2|0,3:2|0:0,0:0:0:0:
288,362,74811,1,10,0:0:0:0:
435,234,74971,1,2,0:0:0:0:
220,172,75130,5,2,3:2:0:0:
443,43,75290,1,2,0:0:0:0:
345,302,75450,1,10,0:0:0:0:
205,146,75609,1,2,0:0:0:0:
373,163,75769,5,2,3:2:0:0:
137,219,75928,1,2,0:0:0:0:
434,250,76088,5,10,0:0:0:0:
77,134,76247,1,2,0:0:0:0:
478,153,76407,5,10,0:0:0:0:
33,230,76567,1,2,0:0:0:0:
242,13,76726,5,10,0:0:0:0:
246,71,76806,1,8,0:0:0:0:
251,131,76886,1,8,0:0:0:0:
256,192,76965,1,8,0:0:0:0:
262,252,77045,5,6,3:2:0:0:
257,327,77205,1,2,0:0:0:0:
181,346,77364,1,2,3:2:0:0:
140,280,77524,1,2,0:0:0:0:
190,223,77684,1,2,3:2:0:0:
190,223,78003,5,4,3:3:0:0:
140,280,78162,1,2,0:0:0:0:
181,346,78322,1,2,3:2:0:0:
257,327,78481,1,2,0:0:0:0:
262,252,78641,1,2,3:2:0:0:
262,252,78960,5,2,3:2:0:0:
257,327,79120,1,2,0:0:0:0:
181,346,79279,1,4,3:3:0:0:
20,21,79598,5,2,3:2:0:0:
35,94,79758,1,2,0:0:0:0:
91,144,79918,1,2,3:2:0:0:
165,150,80077,1,2,0:0:0:0:
229,109,80237,1,2,3:2:0:0:
229,109,80556,5,4,3:3:0:0:
165,150,80715,1,2,0:0:0:0:
91,144,80875,1,2,3:2:0:0:
35,94,81035,1,2,0:0:0:0:
20,21,81194,1,2,3:2:0:0:
20,21,81513,5,2,3:2:0:0:
35,94,81673,1,2,0:0:0:0:
91,144,81832,1,4,3:3:0:0:
276,12,82152,5,10,3:2:0:0:
303,13,82231,1,8,0:0:0:0:
329,23,82311,1,10,0:0:0:0:
350,41,82391,1,8,0:0:0:0:
364,65,82471,1,10,3:2:0:0:
376,87,82551,1,8,0:0:0:0:
398,104,82630,1,10,0:0:0:0:
423,114,82710,1,8,0:0:0:0:
451,116,82790,2,8,L|500:107,3,34.6875013232232,10|8|8|8,3:2|0:0|0:0|0:0,0:0:0:0:
454,191,83109,6,8,L|500:207,1,34.6875013232232,10|8,3:2|0:0,0:0:0:0:
419,257,83269,2,8,L|451:294,1,34.6875013232232,10|8,0:0|0:0,0:0:0:0:
355,297,83428,2,8,L|364:346,1,34.6875013232232,10|8,3:2|0:0,0:0:0:0:
280,299,83588,2,8,L|263:345,1,34.6875013232232,10|8,0:0|0:0,0:0:0:0:
214,263,83747,2,8,L|176:295,3,34.6875013232232,10|8|8|8,3:2|0:0|0:0|0:0,0:0:0:0:
174,199,84067,5,10,3:2:0:0:
176,171,84146,1,8,0:0:0:0:
178,143,84226,1,10,0:0:0:0:
180,115,84306,1,8,0:0:0:0:
182,88,84386,2,8,L|186:28,3,34.6875013232232,10|8|8|8,3:2|0:0|0:0|0:0,0:0:0:0:
111,8,84705,5,10,3:2:0:0:
76,7,84785,1,8,0:0:0:0:
45,21,84864,1,10,0:0:0:0:
23,48,84944,1,8,0:0:0:0:
15,81,85024,1,10,3:2:0:0:
23,115,85104,1,8,0:0:0:0:
44,141,85184,1,10,0:0:0:0:
66,168,85263,1,8,0:0:0:0:
76,201,85343,6,0,P|73:240|72:264,1,46.25,10|0,3:2|0:0,0:0:0:0:
171,381,85503,2,0,P|174:342|175:318,1,46.25,8|0,0:0|0:0,0:0:0:0:
33,338,85662,2,0,P|72:341|96:342,1,46.25,2|0,3:2|0:0,0:0:0:0:
213,243,85822,2,0,P|174:240|150:239,1,46.25,10|0,0:0|0:0,0:0:0:0:
343,336,85981,6,0,P|337:358|335:381,1,46.25,2|0,3:2|0:0,0:0:0:0:
231,249,86141,2,0,P|238:286|239:312,1,46.25,0|0,3:2|0:0,0:0:0:0:
389,150,86301,2,0,P|382:187|381:213,1,46.25,8|0,0:0|0:0,0:0:0:0:
185,63,86460,1,8,0:0:0:0:
185,63,86540,1,8,0:0:0:0:
185,63,86620,5,8,0:3:0:0:
84,206,86779,1,8,0:3:0:0:
81,30,86939,1,4,0:3:0:0:
187,168,87098,1,4,0:3:0:0:
16,118,87258,5,6,3:2:0:0:
16,118,88535,5,2,0:0:0:0:
16,118,89332,5,8,0:3:0:0:
88,81,89492,1,8,0:3:0:0:
125,154,89652,1,4,0:3:0:0:
50,192,89811,1,2,3:2:0:0:
50,192,90609,5,8,0:0:0:0:
54,211,90688,1,8,0:0:0:0:
57,229,90768,1,8,0:0:0:0:
61,247,90848,1,8,0:0:0:0:
64,265,90928,1,8,0:0:0:0:
68,283,91008,1,8,0:0:0:0:
71,301,91088,6,0,P|118:352|186:345,1,138.75,10|8,3:2|0:3,0:0:0:0:
189,266,91407,2,0,P|167:273|145:279,1,46.25,4|0,0:3|0:0,0:0:0:0:
323,372,91567,2,0,P|301:364|278:359,1,46.25,8|0,0:0|0:0,0:0:0:0:
437,216,91726,2,0,P|415:223|392:228,1,46.25,10|0,3:2|0:0,0:0:0:0:
210,122,91886,1,8,0:0:0:0:
181,74,91965,1,8,0:0:0:0:
222,36,92045,5,10,3:2:0:0:
245,38,92125,1,8,0:3:0:0:
268,40,92205,1,4,0:3:0:0:
290,43,92285,1,4,0:3:0:0:
312,45,92364,6,0,P|384:42|490:38,1,138.75,6|0,3:2|0:0,0:0:0:0:
483,66,92684,1,10,0:0:0:0:
359,130,92843,1,2,0:0:0:0:
505,197,93003,1,2,3:2:0:0:
372,154,93162,1,2,0:0:0:0:
427,304,93322,1,10,0:0:0:0:
364,180,93481,1,2,3:2:0:0:
212,353,93641,5,2,0:0:0:0:
275,229,93801,2,0,P|266:160|263:104,1,92.5,2|8,3:2|0:0,0:0:0:0:
112,21,94120,2,0,P|121:90|124:146,1,92.5,2|0,0:0|3:2,0:0:0:0:
88,214,94439,1,2,3:2:0:0:
261,115,94598,1,10,0:0:0:0:
94,4,94758,1,2,0:0:0:0:
194,207,94918,6,0,P|188:282|183:367,1,138.75,2|0,3:2|0:0,0:0:0:0:
211,369,95237,2,0,P|274:367|309:320,1,92.5,10|0,0:0|0:0,0:0:0:0:
453,205,95556,2,0,P|378:217|331:221,1,92.5,2|0,3:2|0:0,0:0:0:0:
202,61,95875,1,10,0:0:0:0:
277,249,96035,1,2,3:2:0:0:
386,20,96194,5,2,0:0:0:0:
499,129,96354,2,0,P|424:117|377:113,1,92.5,2|8,3:2|0:0,0:0:0:0:
203,40,96673,2,0,P|248:34|294:26,1,92.5,2|0,0:0|3:2,0:0:0:0:
183,192,96992,1,2,3:2:0:0:
389,316,97152,1,10,0:0:0:0:
302,182,97311,1,2,0:0:0:0:
180,377,97471,6,0,P|120:371|22:365,1,138.75,2|0,3:2|0:0,0:0:0:0:
4,341,97790,1,10,0:0:0:0:
155,270,97950,1,2,0:0:0:0:
11,97,98109,1,2,3:2:0:0:
45,232,98269,1,2,0:0:0:0:
199,51,98428,1,10,0:2:0:0:
165,186,98588,1,2,3:2:0:0:
313,350,98747,5,2,0:0:0:0:
418,235,98907,2,0,P|331:253|290:259,1,92.5,2|8,3:2|0:0,0:0:0:0:
182,119,99226,2,0,P|227:127|272:138,1,92.5,2|0,0:2|3:2,0:0:0:0:
407,61,99545,1,2,3:2:0:0:
316,247,99705,1,10,0:0:0:0:
471,374,99864,2,0,P|481:311|488:274,1,92.5,2|0,0:0|3:2,0:0:0:0:
275,379,100184,5,2,0:0:0:0:
389,306,100343,1,10,0:0:0:0:
192,254,100503,2,0,P|121:266|79:272,1,92.5,2|0,0:0|3:2,0:0:0:0:
237,5,100822,5,2,3:2:0:0:
123,78,100981,1,10,0:0:0:0:
320,130,101141,1,2,3:2:0:0:
203,324,101301,6,0,L|193:270,1,46.25,8|0,0:0|0:0,0:0:0:0:
173,163,101460,1,2,3:2:0:0:
171,152,101620,1,2,3:2:0:0:
22,368,101779,5,10,0:0:0:0:
22,368,101859,1,8,0:0:0:0:
22,368,101939,2,0,L|31:314,1,46.25,0|0,3:2|0:0,0:0:0:0:
52,207,102098,1,0,3:2:0:0:
266,378,102258,5,10,0:0:0:0:
311,373,102338,1,10,0:0:0:0:
358,368,102418,1,10,0:0:0:0:
404,365,102497,1,10,0:0:0:0:
450,362,102577,5,6,3:2:0:0:
284,247,102737,2,0,P|194:259|159:263,1,92.5,2|8,0:0|0:0,0:0:0:0:
340,151,103056,1,2,0:0:0:0:
145,38,103215,5,2,3:2:0:0:
176,152,103375,1,2,0:0:0:0:
289,4,103535,1,10,0:0:0:0:
258,118,103695,1,2,0:0:0:0:
1,72,103854,5,2,3:2:0:0:
156,149,104013,1,2,0:0:0:0:
11,244,104173,1,10,0:0:0:0:
56,155,104332,1,2,0:0:0:0:
193,341,104492,5,2,3:2:0:0:
66,327,104652,1,2,0:0:0:0:
176,152,104811,1,10,0:0:0:0:
303,166,104971,1,2,0:0:0:0:
424,380,105130,5,2,3:2:0:0:
331,239,105290,1,2,0:0:0:0:
448,263,105450,1,10,0:0:0:0:
307,356,105609,1,2,0:0:0:0:
192,175,105769,5,2,3:2:0:0:
98,315,105928,1,2,0:0:0:0:
215,291,106088,1,10,0:0:0:0:
74,198,106247,1,2,0:0:0:0:
217,29,106407,5,2,3:2:0:0:
342,147,106567,2,0,P|335:192|331:239,1,92.5,2|8,0:0|0:0,0:0:0:0:
139,381,106886,1,2,0:0:0:0:
254,217,107045,1,2,3:2:0:0:
80,172,107205,1,2,0:0:0:0:
246,366,107364,1,10,0:2:0:0:
350,132,107524,2,0,P|343:87|339:40,1,92.5,2|0,0:0|3:2,0:0:0:0:
156,241,107843,5,2,0:0:0:0:
61,165,108003,1,10,0:0:0:0:
171,12,108162,2,0,P|164:57|160:104,1,92.5,2|0,0:0|3:2,0:0:0:0:
329,266,108481,5,2,0:0:0:0:
424,190,108641,1,10,0:0:0:0:
314,37,108801,2,0,P|321:82|325:129,1,92.5,2|0,0:0|3:2,0:0:0:0:
232,343,109120,5,2,0:0:0:0:
137,267,109279,1,10,0:0:0:0:
247,114,109439,2,0,P|240:159|236:206,1,92.5,2|0,0:0|3:2,0:0:0:0:
359,382,109758,2,0,P|366:337|370:290,1,92.5,2|8,0:0|0:0,0:0:0:0:
235,97,110077,1,2,0:0:0:0:
40,264,110237,6,0,P|97:256|148:250,1,92.5,2|0,3:2|0:0,0:0:0:0:
338,126,110556,2,0,P|292:120|247:114,1,92.5,10|0,0:0|0:0,0:0:0:0:
14,12,110875,1,2,3:2:0:0:
92,140,111035,1,2,0:0:0:0:
238,11,111194,1,10,0:0:0:0:
129,238,111354,1,2,0:0:0:0:
353,116,111513,6,0,B|318:105|302:72|302:72|270:148|358:172|326:248|326:248|309:215|275:205,1,323.75,2|0,3:2|0:0,0:0:0:0:
209,252,112152,6,0,B|197:283|197:283|220:326,1,69.3750026464463,8|0,0:0|0:0,0:0:0:0:
394,383,112311,1,8,0:0:0:0:
447,369,112391,1,8,0:0:0:0:
488,333,112471,1,10,0:0:0:0:
508,282,112551,1,10,0:0:0:0:
502,227,112630,1,10,0:0:0:0:
471,182,112710,1,10,0:0:0:0:
422,156,112790,5,6,3:2:0:0:
207,237,112950,1,2,0:0:0:0:
392,65,113109,1,10,0:0:0:0:
237,11,113269,1,2,0:0:0:0:
340,257,113428,5,2,3:2:0:0:
205,163,113588,1,2,0:0:0:0:
111,370,113747,1,10,0:0:0:0:
238,310,113907,1,2,0:0:0:0:
111,141,114067,5,2,3:2:0:0:
4,177,114226,1,2,0:0:0:0:
147,247,114386,5,10,0:0:0:0:
40,284,114545,1,2,0:0:0:0:
25,65,114705,5,2,3:2:0:0:
222,162,114864,2,0,P|286:149|342:139,1,110.999996612549,2|8,0:0|0:0,0:0:0:0:
489,344,115184,6,0,P|434:334|379:323,1,110.999996612549,2|0,0:0|3:2,0:0:0:0:
147,257,115503,1,2,0:0:0:0:
328,230,115662,1,10,0:0:0:0:
197,349,115822,1,2,0:0:0:0:
83,175,115981,5,2,3:2:0:0:
262,289,116141,1,2,0:0:0:0:
338,23,116301,1,10,0:0:0:0:
214,136,116460,1,2,0:0:0:0:
444,208,116620,5,2,3:2:0:0:
406,103,116779,1,2,0:0:0:0:
281,273,116939,5,10,0:0:0:0:
319,168,117098,1,2,0:0:0:0:
482,313,117258,5,2,3:2:0:0:
243,378,117418,2,0,P|177:371|118:365,1,110.999996612549,2|8,0:0|0:0,0:0:0:0:
12,192,117737,6,0,P|78:199|137:205,1,110.999996612549,2|0,0:0|3:2,0:0:0:0:
183,47,118056,2,0,P|117:40|58:34,1,110.999996612549,2|8,0:0|0:0,0:0:0:0:
389,203,118375,6,0,P|444:197|500:192,1,110.999996612549,2|0,0:0|3:2,0:0:0:0:
439,35,118694,2,0,P|384:41|329:47,1,110.999996612549,2|8,0:0|0:0,0:0:0:0:
114,237,119013,6,0,P|122:312|127:367,1,110.999996612549,2|0,0:0|3:2,0:0:0:0:
398,237,119332,2,0,P|390:312|385:367,1,110.999996612549,2|8,0:0|0:0,0:0:0:0:
255,113,119652,6,0,L|255:2,1,110.999996612549,2|0,0:0|3:2,0:0:0:0:
139,175,119971,1,2,0:0:0:0:
373,175,120130,1,10,0:0:0:0:
256,270,120290,1,2,0:0:0:0:
182,89,120450,6,0,P|126:84|71:78,1,110.999996612549,2|0,3:2|0:0,0:0:0:0:
330,295,120769,2,0,P|385:299|440:305,1,110.999996612549,10|0,0:0|0:0,0:0:0:0:
142,376,121088,2,0,P|148:321|153:266,1,110.999996612549,2|0,3:2|0:0,0:0:0:0:
369,7,121407,1,10,0:0:0:0:
182,89,121567,1,2,0:0:0:0:
330,295,121726,6,0,P|339:234|349:182,1,110.999996612549,8|0,0:3|0:0,0:0:0:0:
142,376,122045,6,0,L|132:319,1,55.4999983062745,8|0,0:0|0:0,0:0:0:0:
104,153,122205,2,0,L|113:209,1,55.4999983062745,8|0,0:3|0:0,0:0:0:0:
11,283,122364,5,8,0:0:0:0:
11,283,122444,1,8,0:0:0:0:
11,283,122524,2,0,L|67:273,1,55.4999983062745,8|0,0:0|0:0,0:0:0:0:
235,246,122684,1,8,0:0:0:0:
290,251,122763,1,8,0:0:0:0:
345,256,122843,1,8,0:3:0:0:
400,262,122923,1,4,0:3:0:0:
455,267,123003,5,6,3:2:0:0:
264,135,123162,1,2,0:0:0:0:
495,3,123322,2,0,P|482:66|473:130,1,129.499996047974,10|0,0:0|0:0,0:0:0:0:
359,382,123641,5,2,3:2:0:0:
180,241,123801,1,2,0:0:0:0:
403,79,123960,1,10,0:0:0:0:
290,251,124120,1,2,0:0:0:0:
118,22,124279,5,2,3:2:0:0:
137,150,124439,1,2,0:0:0:0:
246,3,124598,5,10,0:0:0:0:
265,131,124758,1,2,0:0:0:0:
32,118,124918,5,2,3:2:0:0:
351,35,125077,2,0,P|423:48|502:60,1,129.499996047974,2|8,0:0|0:0,0:0:0:0:
217,251,125396,6,0,P|153:239|89:229,1,129.499996047974,2|0,0:0|3:2,0:0:0:0:
265,131,125715,1,2,0:0:0:0:
315,384,125875,1,10,0:0:0:0:
490,285,126035,1,2,0:0:0:0:
265,131,126194,5,2,3:2:0:0:
141,349,126354,1,2,0:0:0:0:
17,82,126513,1,10,0:0:0:0:
177,182,126673,1,2,0:0:0:0:
24,376,126832,5,2,3:2:0:0:
148,336,126992,1,2,0:0:0:0:
243,134,127152,5,10,0:0:0:0:
367,174,127312,1,2,0:0:0:0:
462,376,127471,5,2,3:2:0:0:
195,235,127630,2,0,P|116:244|30:253,1,129.499996047974,2|8,0:0|0:0,0:0:0:0:
352,77,127950,6,0,P|413:63|474:108,1,129.499996047974,2|0,0:0|3:2,0:0:0:0:
425,340,128269,2,0,P|363:353|309:320,1,129.499996047974,2|8,0:0|0:0,0:0:0:0:
160,77,128588,6,0,P|98:63|38:108,1,129.499996047974,2|0,0:0|3:2,0:0:0:0:
87,340,128907,2,0,P|148:353|202:320,1,129.499996047974,2|8,0:0|0:0,0:0:0:0:
399,145,129226,6,0,L|378:272,1,129.499996047974,2|0,0:0|3:2,0:0:0:0:
113,145,129545,2,0,L|133:272,1,129.499996047974,2|8,0:0|0:0,0:0:0:0:
256,2,129864,6,0,L|256:132,1,129.499996047974,2|0,0:0|3:2,0:0:0:0:
256,383,130184,1,2,0:0:0:0:
123,208,130343,1,10,0:0:0:0:
388,208,130503,1,2,0:0:0:0:
154,308,130662,6,0,B|185:302|185:302|210:276,1,64.7499980239869,2|0,3:2|0:0,0:0:0:0:
256,132,130822,1,8,0:0:0:0:
256,132,130902,1,8,0:0:0:0:
256,132,130981,2,0,L|256:196,1,64.7499980239869,10|0,3:2|3:2,0:0:0:0:
357,308,131141,2,0,B|326:302|326:302|302:276,1,64.7499980239869,8|0,0:3|0:0,0:0:0:0:
256,47,131301,5,10,3:2:0:0:
256,47,131380,1,8,0:0:0:0:
256,47,131460,2,0,P|200:59|178:62,1,64.7499980239869,8|0,0:0|0:0,0:0:0:0:
19,240,131620,2,0,P|75:228|97:225,1,64.7499980239869,10|0,3:2|0:0,0:0:0:0:
68,9,131779,5,10,0:0:0:0:
68,9,131859,1,8,0:0:0:0:
68,9,131939,2,0,P|80:45|91:82,1,64.7499980239869,10|0,3:2|0:0,0:0:0:0:
207,278,132098,2,0,P|195:242|184:205,1,64.7499980239869,8|0,0:3|0:0,0:0:0:0:
354,13,132258,5,10,3:2:0:0:
410,2,132338,1,8,0:0:0:0:
464,22,132418,1,10,0:0:0:0:
501,67,132497,1,8,0:0:0:0:
510,124,132577,1,8,3:2:0:0:
488,177,132657,1,8,0:0:0:0:
443,213,132737,1,10,0:0:0:0:
385,220,132817,1,8,0:0:0:0:
330,239,132896,1,8,3:2:0:0:
290,281,132976,1,8,0:0:0:0:
290,339,133056,1,10,0:0:0:0:
334,376,133136,1,8,0:0:0:0:
391,368,133215,5,6,3:2:0:0:
427,292,133375,1,2,0:0:0:0:
385,220,133535,1,2,0:0:0:0:
343,148,133694,1,2,0:0:0:0:
379,72,133854,1,2,0:2:0:0:
379,72,134173,5,2,0:2:0:0:
343,148,134332,1,2,0:0:0:0:
385,220,134492,1,2,0:0:0:0:
427,292,134652,1,2,0:0:0:0:
391,368,134811,1,2,0:2:0:0:
391,368,135130,5,2,0:2:0:0:
427,292,135290,1,2,0:0:0:0:
385,220,135450,1,2,0:0:0:0:
343,148,135609,1,0,3:2:0:0:
190,205,135769,5,2,3:2:0:0:
151,278,135928,1,2,0:0:0:0:
194,348,136088,1,2,0:0:0:0:
151,278,136247,1,2,0:0:0:0:
69,281,136407,1,2,0:2:0:0:
263,274,136567,5,2,0:2:0:0:
98,377,136726,1,2,0:0:0:0:
91,182,136886,1,2,0:2:0:0:
263,274,137045,6,0,B|369:270|330:181|436:177,1,208.125007939339,2|0,0:0|0:0,0:0:0:0:
258,77,137684,2,0,B|298:31|298:31|273:191,1,208.125007939339,2|0,0:0|3:2,0:0:0:0:
141,326,138322,6,0,B|181:372|181:372|156:212,1,208.125007939339,2|0,3:2|0:2,0:0:0:0:
45,74,138960,2,0,P|74:134|140:149,1,138.750005292893,2|0,0:0|0:0,0:0:0:0:
307,10,139439,6,0,B|226:22|226:22|203:59|203:59|123:73,1,208.125007939339,2|2,0:0|0:0,0:0:0:0:
299,268,140237,2,0,B|352:276|352:276|367:301|367:301|421:309,1,138.750005292893,2|2,0:0|0:0,0:0:0:0:
420,228,140715,1,0,3:2:0:0:
301,350,140875,6,0,P|227:306|243:209,1,185,8|0,3:2|0:0,0:0:0:0:
395,47,141354,2,0,P|393:133|301:167,1,185,8|0,3:2|0:0,0:0:0:0:
86,118,141832,2,0,P|161:75|237:138,1,185,8|0,3:2|0:0,0:0:0:0:
100,335,142311,6,0,P|36:326|0:325,1,69.3750026464463,8|0,3:2|0:0,0:0:0:0:
237,204,142471,2,0,P|173:212|136:213,1,69.3750026464463,8|0,3:2|0:0,0:0:0:0:
347,384,142630,2,0,P|283:375|246:374,1,69.3750026464463,8|0,3:2|0:0,0:0:0:0:
483,155,142790,2,0,B|430:194|430:194|353:173,1,138.750005292893,8|0,3:2|0:0,0:0:0:0:
111,26,143109,1,10,0:0:0:0:
51,41,143189,1,10,0:0:0:0:
10,87,143269,1,10,0:0:0:0:
1,148,143348,1,10,0:0:0:0:
28,203,143428,6,0,P|104:195|180:185,1,129.499996047974,6|0,3:2|0:0,0:0:0:0:
396,83,143747,1,8,0:0:0:0:
283,21,143907,1,2,0:0:0:0:
283,21,143987,1,2,0:0:0:0:
283,21,144067,1,2,3:2:0:0:
370,204,144226,1,2,0:0:0:0:
494,130,144386,1,10,0:0:0:0:
394,310,144545,6,0,B|293:291|293:291|266:243|266:243|167:224,1,258.999992095948,2|0,0:0|0:0,0:0:0:0:
31,9,145024,1,8,0:0:0:0:
136,89,145184,1,2,0:0:0:0:
136,89,145263,1,2,0:0:0:0:
136,89,145343,1,2,3:2:0:0:
14,140,145503,1,2,0:0:0:0:
167,331,145662,1,10,0:0:0:0:
319,139,145822,6,0,P|312:71|306:-22,1,129.499996047974,2|0,0:0|3:2,0:0:0:0:
489,222,146141,2,0,P|482:290|476:383,1,129.499996047974,2|8,0:0|0:0,0:0:0:0:
268,220,146460,1,2,0:0:0:0:
435,108,146620,1,2,3:2:0:0:
331,23,146779,1,2,0:0:0:0:
459,232,146939,1,10,0:0:0:0:
337,346,147098,1,2,0:0:0:0:
337,346,147178,1,2,0:0:0:0:
337,346,147258,6,0,P|263:333|200:324,1,129.499996047974,2|0,3:2|0:0,0:0:0:0:
29,187,147577,2,0,P|103:174|166:165,1,129.499996047974,8|0,0:0|0:0,0:0:0:0:
324,8,147896,1,2,3:2:0:0:
272,165,148056,1,2,0:0:0:0:
117,25,148215,1,10,0:0:0:0:
209,252,148375,1,2,0:0:0:0:
401,116,148535,5,2,3:2:0:0:
332,317,148694,1,2,0:0:0:0:
277,82,148854,5,10,0:0:0:0:
337,346,149013,1,2,0:0:0:0:
155,125,149173,5,2,3:2:0:0:
342,375,149332,1,2,0:0:0:0:
79,230,149492,5,10,0:2:0:0:
384,99,149652,2,0,P|465:111|519:119,1,129.499996047974,2|0,0:0|3:2,0:0:0:0:
233,10,149971,1,2,0:0:0:0:
233,10,150051,1,2,0:0:0:0:
233,10,150130,1,10,0:0:0:0:
319,264,150290,1,2,0:0:0:0:
153,142,150450,5,2,3:2:0:0:
153,142,150529,1,2,0:0:0:0:
153,142,150609,1,2,0:0:0:0:
29,372,150769,1,10,0:0:0:0:
255,248,150928,6,0,B|386:252|338:362|470:367,1,258.999992095948,2|0,0:0|0:0,0:0:0:0:
356,131,151407,2,0,P|277:143|193:155,1,129.499996047974,8|2,0:0|0:0,0:0:0:0:
54,271,151726,1,2,3:2:0:0:
206,174,151886,1,2,0:0:0:0:
314,379,152045,1,10,0:0:0:0:
470,201,152205,6,0,B|491:23|491:23|422:113,1,258.999992095948,2|0,0:0|0:0,0:0:0:0:
276,283,152684,1,10,0:0:0:0:
142,117,152843,1,2,0:0:0:0:
30,353,153003,6,0,P|38:290|40:249,1,64.7499980239869,10|0,3:2|0:0,0:0:0:0:
217,166,153162,2,0,P|209:229|207:270,1,64.7499980239869,10|0,0:0|0:0,0:0:0:0:
10,6,153322,1,10,0:0:0:0:
30,66,153401,1,8,0:0:0:0:
79,107,153481,1,10,0:0:0:0:
142,117,153561,1,8,0:0:0:0:
201,92,153641,5,6,0:0:0:0:
283,54,153801,1,0,3:2:0:0:
356,106,153960,1,0,3:2:0:0:
356,106,154279,6,0,L|347:186,1,64.7499980239869,10|0,0:0|0:0,0:0:0:0:
463,344,154439,2,0,L|397:296,1,64.7499980239869,2|0,3:2|0:0,0:0:0:0:
340,256,154598,1,0,3:2:0:0:
203,317,154758,2,0,L|277:283,1,64.7499980239869,10|0,0:0|0:0,0:0:0:0:
262,290,155077,6,0,P|264:247|267:208,2,64.7499980239869,2|2|2,0:0|0:0|0:0,0:0:0:0:
44,173,155556,5,10,0:0:0:0:
199,94,155715,1,8,0:3:0:0:
82,56,155875,1,8,0:3:0:0:
161,211,156035,1,4,0:3:0:0:
309,67,156194,6,0,P|387:77|482:87,1,129.499996047974,10|0,0:0|3:2,0:0:0:0:
203,317,156513,2,0,P|125:307|30:297,1,129.499996047974,8|0,0:3|0:0,0:0:0:0:
362,176,156832,6,0,P|358:227|337:262,1,64.7499980239869,10|0,0:0|0:0,0:0:0:0:
150,208,156992,2,0,P|154:157|175:122,1,64.7499980239869,2|0,3:2|0:0,0:0:0:0:
256,192,157152,1,0,3:2:0:0:
256,192,157231,1,0,3:2:0:0:
256,192,157311,1,10,0:0:0:0:
256,192,157630,5,8,0:0:0:0:
280,36,157790,1,8,0:0:0:0:
280,36,157870,1,8,0:0:0:0:
280,36,157950,2,0,L|270:100,1,64.7499980239869,8|0,0:0|0:0,0:0:0:0:
231,347,158109,6,0,L|241:283,1,64.7499980239869,8|0,0:0|0:0,0:0:0:0:
381,185,158269,2,0,L|371:249,1,64.7499980239869,10|0,0:0|0:0,0:0:0:0:
130,198,158428,2,0,L|141:135,1,64.7499980239869,10|0,0:0|0:0,0:0:0:0:
280,36,158588,2,0,L|270:100,1,64.7499980239869,10|0,0:0|0:0,0:0:0:0:
371,249,158747,5,10,0:0:0:0:
439,204,158907,1,0,3:2:0:0:
395,135,159067,1,0,3:2:0:0:
326,180,159226,1,0,3:2:0:0:
482,68,159386,6,0,P|478:100|476:132,1,64.7499980239869,10|0,0:0|0:0,0:0:0:0:
284,316,159545,2,0,P|287:283|289:251,1,64.7499980239869,10|0,0:0|0:0,0:0:0:0:
508,291,159705,2,0,P|475:287|443:285,1,64.7499980239869,8|0,0:0|0:0,0:0:0:0:
259,94,159864,2,0,P|291:97|323:99,1,64.7499980239869,10|0,0:0|0:0,0:0:0:0:
284,316,160024,6,0,L|238:247,1,64.7499980239869,8|0,0:3|0:0,0:0:0:0:
29,191,160184,1,8,0:0:0:0:
29,191,160263,1,8,0:0:0:0:
29,191,160343,2,0,L|110:185,1,64.7499980239869,8|0,0:0|0:0,0:0:0:0:
263,33,160503,2,0,L|227:106,1,64.7499980239869,8|0,0:0|0:0,0:0:0:0:
156,245,160662,5,8,0:3:0:0:
264,173,160822,1,8,0:3:0:0:
148,117,160981,1,4,0:3:0:0:
190,179,161141,1,4,0:3:0:0:
376,49,161301,6,0,L|367:119,1,64.7499980239869,2|0,3:2|0:0,0:0:0:0:
351,259,161460,1,8,0:0:0:0:
351,259,161540,1,8,0:0:0:0:
351,259,161619,2,0,L|367:118,1,129.499996047974,10|0,0:0|3:2,0:0:0:0:
210,188,161939,6,0,L|218:258,1,64.7499980239869,10|0,0:0|0:0,0:0:0:0:
226,326,162098,1,0,3:2:0:0:
67,108,162258,6,0,L|55:203,1,64.7499980239869,10|0,0:0|0:0,0:0:0:0:
34,382,162418,2,0,L|44:294,1,64.7499980239869,8|0,0:0|0:0,0:0:0:0:
210,188,162577,5,10,0:0:0:0:
210,188,162657,1,8,0:0:0:0:
210,188,162737,2,0,P|152:200|104:206,1,64.7499980239869,8|0,0:0|0:0,0:0:0:0:
353,354,162896,2,0,P|411:342|459:336,1,64.7499980239869,8|0,0:0|0:0,0:0:0:0:
509,158,163056,5,8,0:3:0:0:
509,158,163136,1,8,0:3:0:0:
509,158,163215,2,0,P|455:148|431:143,1,64.7499980239869,8|0,0:3|0:0,0:0:0:0:
357,59,163375,2,0,P|375:110|383:134,1,64.7499980239869,8|0,0:3|0:0,0:0:0:0:
348,241,163535,1,4,0:3:0:0:
348,241,163614,1,4,0:3:0:0:
348,241,163694,2,0,P|383:199|399:180,1,64.7499980239869,4|0,0:3|0:0,0:0:0:0:
225,4,163854,6,0,B|210:47|210:47|225:92,1,92.5,4|0,0:3|0:0,0:0:0:0:
286,379,164013,2,0,B|301:336|301:336|286:291,1,92.5,4|4,0:3|0:3,0:0:0:0:
102,81,164173,6,0,B|122:122|122:122|164:143,1,92.5,4|0,0:3|0:0,0:0:0:0:
410,303,164332,2,0,B|390:262|390:262|348:241,1,92.5,4|0,0:3|0:0,0:0:0:0:
68,222,164492,6,0,B|111:237|111:237|156:222,1,92.5,4|0,0:3|0:0,0:0:0:0:
443,161,164652,2,0,B|400:146|400:146|355:161,1,92.5,4|0,0:3|0:3,0:0:0:0:
145,346,164811,6,0,B|186:326|186:326|207:284,1,92.5,4|0,0:3|0:0,0:0:0:0:
367,38,164971,2,0,B|326:58|326:58|305:100,1,92.5,4|0,0:3|0:0,0:0:0:0:
256,192,165130,5,6,3:2:0:0:
415,224,172152,6,0,B|454:216|454:216|416:326|416:326|390:297,1,194.249994071961,2|0,0:2|0:0,0:0:0:0:
339,239,172790,5,10,0:0:0:0:
339,239,172870,1,8,0:0:0:0:
339,239,172950,2,0,P|301:247|266:253,1,53.1875010144711,8|0,0:0|0:0,0:0:0:0:
117,352,173109,1,10,0:0:0:0:
117,352,173189,1,8,0:0:0:0:
117,352,173269,2,0,P|155:344|190:338,1,53.1875010144711,8|0,0:0|0:0,0:0:0:0:
228,295,173428,5,8,0:3:0:0:
65,209,173588,1,8,0:0:0:0:
31,168,173668,1,8,0:0:0:0:
24,116,173747,1,10,0:0:0:0:
47,69,173827,1,8,0:0:0:0:
91,41,173907,1,10,0:0:0:0:
144,41,173987,1,8,0:0:0:0:
187,70,174067,6,0,B|252:129|356:105|407:31|305:-31|188:0|263:167|354:125|301:247,1,416.249987297058,10|0,0:0|0:0,0:0:0:0:
248,297,175343,5,6,3:2:0:0:
122,128,175503,1,2,0:0:0:0:
6,376,175662,1,10,0:0:0:0:
190,189,175822,1,2,0:0:0:0:
411,383,175981,5,2,3:2:0:0:
218,299,176141,1,2,0:0:0:0:
458,149,176301,1,10,0:0:0:0:
326,14,176460,1,2,0:0:0:0:
171,198,176620,5,2,3:2:0:0:
296,166,176779,1,2,0:0:0:0:
68,7,176939,5,10,0:0:0:0:
193,39,177098,1,2,0:0:0:0:
46,230,177258,5,2,3:2:0:0:
237,377,177418,2,0,P|316:363|377:356,1,129.499996047974,2|8,0:0|0:0,0:0:0:0:
504,101,177737,6,0,B|402:116|402:116|374:162|374:162|274:179,1,258.999992095948,2|0,0:0|0:0,0:0:0:0:
95,5,178215,1,10,0:0:0:0:
294,77,178375,1,2,0:0:0:0:
33,252,178535,5,2,3:2:0:0:
169,116,178694,1,2,0:0:0:0:
256,365,178854,1,10,0:0:0:0:
132,252,179013,1,2,0:0:0:0:
375,131,179173,5,2,3:2:0:0:
334,253,179332,1,2,0:0:0:0:
147,20,179492,5,10,0:0:0:0:
188,142,179651,1,2,0:0:0:0:
416,9,179811,5,2,3:2:0:0:
510,254,179971,2,0,P|500:329|491:409,1,129.499996047974,2|8,0:0|0:0,0:0:0:0:
256,232,180290,6,0,P|343:245|411:253,1,129.499996047974,2|0,0:0|3:2,0:0:0:0:
505,48,180609,2,0,P|418:35|350:27,1,129.499996047974,2|8,0:0|0:0,0:0:0:0:
256,232,180928,6,0,P|169:245|101:253,1,129.499996047974,2|0,0:0|3:2,0:0:0:0:
7,48,181247,2,0,P|94:35|162:27,1,129.499996047974,2|8,0:0|0:0,0:0:0:0:
405,244,181567,6,0,P|386:174|373:114,1,129.499996047974,2|0,0:0|3:2,0:0:0:0:
107,244,181886,2,0,P|126:174|139:114,1,129.499996047974,2|8,0:0|0:0,0:0:0:0:
256,383,182205,6,0,L|256:240,1,129.499996047974,2|0,0:0|3:2,0:0:0:0:
256,1,182524,1,2,0:0:0:0:
387,181,182684,1,10,0:0:0:0:
124,181,182843,1,2,0:0:0:0:
256,383,183003,6,0,L|256:318,1,64.7499980239869,2|0,3:2|0:0,0:0:0:0:
379,189,183162,1,8,0:0:0:0:
379,189,183242,1,8,0:0:0:0:
379,189,183322,2,0,B|347:199|347:199|325:228,1,64.7499980239869,10|0,3:2|0:0,0:0:0:0:
133,189,183481,2,0,B|164:199|164:199|187:228,1,64.7499980239869,8|0,0:3|0:0,0:0:0:0:
364,331,183641,5,10,3:2:0:0:
364,331,183721,1,8,0:0:0:0:
364,331,183801,2,0,P|423:320|458:315,1,64.7499980239869,8|0,0:0|0:0,0:0:0:0:
148,331,183960,2,0,P|89:320|54:315,1,64.7499980239869,10|0,3:2|0:0,0:0:0:0:
256,96,184120,5,10,0:0:0:0:
256,96,184200,1,8,0:0:0:0:
256,96,184279,2,0,L|256:160,1,64.7499980239869,10|0,3:2|0:0,0:0:0:0:
256,318,184439,2,0,L|256:253,1,64.7499980239869,8|0,0:3|0:0,0:0:0:0:
113,17,184598,5,8,3:2:0:0:
58,36,184678,1,8,0:0:0:0:
26,83,184758,1,10,0:0:0:0:
29,140,184838,1,8,0:0:0:0:
65,185,184918,1,8,3:2:0:0:
120,199,184997,1,8,0:0:0:0:
173,177,185077,1,10,0:0:0:0:
208,130,185157,1,8,0:0:0:0:
256,96,185237,1,8,3:2:0:0:
314,97,185317,1,8,0:0:0:0:
363,127,185396,1,10,0:0:0:0:
383,181,185476,1,8,0:0:0:0:
371,238,185556,5,6,3:2:0:0:
362,317,185715,1,2,0:0:0:0:
440,350,185875,1,2,0:0:0:0:
494,288,186035,1,2,0:0:0:0:
450,218,186194,1,2,0:0:0:0:
450,218,186513,5,2,0:0:0:0:
494,288,186673,1,2,0:0:0:0:
440,350,186832,1,2,0:0:0:0:
362,317,186992,1,2,0:0:0:0:
371,238,187152,1,2,0:0:0:0:
371,238,187471,5,2,0:0:0:0:
362,317,187630,1,2,0:0:0:0:
440,350,187790,1,2,0:0:0:0:
494,288,187950,1,0,3:2:0:0:
292,258,188109,5,2,3:2:0:0:
248,188,188269,1,2,0:0:0:0:
302,126,188428,1,2,0:0:0:0:
380,159,188588,1,2,0:0:0:0:
371,238,188747,1,2,0:0:0:0:
222,111,188907,5,2,0:0:0:0:
187,304,189067,1,2,0:0:0:0:
371,238,189226,1,2,0:0:0:0:
222,111,189386,6,0,B|140:125|140:125|119:163|119:163|39:180,1,208.125007939339,2|0,0:0|0:0,0:0:0:0:
283,184,190024,2,0,P|315:91|240:16,1,208.125007939339,2|0,0:0|3:2,0:0:0:0:
188,200,190662,6,0,B|205:347|205:347|245:289,1,208.125007939339,2|0,3:2|0:0,0:0:0:0:
312,143,191301,2,0,B|366:152|366:152|380:178|380:178|433:188,1,138.750005292893,2|0,0:0|0:0,0:0:0:0:
291,44,191779,6,0,P|215:56|62:81,1,208.125007939339,2|2,0:0|0:0,0:0:0:0:
221,340,192577,2,0,P|297:328|423:307,1,138.750005292893,2|2,0:0|0:0,0:0:0:0:
440,304,193056,1,0,3:2:0:0:
312,144,193215,6,0,L|131:184,1,185,8|0,3:2|0:0,0:0:0:0:
354,207,193694,2,0,P|385:125|322:66,1,185,8|0,3:2|0:0,0:0:0:0:
86,121,194173,2,0,P|54:202|117:262,1,185,8|0,3:2|0:0,0:0:0:0:
395,342,194652,6,0,P|458:333|492:330,1,69.3750026464463,8|0,3:2|0:0,0:0:0:0:
269,198,194811,2,0,P|303:203|337:207,1,69.3750026464463,8|0,3:2|0:0,0:0:0:0:
136,382,194971,2,0,P|199:373|233:370,1,69.3750026464463,0|0,3:2|0:0,0:0:0:0:
10,158,195130,2,0,B|57:204|57:204|127:183,1,138.750005292893,8|0,3:2|0:0,0:0:0:0:
350,16,195450,1,10,0:0:0:0:
410,21,195529,1,10,0:0:0:0:
457,61,195609,1,10,0:0:0:0:
472,120,195689,1,10,0:0:0:0:
450,178,195769,5,6,3:2:0:0:
359,304,195928,1,2,0:0:0:0:
239,107,196088,1,10,0:0:0:0:
148,375,196247,1,2,0:0:0:0:
15,202,196407,2,0,P|101:214|165:220,1,110.999996612549,2|0,3:2|0:0,0:0:0:0:
372,328,196726,1,10,0:2:0:0:
238,231,196886,1,2,0:0:0:0:
468,61,197045,5,2,3:2:0:0:
393,188,197205,1,2,0:0:0:0:
248,14,197364,2,0,P|256:96|261:151,1,110.999996612549,10|0,0:2|0:0,0:0:0:0:
44,323,197684,5,2,3:2:0:0:
119,196,197844,1,2,0:0:0:0:
264,370,198003,2,0,P|256:288|251:233,1,110.999996612549,10|0,0:0|0:0,0:0:0:0:
87,64,198322,5,2,3:2:0:0:
234,126,198481,1,2,0:0:0:0:
47,163,198641,1,10,0:0:0:0:
274,27,198801,1,2,0:0:0:0:
410,254,198960,2,0,P|405:326|402:375,1,110.999996612549,2|0,3:2|0:0,0:0:0:0:
247,142,199279,1,10,0:0:0:0:
148,275,199439,1,2,0:0:0:0:
53,24,199598,5,2,3:2:0:0:
152,41,199758,1,2,0:0:0:0:
135,141,199918,1,10,0:0:0:0:
35,123,200077,1,2,0:0:0:0:
230,105,200237,5,2,3:2:0:0:
71,218,200396,1,2,0:0:0:0:
184,377,200556,1,10,0:0:0:0:
343,264,200715,1,2,0:0:0:0:
135,141,200875,5,2,3:2:0:0:
314,97,201035,1,2,0:0:0:0:
71,218,201194,1,10,0:0:0:0:
287,338,201354,1,2,0:0:0:0:
419,128,201513,2,0,P|411:54|406:-3,1,110.999996612549,2|0,3:2|0:0,0:0:0:0:
272,246,201832,1,10,0:0:0:0:
153,123,201992,1,2,0:0:0:0:
41,361,202152,5,2,0:0:0:0:
157,287,202311,1,2,0:0:0:0:
28,127,202471,2,0,P|42:208|49:256,1,110.999996612549,10|0,0:0|0:0,0:0:0:0:
175,27,202790,5,2,3:2:0:0:
291,101,202949,1,2,0:0:0:0:
162,261,203109,2,0,P|176:180|183:132,1,110.999996612549,10|0,0:0|0:0,0:0:0:0:
419,6,203428,6,0,P|405:87|398:135,1,110.999996612549,2|0,3:2|0:0,0:0:0:0:
291,361,203747,1,10,0:0:0:0:
152,246,203907,1,2,0:0:0:0:
342,165,204067,5,2,3:2:0:0:
173,79,204226,1,2,0:0:0:0:
270,361,204386,1,10,0:0:0:0:
56,243,204545,1,2,0:0:0:0:
284,102,204705,5,2,3:2:0:0:
228,282,204864,1,2,0:0:0:0:
192,62,205024,5,10,0:0:0:0:
320,322,205184,1,2,0:0:0:0:
273,2,205343,5,10,0:0:0:0:
239,382,205503,1,10,0:0:0:0:
17,172,205662,5,10,0:0:0:0:
75,176,205742,1,8,0:0:0:0:
135,181,205822,1,8,0:0:0:0:
196,186,205902,1,8,0:0:0:0:
256,192,205981,5,6,3:2:0:0:
319,149,206141,1,2,0:0:0:0:
251,116,206301,1,2,3:2:0:0:
314,73,206460,1,2,0:0:0:0:
246,40,206620,1,2,3:2:0:0:
246,40,206939,5,4,3:3:0:0:
314,73,207098,1,2,0:0:0:0:
251,116,207258,1,2,3:2:0:0:
319,149,207418,1,2,0:0:0:0:
256,192,207577,1,2,3:2:0:0:
256,192,207896,5,2,3:2:0:0:
319,149,208056,1,2,0:0:0:0:
251,116,208215,1,4,3:3:0:0:
369,347,208535,5,2,3:2:0:0:
427,298,208694,1,2,0:0:0:0:
498,323,208854,1,2,3:2:0:0:
427,298,209013,1,2,0:0:0:0:
413,223,209173,1,2,3:2:0:0:
413,223,209492,5,4,3:3:0:0:
427,298,209652,1,2,0:0:0:0:
498,323,209811,1,2,3:2:0:0:
427,298,209971,1,2,0:0:0:0:
369,347,210130,1,2,3:2:0:0:
369,347,210450,5,2,3:2:0:0:
427,298,210609,1,2,0:0:0:0:
498,323,210769,1,4,3:3:0:0:
141,382,211088,5,10,3:2:0:0:
113,376,211168,1,8,0:0:0:0:
89,362,211247,1,10,0:0:0:0:
72,341,211327,1,8,0:0:0:0:
62,314,211407,1,10,3:2:0:0:
62,287,211487,1,8,0:0:0:0:
72,261,211567,1,10,0:0:0:0:
89,240,211646,1,8,0:0:0:0:
114,226,211726,2,8,P|144:219|174:211,3,34.6875013232232,10|8|8|8,3:2|0:0|0:0|0:0,0:0:0:0:
202,274,212045,6,8,P|224:252|247:231,1,34.6875013232232,10|8,3:2|0:0,0:0:0:0:
303,270,212205,2,8,P|312:240|321:210,1,34.6875013232232,10|8,0:0|0:0,0:0:0:0:
383,213,212364,2,8,P|376:182|368:152,1,34.6875013232232,10|8,3:2|0:0,0:0:0:0:
429,124,212524,2,8,P|407:101|386:78,1,34.6875013232232,10|8,0:0|0:0,0:0:0:0:
424,24,212684,2,8,P|394:14|364:5,3,34.6875013232232,10|8|8|8,3:2|0:0|0:0|0:0,0:0:0:0:
323,68,213003,5,10,3:2:0:0:
295,64,213082,1,8,0:0:0:0:
267,61,213162,1,10,0:0:0:0:
239,57,213242,1,8,0:0:0:0:
211,54,213322,2,8,L|175:51,3,34.6875013232232,10|8|8|8,3:2|0:0|0:0|0:0,0:0:0:0:
103,30,213641,5,10,3:2:0:0:
73,46,213721,1,8,0:0:0:0:
52,74,213801,1,10,0:0:0:0:
43,107,213880,1,8,0:0:0:0:
48,141,213960,1,10,3:2:0:0:
66,171,214040,1,8,0:0:0:0:
94,191,214120,1,10,0:0:0:0:
128,198,214200,1,8,0:0:0:0:
161,192,214279,6,0,L|205:180,1,46.25,10|0,0:0|0:0,0:0:0:0:
373,135,214439,2,0,L|328:146,1,46.25,8|0,0:0|0:0,0:0:0:0:
239,57,214598,2,0,L|250:101,1,46.25,0|0,3:2|0:0,0:0:0:0:
296,269,214758,2,0,L|284:224,1,46.25,8|0,0:0|0:0,0:0:0:0:
459,15,214918,6,0,L|447:59,1,46.25,8|0,0:3|0:0,0:0:0:0:
402,227,215077,1,8,0:0:0:0:
402,227,215157,1,8,0:0:0:0:
402,227,215237,1,8,0:0:0:0:
239,57,215396,6,0,B|152:74|152:74|130:115|130:115|45:134,1,222,6|0,3:2|0:0,0:0:0:0:
0,59,215715,2,0,B|72:44,1,74,6|0,3:2|0:0,0:0:0:0:
285,132,215875,2,0,B|213:147,1,74,6|0,3:2|0:0,0:0:0:0:
45,352,216035,6,0,B|10:224|10:224|137:262|137:262|45:352,1,346.875013232232,6|0,3:2|0:0,0:0:0:0:
