osu file format v14

[General]
AudioFilename: audio.mp3
AudioLeadIn: 0
PreviewTime: 112551
Countdown: 0
SampleSet: Soft
StackLeniency: 0.4
Mode: 0
LetterboxInBreaks: 0
WidescreenStoryboard: 0

[Editor]
Bookmarks: 450,5556,15769,25981,36194,46407,56620,66832,77045,87258,92364,102577,112790,123003,133215,143428,153641,165130,175343,185556,195769,205981,216832
DistanceSpacing: 1.1
BeatDivisor: 4
GridSize: 4
TimelineZoom: 1

[Metadata]
Title:Uso no Hibana
TitleUnicode:嘘の火花
Artist:96neko
ArtistUnicode:96猫
Creator:lit120
Version:Lies 2017
Source:クズの本懐
Tags:kuzu no honkai opening full size -Hakurei-
BeatmapID:1759633
BeatmapSetID:840689

[Difficulty]
HPDrainRate:6.5
CircleSize:4
OverallDifficulty:9
ApproachRate:9.5
SliderMultiplier:1.96
SliderTickRate:1

[Events]
//Background and Video events
0,0,"lit120.jpg",0,0
//Break Periods
2,650,1984
2,165330,171612
//Storyboard Layer 0 (Background)
//Storyboard Layer 1 (Fail)
//Storyboard Layer 2 (Pass)
//Storyboard Layer 3 (Foreground)
//Storyboard Layer 4 (Overlay)
//Storyboard Sound Samples

[TimingPoints]
450,319.148936170213,4,2,10,60,1,0
5556,-90.9090909090909,4,2,10,70,0,0
15769,-133.333333333333,4,2,10,50,0,0
25981,-100,4,2,10,60,0,0
35476,-100,4,2,10,5,0,0
35556,-100,4,2,10,60,0,0
36194,-90.9090909090909,4,2,10,70,0,1
45130,-90.9090909090909,4,2,10,70,0,0
46407,-83.3333333333333,4,2,10,70,0,1
56620,-100,4,2,10,60,0,0
66832,-80,4,2,10,70,0,1
77045,-100,4,2,10,50,0,0
112072,-100,4,2,10,5,0,0
112152,-100,4,2,10,50,0,0
112790,-90.9090909090909,4,2,10,70,0,1
121726,-90.9090909090909,4,2,10,70,0,0
123003,-83.3333333333333,4,2,10,70,0,1
133215,-100,4,2,10,60,0,0
143428,-86.9565217391304,4,2,10,70,0,0
172152,-166.666666666667,4,2,10,70,0,0
172710,-166.666666666667,4,2,10,5,0,0
172790,-86.9565217391304,4,2,10,70,0,0
174067,-166.666666666667,4,2,10,70,0,0
175263,-166.666666666667,4,2,10,5,0,0
175343,-83.3333333333333,4,2,10,70,0,1
185556,-100,4,2,10,60,0,0
195769,-80,4,2,10,70,0,1
205981,-100,4,2,10,50,0,0
216035,-200,4,2,10,50,0,0
216832,-200,4,2,10,10,0,0

[Colours]
Combo1 : 63,106,180
Combo2 : 224,78,129
Combo3 : 211,163,168
Combo4 : 164,96,140

[HitObjects]
103,119,450,5,6,0:0:0:0:
103,119,2524,5,8,0:3:0:0:
249,298,2684,1,4,0:3:0:0:
332,83,2843,1,4,0:3:0:0:
228,167,3003,5,2,0:0:0:0:
228,167,3800,5,8,0:0:0:0:
234,200,3880,1,8,0:0:0:0:
239,233,3960,1,8,0:0:0:0:
244,266,4040,1,8,0:0:0:0:
249,298,4120,2,8,L|256:346,1,49
416,187,4279,5,2,0:0:0:0:
207,35,4439,1,8,0:0:0:0:
169,66,4519,1,8,0:0:0:0:
146,108,4598,2,0,L|140:156,1,49,8|0,0:0|0:0,0:0:0:0:
306,319,4758,5,8,0:0:0:0:
298,270,4838,1,8,0:0:0:0:
273,229,4917,2,0,L|234:200,1,49,8|0,0:0|0:0,0:0:0:0:
10,262,5078,5,8,0:0:0:0:
56,280,5158,1,8,0:0:0:0:
104,279,5237,2,0,L|148:259,1,49,8|0,0:0|0:0,0:0:0:0:
345,208,5396,2,0,L|314:169,1,49,8|8,0:0|0:0,0:0:0:0:
113,18,5556,5,6,0:0:0:0:
148,259,5715,1,0,0:0:0:0:
395,116,5875,1,8,0:0:0:0:
146,108,6035,1,0,0:0:0:0:
306,319,6194,6,0,P|359:323|409:304,1,107.800003289795,2|0,0:0|0:0,0:0:0:0:
273,39,6513,1,8,0:0:0:0:
226,288,6673,1,0,0:0:0:0:
487,166,6832,5,2,0:0:0:0:
230,111,6992,1,0,0:0:0:0:
488,289,7152,2,0,P|463:243|415:221,1,107.800003289795,8|0,0:0|0:0,0:0:0:0:
148,259,7471,5,2,0:0:0:0:
409,303,7630,1,0,0:0:0:0:
150,163,7790,2,0,P|98:175|62:214,1,107.800003289795,8|0,0:0|0:0,0:0:0:0:
304,317,8109,5,2,0:0:0:0:
203,71,8269,1,0,0:0:0:0:
145,354,8428,1,8,0:0:0:0:
316,153,8588,1,0,0:0:0:0:
55,110,8747,6,0,P|47:163|63:215,1,107.800003289795,2|0,0:0|0:0,0:0:0:0:
311,370,9067,1,8,0:0:0:0:
64,303,9226,1,0,0:0:0:0:
323,206,9386,5,2,0:0:0:0:
94,102,9545,1,0,0:0:0:0:
304,317,9705,1,8,0:0:0:0:
300,55,9864,1,0,0:0:0:0:
193,298,10024,5,2,0:0:0:0:
369,146,10184,1,0,0:0:0:0:
74,106,10343,1,8,0:0:0:0:
323,206,10503,1,0,0:0:0:0:
55,111,10662,5,2,0:0:0:0:
277,266,10822,1,0,0:0:0:0:
180,6,10981,1,8,0:0:0:0:
75,231,11141,1,0,0:0:0:0:
300,55,11301,6,0,P|246:60|202:89,1,107.800003289795,2|0,0:0|0:0,0:0:0:0:
137,369,11620,1,8,0:0:0:0:
323,206,11779,1,0,0:0:0:0:
5,181,11939,5,2,0:0:0:0:
231,326,12098,1,0,0:0:0:0:
117,67,12258,2,0,P|91:112|100:164,1,107.800003289795,8|0,0:0|0:0,0:0:0:0:
337,312,12577,5,2,0:0:0:0:
87,245,12737,1,0,0:0:0:0:
368,145,12896,2,0,P|396:191|387:243,1,107.800003289795,8|0,0:0|0:0,0:0:0:0:
202,89,13215,6,0,P|246:60|300:55,1,107.800003289795,2|0,0:0|0:0,0:0:0:0:
422,322,13535,1,8,0:0:0:0:
187,302,13694,1,0,0:0:0:0:
368,145,13854,5,2,0:0:0:0:
128,165,14013,1,0,0:0:0:0:
380,317,14173,1,8,0:0:0:0:
299,54,14332,1,0,0:0:0:0:
89,263,14492,5,8,0:0:0:0:
374,231,14652,1,0,0:0:0:0:
127,90,14811,5,2,0:0:0:0:
309,366,14971,1,8,0:0:0:0:
458,71,15130,5,8,0:0:0:0:
128,165,15290,2,8,L|174:192,1,53.9000016448975
380,317,15450,5,8,0:3:0:0:
377,274,15529,1,8,0:3:0:0:
374,231,15609,1,4,0:3:0:0:
371,188,15689,1,4,0:3:0:0:
367,145,15769,6,0,P|429:109|444:39,1,147.000005607605,2|0,0:0|0:0,0:0:0:0:
362,59,16247,1,2,0:0:0:0:
144,238,17045,6,0,P|82:274|67:344,1,147.000005607605,2|0,0:0|0:0,0:0:0:0:
150,325,17524,1,2,0:0:0:0:
256,192,17843,5,0,0:0:0:0:
256,192,18003,1,0,0:0:0:0:
40,84,18322,6,0,L|186:70,1,147.000005607605,2|0,0:0|0:0,0:0:0:0:
341,70,18801,1,2,0:0:0:0:
472,300,19598,6,0,L|325:313,1,147.000005607605,2|0,0:0|0:0,0:0:0:0:
171,314,20077,1,2,0:0:0:0:
256,192,20396,5,0,0:0:0:0:
256,192,20556,1,0,0:0:0:0:
471,299,20875,6,0,P|446:231|449:158,1,147.000005607605,2|0,0:0|0:0,0:0:0:0:
481,41,21354,1,2,0:0:0:0:
40,84,22152,6,0,P|65:152|62:225,1,147.000005607605,2|0,0:0|0:0,0:0:0:0:
31,343,22631,1,2,0:0:0:0:
256,192,22950,5,0,0:0:0:0:
256,192,23109,2,0,L|256:118,1,73.5000028038026
398,306,23428,6,0,P|329:284|256:290,1,147.000005607605,2|0,0:0|0:0,0:0:0:0:
133,358,23907,1,2,0:0:0:0:
113,77,24705,5,8,0:0:0:0:
113,77,24785,1,8,0:0:0:0:
113,77,24864,1,2,0:0:0:0:
257,242,25024,1,2,0:0:0:0:
379,26,25184,5,8,0:0:0:0:
379,26,25263,1,8,0:0:0:0:
379,26,25343,1,2,0:0:0:0:
185,160,25503,1,2,0:0:0:0:
471,199,25662,6,8,L|487:166,1,36.7500014019013
282,93,25822,2,8,L|265:60,1,36.7500014019013
231,351,25981,5,6,0:0:0:0:
418,210,26141,1,0,0:0:0:0:
149,119,26301,1,8,0:0:0:0:
276,305,26460,1,0,0:0:0:0:
457,100,26620,2,0,P|409:92|364:108,1,98,2|0,0:0|0:0,0:0:0:0:
450,367,26939,2,0,P|481:329|490:282,1,98,8|0,0:0|0:0,0:0:0:0:
222,227,27258,6,0,P|239:272|276:305,1,98,2|0,0:0|0:0,0:0:0:0:
457,100,27577,1,8,0:0:0:0:
233,126,27737,1,0,0:0:0:0:
471,199,27896,1,2,0:0:0:0:
276,305,28056,1,0,0:0:0:0:
378,41,28215,2,0,L|378:139,1,98,8|0,0:0|0:0,0:0:0:0:
378,365,28535,5,2,0:0:0:0:
222,227,28694,1,0,0:0:0:0:
487,198,28854,1,8,0:0:0:0:
276,304,29013,2,0,P|229:318|181:310,1,98,0|2,0:0|0:0,0:0:0:0:
269,104,29332,1,0,0:0:0:0:
453,295,29492,1,8,0:0:0:0:
487,100,29652,6,0,L|487:198,1,98,0|2,0:0|0:0,0:0:0:0:
378,365,29971,2,0,L|378:267,1,98,0|8,0:0|0:0,0:0:0:0:
269,104,30290,2,0,L|269:202,1,98,0|2,0:0|0:0,0:0:0:0:
160,369,30609,2,0,L|160:271,1,98,0|8,0:0|0:0,0:0:0:0:
51,108,30928,2,0,L|51:206,1,98,0|2,0:0|0:0,0:0:0:0:
160,369,31247,5,0,0:0:0:0:
356,180,31407,1,8,0:0:0:0:
160,271,31567,2,0,P|201:296|249:305,1,98,0|2,0:0|0:0,0:0:0:0:
453,295,31886,5,0,0:0:0:0:
269,104,32045,1,8,0:0:0:0:
356,278,32205,2,0,L|356:180,1,98,0|2,0:0|0:0,0:0:0:0:
182,28,32524,5,0,0:0:0:0:
160,271,32684,1,8,0:0:0:0:
269,104,32843,2,0,P|229:133|182:145,1,98,0|2,0:0|0:0,0:0:0:0:
39,315,33162,5,0,0:0:0:0:
82,87,33322,1,8,0:0:0:0:
265,218,33481,1,0,0:0:0:0:
0,187,33641,6,0,P|42:164|90:163,1,98,2|0,0:0|0:0,0:0:0:0:
356,193,33960,2,0,P|313:216|265:218,1,98,8|0,0:0|0:0,0:0:0:0:
82,87,34279,2,0,P|124:63|172:62,1,98,2|0,0:0|0:0,0:0:0:0:
422,126,34598,1,8,0:0:0:0:
178,190,34758,1,0,0:0:0:0:
355,370,34918,6,0,P|364:231|248:307,1,343,2|0,0:0|0:0,0:0:0:0:
326,299,35556,5,8,0:0:0:0:
491,60,35715,1,8,0:0:0:0:
220,140,35875,2,0,L|213:188,1,49,8|0,0:0|0:0,0:0:0:0:
469,210,36035,2,8,L|475:258,1,49
217,379,36194,5,6,0:0:0:0:
345,175,36354,1,0,0:0:0:0:
61,246,36513,1,8,0:0:0:0:
326,299,36673,1,0,0:0:0:0:
223,55,36832,5,2,0:0:0:0:
155,293,36992,1,0,0:0:0:0:
359,94,37152,1,8,0:0:0:0:
450,318,37311,1,0,0:0:0:0:
213,188,37471,5,2,0:0:0:0:
469,210,37630,1,0,0:0:0:0:
238,381,37790,2,0,L|241:273,1,107.800003289795,8|0,0:0|0:0,0:0:0:0:
366,53,38109,5,2,0:0:0:0:
459,264,38269,1,0,0:0:0:0:
218,122,38428,1,8,0:0:0:0:
344,349,38588,6,0,L|347:241,1,107.800003289795,0|2,0:0|0:0,0:0:0:0:
257,13,38907,1,0,0:0:0:0:
164,272,39067,1,8,0:0:0:0:
357,147,39226,1,0,0:0:0:0:
104,102,39386,5,2,0:0:0:0:
294,257,39545,1,0,0:0:0:0:
28,194,39705,1,8,0:0:0:0:
269,109,39864,1,0,0:0:0:0:
241,377,40024,5,2,0:0:0:0:
92,170,40184,1,0,0:0:0:0:
346,52,40343,1,8,0:0:0:0:
229,264,40503,1,0,0:0:0:0:
116,34,40662,5,2,0:0:0:0:
313,128,40822,1,0,0:0:0:0:
52,258,40981,1,8,0:0:0:0:
301,267,41141,6,0,L|408:261,1,107.800003289795,0|2,0:0|0:0,0:0:0:0:
211,117,41460,2,0,L|103:122,1,107.800003289795,0|8,0:0|0:0,0:0:0:0:
342,250,41779,6,0,L|449:244,1,107.800003289795,0|2,0:0|0:0,0:0:0:0:
170,134,42098,2,0,L|63:140,1,107.800003289795,0|8,0:0|0:0,0:0:0:0:
380,211,42418,6,0,L|487:205,1,107.800003289795,0|2,0:0|0:0,0:0:0:0:
132,173,42737,2,0,L|25:179,1,107.800003289795,0|8,0:0|0:0,0:0:0:0:
401,150,43056,6,0,L|508:144,1,107.800003289795,0|2,0:0|0:0,0:0:0:0:
110,233,43375,1,0,0:0:0:0:
346,52,43535,1,8,0:0:0:0:
256,298,43694,1,0,0:0:0:0:
86,97,43854,6,0,P|137:82|187:100,1,107.800003289795,2|0,0:0|0:0,0:0:0:0:
425,286,44173,2,0,P|374:301|324:283,1,107.800003289795,8|0,0:0|0:0,0:0:0:0:
350,22,44492,2,0,P|365:73|347:123,1,107.800003289795,2|0,0:0|0:0,0:0:0:0:
161,361,44811,1,8,0:0:0:0:
109,135,44971,1,0,0:0:0:0:
324,283,45130,5,8,0:3:0:0:
69,262,45290,1,0,0:0:0:0:
69,262,45370,1,8,0:0:0:0:
69,262,45450,1,8,0:0:0:0:
273,65,45609,1,8,0:0:0:0:
243,322,45769,5,0,0:0:0:0:
243,322,45848,1,8,0:0:0:0:
243,322,45928,1,8,0:0:0:0:
86,101,46088,1,8,0:0:0:0:
86,101,46168,1,8,0:0:0:0:
86,101,46247,1,8,0:3:0:0:
420,164,46407,5,6,0:0:0:0:
124,186,46567,1,0,0:0:0:0:
381,293,46726,1,8,0:0:0:0:
376,48,46886,1,0,0:0:0:0:
200,239,47045,5,2,0:0:0:0:
458,228,47205,1,0,0:0:0:0:
179,111,47364,1,8,0:0:0:0:
306,359,47524,1,0,0:0:0:0:
383,100,47684,5,2,0:0:0:0:
124,186,47843,1,0,0:0:0:0:
400,277,48003,1,8,0:0:0:0:
145,314,48162,1,0,0:0:0:0:
281,105,48322,5,2,0:0:0:0:
306,359,48481,1,0,0:0:0:0:
114,121,48641,1,8,0:0:0:0:
337,190,48801,6,0,P|281:207|225:191,1,117.599996411133,0|2,0:0|0:0,0:0:0:0:
3,51,49120,1,0,0:0:0:0:
53,328,49279,1,8,0:0:0:0:
179,111,49439,1,0,0:0:0:0:
306,359,49598,5,2,0:0:0:0:
116,219,49758,1,0,0:0:0:0:
383,100,49918,1,8,0:0:0:0:
281,287,50077,1,0,0:0:0:0:
60,135,50237,5,2,0:0:0:0:
281,105,50396,1,0,0:0:0:0:
69,301,50556,1,8,0:0:0:0:
355,301,50715,1,0,0:0:0:0:
179,111,50875,5,2,0:0:0:0:
116,382,51035,1,0,0:0:0:0:
369,201,51194,1,8,0:0:0:0:
120,123,51354,6,0,L|87:236,1,117.599996411133,0|2,0:0|0:0,0:0:0:0:
392,123,51673,2,0,L|424:236,1,117.599996411133,0|8,0:0|0:0,0:0:0:0:
136,66,51992,6,0,L|104:180,1,117.599996411133,0|2,0:0|0:0,0:0:0:0:
375,66,52311,2,0,L|407:178,1,117.599996411133,0|8,0:0|0:0,0:0:0:0:
153,10,52630,6,0,L|120:123,1,117.599996411133,0|2,0:0|0:0,0:0:0:0:
359,10,52950,2,0,L|391:123,1,117.599996411133,0|8,0:0|0:0,0:0:0:0:
256,357,53269,6,0,L|256:239,1,117.599996411133,0|2,0:0|0:0,0:0:0:0:
256,10,53588,1,0,0:0:0:0:
386,259,53747,1,8,0:0:0:0:
126,259,53907,1,0,0:0:0:0:
319,52,54067,5,2,0:0:0:0:
256,298,54226,1,0,0:0:0:0:
256,298,54306,1,8,0:0:0:0:
256,298,54386,1,8,0:0:0:0:
193,52,54545,1,8,0:3:0:0:
408,179,54705,5,0,0:0:0:0:
408,179,54785,1,8,0:0:0:0:
408,179,54864,1,8,0:0:0:0:
104,179,55024,1,8,0:0:0:0:
364,339,55184,5,0,0:0:0:0:
364,339,55263,1,8,0:0:0:0:
364,339,55343,1,8,0:0:0:0:
148,339,55503,1,8,0:3:0:0:
357,113,55662,5,2,0:0:0:0:
382,146,55742,1,8,0:0:0:0:
408,179,55822,2,0,L|444:225,1,58.7999982055665,8|8,0:0|0:0,0:0:0:0:
256,382,55981,5,2,0:0:0:0:
256,340,56061,1,8,0:0:0:0:
256,298,56141,2,0,L|256:239,1,58.7999982055665,8|8,0:0|0:0,0:0:0:0:
155,113,56301,5,2,0:0:0:0:
130,146,56381,1,8,0:0:0:0:
104,179,56461,2,8,L|67:225,1,58.7999982055665
256,54,56620,5,6,0:0:0:0:
309,146,56779,1,0,0:0:0:0:
256,239,56939,1,0,0:0:0:0:
202,146,57098,1,0,0:0:0:0:
256,54,57258,1,0,0:0:0:0:
256,54,57577,5,0,0:0:0:0:
202,146,57737,1,0,0:0:0:0:
363,239,57896,5,0,0:0:0:0:
416,146,58056,1,0,0:0:0:0:
362,53,58215,1,0,0:0:0:0:
362,53,58535,5,0,0:0:0:0:
416,146,58694,1,0,0:0:0:0:
363,239,58854,1,0,0:0:0:0:
202,146,59013,1,2,0:0:0:0:
362,53,59173,5,2,0:0:0:0:
416,146,59332,1,0,0:0:0:0:
470,239,59491,1,0,0:0:0:0:
363,239,59652,1,0,0:0:0:0:
256,239,59811,1,0,0:0:0:0:
256,239,60130,5,0,0:0:0:0:
363,239,60289,1,0,0:0:0:0:
202,146,60450,5,0,0:0:0:0:
309,146,60610,1,0,0:0:0:0:
363,239,60769,1,0,0:0:0:0:
256,239,60928,1,0,0:0:0:0:
416,146,61088,5,0,0:0:0:0:
470,239,61247,1,0,0:0:0:0:
363,239,61407,1,0,0:0:0:0:
469,53,61567,1,2,0:0:0:0:
256,54,61726,5,2,0:0:0:0:
202,146,61886,1,0,0:0:0:0:
256,239,62045,1,0,0:0:0:0:
309,146,62205,1,0,0:0:0:0:
256,54,62364,1,0,0:0:0:0:
256,54,62684,5,0,0:0:0:0:
309,146,62844,1,0,0:0:0:0:
149,239,63003,5,0,0:0:0:0:
96,146,63163,1,0,0:0:0:0:
150,53,63322,1,0,0:0:0:0:
150,53,63642,5,0,0:0:0:0:
96,146,63801,1,0,0:0:0:0:
149,239,63961,1,0,0:0:0:0:
309,146,64120,1,2,0:0:0:0:
96,145,64279,6,0,P|43:224|73:314,1,196,8|0,0:0|0:0,0:0:0:0:
286,314,64758,2,0,P|339:235|309:146,1,196,8|0,0:0|0:0,0:0:0:0:
44,52,65237,1,8,0:0:0:0:
149,239,65396,1,0,0:0:0:0:
276,20,65556,5,2,0:0:0:0:
149,239,65715,1,8,0:0:0:0:
393,175,65875,1,8,0:0:0:0:
161,87,66035,1,8,0:0:0:0:
201,332,66194,2,0,P|236:300|254:254,1,98,8|0,0:0|0:0,0:0:0:0:
80,10,66513,6,8,L|80:59,1,49
82,293,66673,2,8,L|124:268,1,49
327,150,66832,5,6,0:0:0:0:
81,151,66992,1,0,0:0:0:0:
320,279,67152,1,8,0:0:0:0:
241,23,67311,1,0,0:0:0:0:
81,231,67471,6,0,L|83:368,1,122.5,2|0,0:0|0:0,0:0:0:0:
327,150,67790,1,8,0:0:0:0:
81,71,67950,1,0,0:0:0:0:
202,317,68109,5,2,0:0:0:0:
284,87,68269,1,0,0:0:0:0:
444,320,68428,2,0,L|325:351,1,122.5,8|0,0:0|0:0,0:0:0:0:
81,231,68747,5,2,0:0:0:0:
327,150,68907,1,0,0:0:0:0:
82,353,69067,2,0,L|81:231,1,122.5,8|0,0:0|0:0,0:0:0:0:
241,24,69386,5,2,0:0:0:0:
261,288,69545,1,0,0:0:0:0:
81,71,69705,1,8,0:0:0:0:
361,82,69864,1,0,0:0:0:0:
171,259,70024,6,0,P|206:211|264:193,1,122.5,2|0,0:0|0:0,0:0:0:0:
488,364,70343,1,8,0:0:0:0:
258,383,70503,1,0,0:0:0:0:
459,207,70662,5,2,0:0:0:0:
206,211,70822,1,0,0:0:0:0:
473,285,70981,1,8,0:0:0:0:
232,297,71141,1,0,0:0:0:0:
445,129,71301,5,2,0:0:0:0:
373,373,71460,1,0,0:0:0:0:
180,125,71620,1,8,0:0:0:0:
459,207,71779,1,0,0:0:0:0:
258,383,71939,5,2,0:0:0:0:
180,125,72098,1,0,0:0:0:0:
373,373,72258,1,8,0:0:0:0:
445,129,72418,1,0,0:0:0:0:
232,297,72577,6,0,L|110:283,1,122.5,2|0,0:0|0:0,0:0:0:0:
313,50,72896,1,8,0:0:0:0:
416,290,73056,1,0,0:0:0:0:
180,125,73215,5,2,0:0:0:0:
258,383,73375,1,0,0:0:0:0:
451,167,73535,2,0,P|393:149|333:151,1,122.5,8|0,0:0|0:0,0:0:0:0:
110,283,73854,5,2,0:0:0:0:
224,49,74013,1,0,0:0:0:0:
415,289,74173,2,0,P|372:247|316:224,1,122.5,8|0,0:0|0:0,0:0:0:0:
10,217,74492,6,0,P|53:259|110:283,1,122.5,2|0,0:0|0:0,0:0:0:0:
393,149,74811,1,8,0:0:0:0:
117,133,74971,1,0,0:0:0:0:
258,383,75130,5,2,0:0:0:0:
310,100,75290,1,0,0:0:0:0:
53,259,75450,1,8,0:0:0:0:
310,198,75609,1,0,0:0:0:0:
42,148,75769,5,2,0:0:0:0:
284,291,75928,1,0,0:0:0:0:
102,59,76088,5,8,0:0:0:0:
60,325,76247,1,0,0:0:0:0:
310,149,76407,5,8,0:0:0:0:
27,74,76567,1,0,0:0:0:0:
188,357,76726,6,8,L|249:354,1,61.25
353,76,76886,2,8,L|291:78,1,61.25
48,204,77045,5,6,0:0:0:0:
127,275,77205,1,0,0:0:0:0:
149,171,77364,1,2,0:0:0:0:
229,242,77525,1,0,0:0:0:0:
251,138,77684,1,2,0:0:0:0:
251,138,78003,5,4,0:3:0:0:
229,242,78162,1,0,0:0:0:0:
171,67,78322,5,2,0:0:0:0:
149,171,78481,1,0,0:0:0:0:
127,275,78641,1,2,0:0:0:0:
127,275,78960,5,2,0:0:0:0:
149,171,79120,1,0,0:0:0:0:
171,67,79279,1,4,0:3:0:0:
171,67,79598,5,2,0:0:0:0:
149,171,79757,1,0,0:0:0:0:
127,275,79917,1,2,0:0:0:0:
229,242,80077,1,0,0:0:0:0:
331,209,80237,1,2,0:0:0:0:
331,209,80556,5,4,0:3:0:0:
229,242,80716,1,0,0:0:0:0:
354,105,80875,5,2,0:0:0:0:
331,209,81035,1,0,0:0:0:0:
411,281,81194,1,2,0:0:0:0:
411,281,81513,5,2,0:0:0:0:
331,209,81672,1,0,0:0:0:0:
354,105,81832,1,4,0:3:0:0:
354,105,82152,5,2,0:0:0:0:
331,209,82312,1,0,0:0:0:0:
411,281,82471,1,8,0:0:0:0:
434,177,82630,1,0,0:0:0:0:
354,105,82789,1,2,0:0:0:0:
354,105,83109,5,8,0:0:0:0:
434,177,83268,1,0,0:0:0:0:
251,138,83428,5,2,0:0:0:0:
229,242,83587,1,0,0:0:0:0:
309,313,83747,1,8,0:0:0:0:
309,313,84067,5,2,0:0:0:0:
229,242,84227,1,0,0:0:0:0:
251,138,84386,1,8,0:0:0:0:
251,138,84705,5,2,0:0:0:0:
229,242,84864,1,0,0:0:0:0:
309,313,85024,1,8,0:0:0:0:
331,209,85184,1,0,0:0:0:0:
127,275,85343,5,8,0:0:0:0:
353,105,85503,1,8,0:0:0:0:
207,346,85662,1,2,0:0:0:0:
171,67,85822,1,8,0:0:0:0:
331,209,85981,5,2,0:0:0:0:
149,171,86141,1,2,0:0:0:0:
433,176,86301,1,8,0:0:0:0:
207,346,86460,1,8,0:0:0:0:
207,346,86540,1,8,0:0:0:0:
207,346,86620,5,8,0:3:0:0:
171,67,86779,1,8,0:3:0:0:
365,272,86939,1,4,0:3:0:0:
88,219,87098,1,4,0:3:0:0:
342,98,87258,5,6,0:0:0:0:
342,98,89332,5,8,0:3:0:0:
224,283,89492,1,4,0:3:0:0:
121,88,89652,1,4,0:3:0:0:
229,156,89811,5,2,0:0:0:0:
229,156,90609,5,8,0:0:0:0:
228,188,90689,1,8,0:0:0:0:
227,220,90769,1,8,0:0:0:0:
226,252,90848,1,8,0:0:0:0:
224,283,90928,2,8,L|221:331,1,49
449,167,91088,5,8,0:0:0:0:
231,92,91247,1,0,0:0:0:0:
231,92,91327,1,4,0:3:0:0:
231,92,91407,1,4,0:3:0:0:
375,301,91567,1,8,0:0:0:0:
484,71,91726,5,8,0:0:0:0:
228,188,91886,2,8,L|166:189,1,49
316,49,92045,5,8,0:3:0:0:
331,88,92125,1,8,0:3:0:0:
345,126,92205,1,4,0:3:0:0:
361,165,92285,1,4,0:3:0:0:
375,203,92364,6,0,L|375:301,1,98,6|0,0:0|0:0,0:0:0:0:
231,92,92684,1,8,0:0:0:0:
449,167,92843,1,0,0:0:0:0:
288,322,93003,1,2,0:0:0:0:
345,126,93162,1,0,0:0:0:0:
460,325,93322,1,8,0:0:0:0:
467,119,93481,1,2,0:0:0:0:
258,207,93641,5,0,0:0:0:0:
369,31,93801,2,0,L|406:122,1,98,2|8,0:0|0:0,0:0:0:0:
374,323,94120,2,0,L|337:232,1,98,0|2,0:0|0:0,0:0:0:0:
231,91,94439,1,2,0:0:0:0:
215,365,94598,1,8,0:0:0:0:
419,250,94758,1,0,0:0:0:0:
231,91,94918,6,0,P|183:84|135:93,1,98,2|0,0:0|0:0,0:0:0:0:
286,321,95237,2,0,P|316:282|333:237,1,98,8|0,0:0|0:0,0:0:0:0:
59,253,95556,2,0,P|77:298|108:335,1,98,2|0,0:0|0:0,0:0:0:0:
231,91,95875,1,8,0:0:0:0:
286,321,96035,1,2,0:0:0:0:
59,253,96194,5,0,0:0:0:0:
134,93,96354,2,0,P|182:84|231:91,1,98,2|8,0:0|0:0,0:0:0:0:
333,237,96673,2,0,P|285:246|236:239,1,98,0|2,0:0|0:0,0:0:0:0:
355,113,96992,1,2,0:0:0:0:
376,357,97152,1,8,0:0:0:0:
155,289,97311,1,0,0:0:0:0:
355,113,97471,6,0,L|453:113,1,98,2|0,0:0|0:0,0:0:0:0:
376,357,97790,1,8,0:0:0:0:
236,239,97950,1,0,0:0:0:0:
478,207,98109,1,2,0:0:0:0:
260,141,98269,1,0,0:0:0:0:
470,311,98428,1,8,0:0:0:0:
213,338,98588,1,2,0:0:0:0:
355,113,98747,5,0,0:0:0:0:
376,357,98907,2,0,L|376:259,1,98,2|8,0:0|0:0,0:0:0:0:
260,43,99226,2,0,L|260:141,1,98,0|2,0:0|0:0,0:0:0:0:
213,338,99545,1,2,0:0:0:0:
153,91,99705,1,8,0:0:0:0:
366,186,99864,1,0,0:0:0:0:
121,229,100024,5,2,0:0:0:0:
294,347,100184,1,0,0:0:0:0:
260,92,100343,1,8,0:0:0:0:
213,240,100503,2,0,L|213:338,1,98,0|2,0:0|0:0,0:0:0:0:
366,186,100822,5,2,0:0:0:0:
96,150,100981,1,8,0:0:0:0:
213,338,101141,1,2,0:0:0:0:
340,108,101301,5,8,0:0:0:0:
121,229,101460,1,2,0:0:0:0:
366,186,101620,1,2,0:0:0:0:
123,73,101779,5,8,0:0:0:0:
123,73,101859,1,8,0:0:0:0:
123,73,101939,1,2,0:0:0:0:
213,289,102098,1,2,0:0:0:0:
421,125,102258,6,8,L|428:76,1,49
148,152,102418,2,8,L|140:103,1,49
365,338,102577,5,6,0:0:0:0:
285,169,102737,2,0,L|285:267,1,98,0|8,0:0|0:0,0:0:0:0:
421,125,103056,1,0,0:0:0:0:
241,26,103215,2,0,P|224:72|221:121,1,98,2|0,0:0|0:0,0:0:0:0:
492,189,103535,2,0,P|461:151|421:125,1,98,8|0,0:0|0:0,0:0:0:0:
225,324,103854,6,0,P|273:316|316:294,1,98,2|0,0:0|0:0,0:0:0:0:
242,27,104173,1,8,0:0:0:0:
224,223,104332,1,0,0:0:0:0:
421,125,104492,2,0,L|421:27,1,98,2|0,0:0|0:0,0:0:0:0:
421,315,104811,1,8,0:0:0:0:
298,124,104971,1,0,0:0:0:0:
226,350,105130,5,2,0:0:0:0:
421,220,105290,1,0,0:0:0:0:
176,110,105450,1,8,0:0:0:0:
323,269,105609,1,0,0:0:0:0:
359,18,105769,1,2,0:0:0:0:
224,223,105928,1,0,0:0:0:0:
504,173,106088,1,8,0:0:0:0:
268,120,106247,1,0,0:0:0:0:
415,330,106407,5,2,0:0:0:0:
421,124,106567,2,0,P|375:136|340:171,1,98,0|8,0:0|0:0,0:0:0:0:
305,366,106886,1,0,0:0:0:0:
507,278,107045,1,2,0:0:0:0:
340,171,107205,1,0,0:0:0:0:
487,350,107364,1,8,0:0:0:0:
305,366,107524,2,0,L|207:358,1,98,0|2,0:0|0:0,0:0:0:0:
268,120,107843,5,0,0:0:0:0:
396,358,108003,1,8,0:0:0:0:
260,208,108162,2,0,L|162:200,1,98,0|2,0:0|0:0,0:0:0:0:
305,366,108481,5,0,0:0:0:0:
348,83,108641,1,8,0:0:0:0:
162,200,108801,2,0,L|154:298,1,98,0|2,0:0|0:0,0:0:0:0:
340,171,109120,5,0,0:0:0:0:
82,94,109279,1,8,0:0:0:0:
260,208,109439,2,0,L|268:110,1,98,0|2,0:0|0:0,0:0:0:0:
154,298,109758,5,0,0:0:0:0:
413,222,109918,1,8,0:0:0:0:
162,200,110077,1,0,0:0:0:0:
405,310,110237,6,0,P|452:299|487:266,1,98,2|0,0:0|0:0,0:0:0:0:
350,66,110556,2,0,P|303:76|268:110,1,98,8|0,0:0|0:0,0:0:0:0:
247,332,110875,1,2,0:0:0:0:
413,222,111035,1,0,0:0:0:0:
170,102,111194,1,8,0:0:0:0:
332,259,111354,1,0,0:0:0:0:
112,196,111513,6,0,P|246:245|136:335,1,343,2|0,0:0|0:0,0:0:0:0:
166,259,112152,5,8,0:0:0:0:
350,66,112311,2,8,L|361:113,1,49
338,352,112471,2,8,L|290:363,1,49
112,196,112630,2,0,L|159:184,1,49,2|8,0:0|0:3,0:0:0:0:
413,222,112790,5,6,0:0:0:0:
171,340,112950,1,0,0:0:0:0:
361,113,113109,1,8,0:0:0:0:
338,352,113269,1,0,0:0:0:0:
112,196,113428,5,2,0:0:0:0:
361,113,113588,1,0,0:0:0:0:
171,340,113747,1,8,0:0:0:0:
170,102,113907,1,0,0:0:0:0:
359,277,114067,5,2,0:0:0:0:
98,304,114226,1,0,0:0:0:0:
314,111,114386,1,8,0:0:0:0:
60,99,114545,1,0,0:0:0:0:
171,340,114705,5,2,0:0:0:0:
336,194,114864,1,0,0:0:0:0:
53,237,115024,1,8,0:0:0:0:
253,335,115184,6,0,P|268:283|262:230,1,107.800003289795,0|2,0:0|0:0,0:0:0:0:
184,37,115503,1,0,0:0:0:0:
98,304,115662,1,8,0:0:0:0:
336,194,115822,1,0,0:0:0:0:
57,168,115981,5,2,0:0:0:0:
253,335,116141,1,0,0:0:0:0:
328,48,116301,1,8,0:0:0:0:
114,205,116460,1,0,0:0:0:0:
335,289,116620,6,0,P|386:272|421:232,1,107.800003289795,2|0,0:0|0:0,0:0:0:0:
184,37,116939,1,8,0:0:0:0:
102,280,117098,1,0,0:0:0:0:
335,158,117258,5,2,0:0:0:0:
94,111,117418,1,0,0:0:0:0:
335,289,117577,1,8,0:0:0:0:
256,42,117737,6,0,L|256:150,1,107.800003289795,0|2,0:0|0:0,0:0:0:0:
256,342,118056,2,0,L|256:234,1,107.800003289795,0|8,0:0|0:0,0:0:0:0:
306,42,118375,6,0,L|306:150,1,107.800003289795,0|2,0:0|0:0,0:0:0:0:
206,342,118694,2,0,L|206:234,1,107.800003289795,0|8,0:0|0:0,0:0:0:0:
356,42,119013,6,0,L|356:150,1,107.800003289795,0|2,0:0|0:0,0:0:0:0:
156,342,119332,2,0,L|156:234,1,107.800003289795,0|8,0:0|0:0,0:0:0:0:
406,42,119652,6,0,L|406:150,1,107.800003289795,0|2,0:0|0:0,0:0:0:0:
106,342,119971,1,0,0:0:0:0:
256,42,120130,1,8,0:0:0:0:
335,289,120290,1,0,0:0:0:0:
81,133,120450,6,0,P|124:101|176:94,1,107.800003289795,2|0,0:0|0:0,0:0:0:0:
430,250,120769,2,0,P|387:282|335:289,1,107.800003289795,8|0,0:0|0:0,0:0:0:0:
314,17,121088,2,0,P|346:60|353:112,1,107.800003289795,2|0,0:0|0:0,0:0:0:0:
197,366,121407,1,8,0:0:0:0:
81,134,121567,1,0,0:0:0:0:
343,200,121726,5,8,0:3:0:0:
131,342,121886,1,0,0:0:0:0:
198,76,122045,1,8,0:0:0:0:
266,328,122205,5,8,0:3:0:0:
81,134,122364,1,0,0:0:0:0:
81,134,122444,1,8,0:0:0:0:
81,134,122524,1,8,0:0:0:0:
352,112,122684,6,8,L|372:162,1,53.9000016448975
106,238,122843,2,0,L|86:288,1,53.9000016448975,8|8,0:3|0:3,0:0:0:0:
398,270,123003,5,6,0:0:0:0:
237,86,123162,1,0,0:0:0:0:
197,366,123322,1,8,0:0:0:0:
372,162,123481,1,0,0:0:0:0:
93,186,123641,5,2,0:0:0:0:
297,318,123801,1,0,0:0:0:0:
318,0,123960,1,8,0:0:0:0:
195,252,124120,1,0,0:0:0:0:
478,193,124279,5,2,0:0:0:0:
237,86,124439,1,0,0:0:0:0:
371,344,124598,1,8,0:0:0:0:
452,86,124758,1,0,0:0:0:0:
246,285,124918,5,2,0:0:0:0:
297,21,125077,1,0,0:0:0:0:
454,289,125237,1,8,0:0:0:0:
216,169,125396,6,0,L|98:180,1,117.599996411133,0|2,0:0|0:0,0:0:0:0:
265,360,125715,1,0,0:0:0:0:
323,105,125875,1,8,0:0:0:0:
167,276,126035,1,0,0:0:0:0:
404,208,126194,5,2,0:0:0:0:
197,78,126354,1,0,0:0:0:0:
265,360,126513,1,8,0:0:0:0:
499,204,126673,1,0,0:0:0:0:
216,169,126832,5,2,0:0:0:0:
454,289,126992,1,0,0:0:0:0:
167,276,127152,1,8,0:0:0:0:
393,134,127311,1,0,0:0:0:0:
128,140,127471,5,2,0:0:0:0:
310,282,127630,1,0,0:0:0:0:
278,5,127790,1,8,0:0:0:0:
147,231,127950,6,0,L|125:358,1,117.599996411133,0|2,0:0|0:0,0:0:0:0:
365,231,128269,2,0,L|387:358,1,117.599996411133,0|8,0:0|0:0,0:0:0:0:
137,185,128588,6,0,L|72:296,1,117.599996411133,0|2,0:0|0:0,0:0:0:0:
375,185,128907,2,0,L|439:296,1,117.599996411133,0|8,0:0|0:0,0:0:0:0:
128,140,129226,6,0,L|29:223,1,117.599996411133,0|2,0:0|0:0,0:0:0:0:
384,140,129545,2,0,L|482:223,1,117.599996411133,0|8,0:0|0:0,0:0:0:0:
256,380,129864,6,0,L|256:262,1,117.599996411133,0|2,0:0|0:0,0:0:0:0:
256,28,130184,1,0,0:0:0:0:
370,258,130343,1,8,0:0:0:0:
141,258,130503,1,0,0:0:0:0:
384,140,130662,5,8,0:3:0:0:
128,140,130822,1,8,0:3:0:0:
128,140,130902,1,8,0:0:0:0:
128,140,130981,1,8,0:0:0:0:
256,321,131141,1,8,0:3:0:0:
352,46,131301,5,2,0:0:0:0:
352,46,131380,1,8,0:0:0:0:
352,46,131460,1,8,0:0:0:0:
141,258,131620,1,8,0:0:0:0:
159,46,131779,5,8,0:3:0:0:
159,46,131859,1,8,0:0:0:0:
159,46,131939,1,8,0:0:0:0:
370,258,132098,1,8,0:0:0:0:
256,28,132258,5,2,0:0:0:0:
256,60,132338,1,8,0:0:0:0:
256,92,132418,2,8,L|256:150,1,58.7999982055665
398,274,132577,5,10,0:0:0:0:
370,258,132657,1,8,0:0:0:0:
342,242,132737,2,8,L|291:212,1,58.7999982055665
113,274,132896,5,2,0:0:0:0:
141,258,132976,1,8,0:0:0:0:
169,242,133056,2,8,L|220:212,1,58.7999982055665
23,137,133215,5,6,0:0:0:0:
37,247,133375,1,0,0:0:0:0:
141,291,133535,1,0,0:0:0:0:
127,181,133694,1,0,0:0:0:0:
23,137,133854,1,0,0:0:0:0:
23,137,134173,5,0,0:0:0:0:
127,181,134333,1,0,0:0:0:0:
50,359,134492,5,0,0:0:0:0:
141,291,134652,1,0,0:0:0:0:
37,247,134811,1,0,0:0:0:0:
37,247,135130,5,0,0:0:0:0:
141,291,135289,1,0,0:0:0:0:
50,359,135449,1,0,0:0:0:0:
127,181,135609,1,2,0:0:0:0:
243,337,135769,5,2,0:0:0:0:
141,291,135928,1,0,0:0:0:0:
229,227,136088,1,0,0:0:0:0:
127,181,136247,1,0,0:0:0:0:
217,115,136407,1,0,0:0:0:0:
141,291,136567,5,0,0:0:0:0:
23,137,136726,1,0,0:0:0:0:
217,115,136886,1,0,0:0:0:0:
331,273,137045,5,0,0:0:0:0:
229,227,137205,1,0,0:0:0:0:
317,163,137364,1,0,0:0:0:0:
331,273,137524,1,0,0:0:0:0:
127,181,137684,5,0,0:0:0:0:
217,115,137843,1,0,0:0:0:0:
229,227,138003,1,0,0:0:0:0:
115,69,138162,1,2,0:0:0:0:
37,247,138322,5,2,0:0:0:0:
141,291,138481,1,0,0:0:0:0:
229,227,138641,1,0,0:0:0:0:
127,181,138801,1,0,0:0:0:0:
141,291,138960,1,0,0:0:0:0:
141,291,139279,5,0,0:0:0:0:
127,181,139438,1,0,0:0:0:0:
243,337,139598,5,0,0:0:0:0:
229,227,139758,1,0,0:0:0:0:
217,115,139918,1,0,0:0:0:0:
217,115,140237,5,0,0:0:0:0:
229,227,140397,1,0,0:0:0:0:
243,337,140557,1,0,0:0:0:0:
127,181,140715,1,2,0:0:0:0:
317,163,140875,6,0,P|409:192|502:165,1,196,8|0,0:0|0:0,0:0:0:0:
428,339,141354,2,0,P|336:310|243:337,1,196,8|0,0:0|0:0,0:0:0:0:
31,184,141832,2,0,P|79:172|127:181,1,98,8|0,0:0|0:0,0:0:0:0:
336,310,142152,5,2,0:0:0:0:
212,64,142311,1,8,0:0:0:0:
178,344,142471,1,8,0:0:0:0:
438,233,142630,1,8,0:0:0:0:
171,97,142790,2,0,P|140:134|127:181,1,98,8|0,0:0|0:0,0:0:0:0:
367,370,143109,6,8,L|395:330,1,49
284,132,143269,2,8,L|255:92,1,49
71,288,143428,6,0,P|120:262|176:254,1,112.700002149582,6|0,0:0|0:0,0:0:0:0:
408,53,143747,2,0,P|359:79|304:87,1,112.700002149582,8|0,0:0|0:0,0:0:0:0:
178,344,144067,1,2,0:0:0:0:
361,183,144226,1,0,0:0:0:0:
66,163,144386,1,8,0:0:0:0:
176,254,144545,6,0,P|207:149|156:51,1,225.400004299164
450,142,145024,2,0,L|448:254,1,112.700002149582,8|0,0:0|0:0,0:0:0:0:
206,148,145343,1,2,0:0:0:0:
408,53,145503,1,0,0:0:0:0:
377,341,145662,1,8,0:0:0:0:
176,254,145822,6,0,P|125:233|69:232,1,112.700002149582,0|2,0:0|0:0,0:0:0:0:
171,43,146141,2,0,P|178:99|206:148,1,112.700002149582,0|8,0:0|0:0,0:0:0:0:
377,341,146460,2,0,P|369:285|342:236,1,112.700002149582,0|2,0:0|0:0,0:0:0:0:
176,254,146779,1,0,0:0:0:0:
450,142,146939,1,8,0:0:0:0:
207,148,147098,6,0,P|270:234|376:216,1,225.400004299164
145,360,147577,1,8,0:0:0:0:
377,341,147737,1,0,0:0:0:0:
151,240,147896,1,2,0:0:0:0:
349,116,148056,1,0,0:0:0:0:
145,360,148215,1,8,0:0:0:0:
115,93,148375,1,0,0:0:0:0:
376,216,148535,5,2,0:0:0:0:
145,360,148694,1,0,0:0:0:0:
349,116,148854,5,8,0:0:0:0:
75,197,149013,1,0,0:0:0:0:
349,12,149173,5,2,0:0:0:0:
49,19,149332,1,0,0:0:0:0:
349,116,149492,5,8,0:0:0:0:
75,196,149652,2,0,P|112:155|164:134,1,112.700002149582,0|2,0:0|0:0,0:0:0:0:
376,216,149971,5,0,0:0:0:0:
376,216,150051,1,0,0:0:0:0:
376,216,150130,1,8,0:0:0:0:
157,257,150290,1,0,0:0:0:0:
349,64,150450,5,2,0:0:0:0:
349,64,150529,1,0,0:0:0:0:
349,64,150609,1,0,0:0:0:0:
404,369,150769,1,8,0:0:0:0:
156,257,150928,6,0,P|269:250|376:216,1,225.400004299164
115,93,151407,1,8,0:0:0:0:
349,64,151567,1,0,0:0:0:0:
157,257,151726,1,2,0:0:0:0:
376,216,151886,1,0,0:0:0:0:
75,196,152045,1,8,0:0:0:0:
275,362,152205,6,0,P|268:249|234:142,1,225.400004299164
36,350,152684,1,8,0:0:0:0:
5,109,152843,1,0,0:0:0:0:
268,249,153003,5,8,0:0:0:0:
14,278,153162,1,8,0:0:0:0:
199,58,153322,6,8,L|215:112,1,56.350001074791
216,310,153481,2,8,L|200:364,1,56.350001074791
5,109,153641,5,6,0:0:0:0:
140,170,153801,1,2,0:0:0:0:
19,256,153960,1,2,0:0:0:0:
19,256,154279,5,8,0:0:0:0:
140,170,154439,1,2,0:0:0:0:
5,109,154598,1,2,0:0:0:0:
154,317,154758,1,8,0:0:0:0:
154,317,155077,6,0,P|214:324|276:304,2,112.700002149582
5,109,155556,5,8,0:0:0:0:
19,256,155715,1,8,0:3:0:0:
140,170,155875,1,8,0:3:0:0:
154,317,156035,1,4,0:3:0:0:
260,84,156194,5,8,0:0:0:0:
140,170,156354,1,2,0:0:0:0:
274,231,156513,1,8,0:3:0:0:
274,231,156832,5,8,0:0:0:0:
140,170,156991,1,2,0:0:0:0:
260,84,157151,1,2,0:0:0:0:
260,84,157231,1,2,0:0:0:0:
260,84,157311,1,8,0:0:0:0:
260,84,157630,5,0,0:0:0:0:
140,170,157790,1,8,0:0:0:0:
140,170,157870,1,8,0:0:0:0:
140,170,157950,1,8,0:0:0:0:
408,292,158109,5,8,0:0:0:0:
154,317,158269,1,8,0:0:0:0:
394,145,158428,1,8,0:0:0:0:
140,170,158588,1,8,0:0:0:0:
408,292,158747,5,8,0:0:0:0:
394,145,158907,1,2,0:0:0:0:
274,231,159067,1,2,0:0:0:0:
288,378,159226,1,2,0:0:0:0:
260,84,159386,5,8,0:0:0:0:
408,292,159545,1,8,0:0:0:0:
154,317,159705,1,8,0:0:0:0:
394,145,159864,1,8,0:0:0:0:
274,231,160024,5,8,0:3:0:0:
260,84,160184,1,8,0:0:0:0:
260,84,160263,1,8,0:0:0:0:
260,84,160343,1,8,0:0:0:0:
394,145,160503,1,8,0:0:0:0:
140,170,160662,5,8,0:3:0:0:
288,378,160822,1,8,0:3:0:0:
260,84,160981,1,4,0:3:0:0:
408,292,161141,1,4,0:3:0:0:
140,170,161301,5,2,0:0:0:0:
394,145,161460,1,8,0:0:0:0:
394,145,161540,1,8,0:0:0:0:
394,145,161620,1,8,0:0:0:0:
274,231,161779,1,2,0:0:0:0:
5,109,161939,5,8,0:0:0:0:
126,23,162098,1,2,0:0:0:0:
154,317,162258,1,8,0:0:0:0:
394,145,162418,1,8,0:0:0:0:
126,23,162577,5,8,0:0:0:0:
126,23,162657,1,8,0:0:0:0:
126,23,162737,1,8,0:0:0:0:
274,231,162896,1,8,0:0:0:0:
19,256,163056,1,8,0:3:0:0:
260,84,163215,5,8,0:3:0:0:
154,317,163375,1,8,0:3:0:0:
5,109,163535,1,4,0:3:0:0:
5,109,163614,1,4,0:3:0:0:
5,109,163694,1,4,0:3:0:0:
310,154,163854,5,4,0:3:0:0:
19,256,164013,1,4,0:3:0:0:
358,223,164173,5,4,0:3:0:0:
66,66,164332,1,4,0:3:0:0:
394,145,164492,5,4,0:3:0:0:
87,287,164652,1,4,0:3:0:0:
443,215,164811,5,4,0:3:0:0:
126,23,164971,1,4,0:3:0:0:
406,292,165130,5,6,0:0:0:0:
188,234,172152,6,0,P|268:200|264:286,1,205.799993719483
180,325,172790,5,8,0:0:0:0:
180,325,172870,1,8,0:0:0:0:
180,325,172950,1,8,0:0:0:0:
258,61,173109,5,8,0:0:0:0:
258,61,173189,1,8,0:0:0:0:
258,61,173269,1,8,0:0:0:0:
447,259,173428,5,8,0:3:0:0:
267,199,173588,2,8,L|210:198,1,56.350001074791
504,106,173747,6,8,L|512:161,1,56.350001074791
314,292,173907,2,8,L|305:347,1,56.350001074791
142,137,174067,6,0,P|261:250|100:218,1,440.999986541748,8|0,0:3|0:0,0:0:0:0:
186,212,175343,5,6,0:0:0:0:
381,84,175503,1,0,0:0:0:0:
305,347,175662,1,8,0:0:0:0:
142,137,175822,1,0,0:0:0:0:
414,172,175981,5,2,0:0:0:0:
147,287,176141,1,0,0:0:0:0:
447,260,176301,1,8,0:0:0:0:
217,94,176460,1,0,0:0:0:0:
108,362,176620,5,2,0:0:0:0:
355,245,176779,1,0,0:0:0:0:
69,182,176939,1,8,0:0:0:0:
305,347,177098,1,0,0:0:0:0:
291,50,177258,5,2,0:0:0:0:
147,287,177418,1,0,0:0:0:0:
444,136,177577,1,8,0:0:0:0:
180,116,177737,6,0,L|126:220,1,117.599996411133,0|2,0:0|0:0,0:0:0:0:
305,347,178056,1,0,0:0:0:0:
392,48,178215,1,8,0:0:0:0:
194,235,178375,1,0,0:0:0:0:
444,136,178535,5,2,0:0:0:0:
201,28,178694,1,0,0:0:0:0:
419,237,178854,1,8,0:0:0:0:
147,287,179013,1,0,0:0:0:0:
295,50,179173,5,2,0:0:0:0:
363,293,179332,1,0,0:0:0:0:
201,28,179492,1,8,0:0:0:0:
147,287,179652,1,0,0:0:0:0:
388,192,179811,5,2,0:0:0:0:
133,168,179971,1,0,0:0:0:0:
394,338,180130,1,8,0:0:0:0:
342,122,180290,6,0,L|226:99,1,117.599996411133,0|2,0:0|0:0,0:0:0:0:
170,262,180609,2,0,L|285:284,1,117.599996411133,0|8,0:0|0:0,0:0:0:0:
351,99,180928,6,0,L|235:76,1,117.599996411133,0|2,0:0|0:0,0:0:0:0:
161,285,181247,2,0,L|277:308,1,117.599996411133,0|8,0:0|0:0,0:0:0:0:
360,71,181567,6,0,L|244:48,1,117.599996411133,0|2,0:0|0:0,0:0:0:0:
152,313,181886,2,0,L|268:336,1,117.599996411133,0|8,0:0|0:0,0:0:0:0:
368,36,182205,6,0,L|252:13,1,117.599996411133,0|2,0:0|0:0,0:0:0:0:
143,347,182524,1,0,0:0:0:0:
342,122,182684,1,8,0:0:0:0:
91,131,182843,1,0,0:0:0:0:
362,209,183003,5,8,0:3:0:0:
89,245,183162,1,8,0:0:0:0:
89,245,183242,1,8,0:0:0:0:
89,245,183322,1,8,0:0:0:0:
256,38,183481,1,8,0:3:0:0:
422,245,183641,5,8,0:0:0:0:
422,245,183721,1,8,0:0:0:0:
422,245,183801,1,8,0:0:0:0:
150,209,183960,1,2,0:0:0:0:
398,92,184120,5,8,0:0:0:0:
398,92,184200,1,8,0:0:0:0:
398,92,184279,1,8,0:0:0:0:
256,332,184439,1,8,0:3:0:0:
114,92,184598,5,2,0:0:0:0:
106,139,184678,1,8,0:0:0:0:
99,187,184758,2,8,L|90:246,1,58.7999982055665
256,332,184918,5,2,0:0:0:0:
255,283,184998,1,8,0:0:0:0:
256,233,185078,2,8,L|256:174,1,58.7999982055665
398,92,185237,5,2,0:0:0:0:
406,139,185317,1,8,0:0:0:0:
412,187,185397,2,8,L|422:246,1,58.7999982055665
114,92,185556,5,6,0:0:0:0:
144,203,185715,1,0,0:0:0:0:
256,233,185875,1,0,0:0:0:0:
226,122,186035,1,0,0:0:0:0:
114,92,186194,1,0,0:0:0:0:
114,92,186513,5,0,0:0:0:0:
226,122,186672,1,0,0:0:0:0:
175,315,186832,5,0,0:0:0:0:
63,285,186992,1,0,0:0:0:0:
144,203,187152,1,0,0:0:0:0:
144,203,187471,5,0,0:0:0:0:
63,285,187631,1,0,0:0:0:0:
175,315,187791,1,0,0:0:0:0:
33,174,187950,1,2,0:0:0:0:
226,122,188109,5,2,0:0:0:0:
144,203,188269,1,0,0:0:0:0:
257,234,188428,1,0,0:0:0:0:
175,315,188588,1,0,0:0:0:0:
287,345,188747,1,0,0:0:0:0:
226,122,188907,5,0,0:0:0:0:
63,285,189067,1,0,0:0:0:0:
287,345,189226,1,0,0:0:0:0:
226,122,189386,5,0,0:0:0:0:
144,203,189545,1,0,0:0:0:0:
175,315,189705,1,0,0:0:0:0:
257,234,189864,1,0,0:0:0:0:
63,285,190024,5,0,0:0:0:0:
144,203,190184,1,0,0:0:0:0:
175,315,190343,1,0,0:0:0:0:
33,174,190503,1,2,0:0:0:0:
226,122,190662,5,2,0:0:0:0:
144,203,190822,1,0,0:0:0:0:
257,234,190981,1,0,0:0:0:0:
339,153,191141,1,0,0:0:0:0:
226,122,191301,1,0,0:0:0:0:
226,122,191620,5,0,0:0:0:0:
339,153,191780,1,0,0:0:0:0:
144,203,191939,5,0,0:0:0:0:
257,234,192098,1,0,0:0:0:0:
226,122,192258,1,0,0:0:0:0:
226,122,192577,5,0,0:0:0:0:
257,234,192737,1,0,0:0:0:0:
144,203,192896,1,0,0:0:0:0:
339,153,193056,1,2,0:0:0:0:
174,314,193215,6,0,P|263:348|347:303,1,196,8|0,0:0|0:0,0:0:0:0:
226,122,193694,2,0,P|137:88|53:133,1,196,8|0,0:0|0:0,0:0:0:0:
257,234,194173,2,0,P|299:211|329:173,1,98,8|0,0:0|0:0,0:0:0:0:
113,223,194492,5,0,0:0:0:0:
309,334,194652,1,8,0:0:0:0:
321,57,194811,1,8,0:0:0:0:
174,314,194971,1,8,0:0:0:0:
134,57,195130,1,8,0:0:0:0:
329,172,195290,1,0,0:0:0:0:
68,254,195450,6,8,L|53:300,1,49
228,57,195609,2,8,L|242:103,1,49
309,334,195769,5,6,0:0:0:0:
109,169,195928,1,0,0:0:0:0:
422,172,196088,1,8,0:0:0:0:
181,57,196247,1,0,0:0:0:0:
188,351,196407,6,0,L|309:334,1,122.5,2|0,0:0|0:0,0:0:0:0:
368,57,196726,1,8,0:0:0:0:
194,210,196886,1,0,0:0:0:0:
430,317,197045,5,2,0:0:0:0:
302,115,197205,1,0,0:0:0:0:
103,310,197364,2,0,L|86:189,1,122.5,8|0,0:0|0:0,0:0:0:0:
284,28,197684,5,2,0:0:0:0:
252,272,197843,1,0,0:0:0:0:
41,82,198003,2,0,L|162:65,1,122.5,8|0,0:0|0:0,0:0:0:0:
386,144,198322,5,2,0:0:0:0:
194,210,198481,1,0,0:0:0:0:
401,28,198641,1,8,0:0:0:0:
428,281,198801,1,0,0:0:0:0:
233,84,198960,6,0,P|285:112|307:168,1,122.5,2|0,0:0|0:0,0:0:0:0:
100,356,199279,1,8,0:0:0:0:
136,107,199439,1,0,0:0:0:0:
290,312,199598,5,2,0:0:0:0:
304,51,199758,1,0,0:0:0:0:
195,334,199918,1,8,0:0:0:0:
407,213,200077,1,0,0:0:0:0:
136,107,200237,5,2,0:0:0:0:
402,102,200396,1,0,0:0:0:0:
141,218,200556,1,8,0:0:0:0:
378,296,200715,1,0,0:0:0:0:
100,356,200875,5,2,0:0:0:0:
236,159,201035,1,0,0:0:0:0:
435,362,201194,1,8,0:0:0:0:
168,276,201354,1,0,0:0:0:0:
402,102,201513,6,0,L|407:224,1,122.5,2|0,0:0|0:0,0:0:0:0:
100,158,201832,1,8,0:0:0:0:
345,36,201992,1,0,0:0:0:0:
270,307,202152,5,2,0:0:0:0:
168,90,202311,1,0,0:0:0:0:
378,296,202471,2,0,P|354:240|305:204,1,122.5,8|0,0:0|0:0,0:0:0:0:
33,286,202790,5,2,0:0:0:0:
168,90,202950,1,0,0:0:0:0:
191,380,203109,2,0,L|191:257,1,122.5,8|0,0:0|0:0,0:0:0:0:
43,25,203428,6,0,L|43:148,1,122.5,2|0,0:0|0:0,0:0:0:0:
323,301,203747,1,8,0:0:0:0:
168,90,203907,1,0,0:0:0:0:
100,352,204067,5,2,0:0:0:0:
315,209,204226,1,0,0:0:0:0:
43,86,204386,1,8,0:0:0:0:
191,318,204545,1,0,0:0:0:0:
291,63,204705,5,2,0:0:0:0:
116,257,204864,1,0,0:0:0:0:
407,201,205024,5,8,0:0:0:0:
168,90,205184,1,0,0:0:0:0:
354,342,205343,5,8,0:0:0:0:
414,36,205503,1,0,0:0:0:0:
116,257,205662,6,8,L|102:316,1,61.25
451,298,205822,2,8,L|464:357,1,61.25
230,77,205981,5,6,0:0:0:0:
197,180,206141,1,0,0:0:0:0:
268,252,206301,1,2,0:0:0:0:
300,153,206460,1,0,0:0:0:0:
230,77,206620,1,2,0:0:0:0:
230,77,206939,5,4,0:3:0:0:
300,153,207098,1,0,0:0:0:0:
166,278,207258,5,2,0:0:0:0:
197,180,207417,1,0,0:0:0:0:
268,252,207577,1,2,0:0:0:0:
268,252,207896,5,2,0:0:0:0:
197,180,208056,1,0,0:0:0:0:
166,278,208215,1,4,0:3:0:0:
166,278,208535,5,2,0:0:0:0:
197,180,208694,1,0,0:0:0:0:
268,252,208854,1,2,0:0:0:0:
300,153,209013,1,0,0:0:0:0:
370,226,209173,1,2,0:0:0:0:
370,226,209492,5,4,0:3:0:0:
300,153,209652,1,0,0:0:0:0:
237,350,209811,5,2,0:0:0:0:
268,252,209971,1,0,0:0:0:0:
166,278,210130,1,2,0:0:0:0:
166,278,210450,5,2,0:0:0:0:
268,252,210609,1,0,0:0:0:0:
237,350,210769,1,4,0:3:0:0:
237,350,211088,5,2,0:0:0:0:
268,252,211248,1,0,0:0:0:0:
300,153,211407,1,8,0:0:0:0:
197,180,211567,1,0,0:0:0:0:
94,207,211727,1,2,0:0:0:0:
94,207,212045,5,8,0:0:0:0:
197,180,212205,1,0,0:0:0:0:
134,377,212364,5,2,0:0:0:0:
63,305,212524,1,0,0:0:0:0:
166,278,212684,1,8,0:0:0:0:
166,278,213003,5,2,0:0:0:0:
63,305,213163,1,0,0:0:0:0:
134,377,213323,1,8,0:0:0:0:
134,377,213641,5,2,0:0:0:0:
63,305,213801,1,0,0:0:0:0:
166,278,213961,1,8,0:0:0:0:
237,350,214120,1,0,0:0:0:0:
94,207,214279,5,8,0:0:0:0:
370,226,214439,1,8,0:0:0:0:
134,377,214598,1,2,0:0:0:0:
233,78,214758,1,8,0:0:0:0:
237,350,214918,5,8,0:3:0:0:
122,104,215077,1,8,0:0:0:0:
122,104,215157,1,8,0:0:0:0:
122,104,215237,1,8,0:0:0:0:
369,323,215396,6,0,L|370:226,1,98,6|0,0:0|0:0,0:0:0:0:
164,35,215715,1,6,0:0:0:0:
237,350,215875,1,6,0:0:0:0:
375,83,216035,6,0,P|307:123|383:93,1,245,6|0,0:0|0:0,0:0:0:0:
