osu file format v14

[General]
AudioFilename: audio.ogg
AudioLeadIn: 0
PreviewTime: 112555
Countdown: 1
SampleSet: Normal
StackLeniency: 0.7
Mode: 1
LetterboxInBreaks: 0
WidescreenStoryboard: 1

[Editor]
Bookmarks: 375,5481,15694,25906,36119,46332,56545,66757,76970,92289,102502,112715,122928,133140,143353,153566,175268,185481,195694
DistanceSpacing: 1
BeatDivisor: 4
GridSize: 32
TimelineZoom: 1.700001

[Metadata]
Title:Uso no Hibana
TitleUnicode:嘘の火花
Artist:96neko
ArtistUnicode:96猫
Creator:gaston_2199
Version:Muzukashii
Source:クズの本懐
Tags:kuzu no honkai Scum's Wish scums Kuroneko O2O 谷口尚久 naohisa taniguchi opening op full size version japanese anime j-pop jpop jrock j-rock female vocal
BeatmapID:3266103
BeatmapSetID:1089866

[Difficulty]
HPDrainRate:6
CircleSize:2
OverallDifficulty:5
ApproachRate:10
SliderMultiplier:1.4
SliderTickRate:1

[Events]
//Background and Video events
0,0,"BG.jpg",0,0
//Break Periods
2,165255,172265
//Storyboard Layer 0 (Background)
//Storyboard Layer 1 (Fail)
//Storyboard Layer 2 (Pass)
//Storyboard Layer 3 (Foreground)
//Storyboard Layer 4 (Overlay)
//Storyboard Sound Samples

[TimingPoints]
375,319.148936170213,4,1,0,70,1,0
5476,-100,4,1,0,80,0,0
15848,-111.111111111111,4,1,0,70,0,0
24630,-110.169528871027,4,1,0,70,0,0
24949,-107.438043166457,4,1,0,70,0,0
25109,-106.122414327375,4,1,0,70,0,0
25268,-104.838726586891,4,1,0,70,0,0
25587,-102.362212784426,4,1,0,70,0,0
25667,-101.761284308817,4,1,0,70,0,0
25747,-101.167267937462,4,1,0,70,0,0
25901,-100,4,1,0,80,0,0
36119,-100,4,1,0,90,0,1
45055,-100,4,1,0,80,0,0
46332,-100,4,1,0,90,0,1
56545,-100,4,1,0,70,0,0
66757,-100,4,1,0,90,0,1
76970,-100,4,1,0,80,0,0
77125,-111.111111111111,4,1,0,80,0,0
82077,-100,4,1,0,80,0,0
87338,-100,4,1,0,70,0,0
92284,-100,4,1,0,80,0,0
112715,-100,4,1,0,90,0,1
121651,-100,4,1,0,80,0,0
122928,-100,4,1,0,90,0,1
133140,-100,4,1,0,70,0,0
143353,-100,4,1,0,90,0,1
153566,-100,4,1,0,80,0,0
163774,-97.8260869565217,4,1,0,80,0,0
163933,-95.7446808510638,4,1,0,80,0,0
164093,-93.75,4,1,0,80,0,0
164252,-91.8367346938776,4,1,0,80,0,0
164412,-90,4,1,0,80,0,0
164572,-88.2352941176471,4,1,0,80,0,0
164731,-86.5384615384615,4,1,0,80,0,0
164891,-84.9056603773585,4,1,0,80,0,0
165050,-83.3333333333333,4,1,0,80,0,0
165370,-111.111111111111,4,1,0,70,0,0
172710,-100,4,1,0,70,0,0
175268,-100,4,1,0,90,0,1
185481,-100,4,1,0,80,0,0
195694,-100,4,1,0,90,0,1
205906,-100,4,1,0,80,0,0
206061,-111.111111111111,4,1,0,80,0,0
211013,-100,4,1,0,80,0,0

[HitObjects]
256,192,375,5,4,0:0:0:0:
256,192,853,1,8,0:0:0:0:
256,192,1332,1,0,0:0:0:0:
256,192,1811,1,8,0:0:0:0:
256,192,2449,1,0,0:0:0:0:
256,192,2609,1,0,0:0:0:0:
256,192,2768,1,0,0:0:0:0:
256,192,2928,1,8,0:0:0:0:
256,192,3406,1,0,0:0:0:0:
256,192,4045,1,8,0:0:0:0:
256,192,4204,1,0,0:0:0:0:
256,160,4364,1,8,0:0:0:0:
256,160,4523,1,0,0:0:0:0:
256,160,4683,1,8,0:0:0:0:
256,160,5002,1,8,0:0:0:0:
256,160,5162,1,8,0:0:0:0:
256,160,5242,1,8,0:0:0:0:
256,160,5321,1,8,0:0:0:0:
256,160,5481,1,4,0:0:0:0:
256,160,5800,1,0,0:0:0:0:
197,27,5960,1,8,0:0:0:0:
256,160,6119,1,0,0:0:0:0:
237,26,6438,1,0,0:0:0:0:
248,127,6598,1,0,0:0:0:0:
256,160,6757,1,8,0:0:0:0:
256,160,6917,1,8,0:0:0:0:
256,160,7077,1,0,0:0:0:0:
256,160,7396,1,8,0:0:0:0:
256,160,7555,1,8,0:0:0:0:
256,160,7715,1,0,0:0:0:0:
256,160,8034,1,0,0:0:0:0:
256,160,8194,1,0,0:0:0:0:
256,160,8353,1,8,0:0:0:0:
256,160,8672,1,0,0:0:0:0:
256,160,8992,1,0,0:0:0:0:
256,160,9151,1,8,0:0:0:0:
256,160,9311,1,0,0:0:0:0:
256,160,9470,1,0,0:0:0:0:
256,160,9630,1,8,0:0:0:0:
256,160,9949,1,8,0:0:0:0:
256,160,10109,1,8,0:0:0:0:
256,160,10268,1,0,0:0:0:0:
256,160,10428,1,8,0:0:0:0:
256,160,10587,1,0,0:0:0:0:
256,160,10906,1,0,0:0:0:0:
256,160,11066,1,8,0:0:0:0:
256,160,11226,1,0,0:0:0:0:
220,31,11545,1,0,0:0:0:0:
244,152,11704,1,0,0:0:0:0:
256,160,11864,1,8,0:0:0:0:
256,160,12023,1,8,0:0:0:0:
256,160,12183,1,0,0:0:0:0:
256,160,12502,1,8,0:0:0:0:
275,152,12662,1,8,0:0:0:0:
275,152,12821,1,0,0:0:0:0:
256,160,13140,1,8,0:0:0:0:
256,160,13460,1,8,0:0:0:0:
256,160,13619,1,0,0:0:0:0:
256,160,13779,1,8,0:0:0:0:
256,160,13938,1,8,0:0:0:0:
256,160,14098,1,0,0:0:0:0:
256,160,14417,1,8,0:0:0:0:
148,95,14577,1,0,0:0:0:0:
256,160,14736,1,8,0:0:0:0:
256,160,14896,1,0,0:0:0:0:
256,160,15055,1,8,0:0:0:0:
256,160,15215,1,8,0:0:0:0:
256,160,15375,1,8,0:0:0:0:
238,125,15454,1,8,0:0:0:0:
256,160,15534,1,8,0:0:0:0:
256,160,15694,1,0,0:0:0:0:
256,128,16172,1,0,0:0:0:0:
256,128,16970,1,8,0:0:0:0:
256,128,17449,1,8,0:0:0:0:
256,128,18247,1,0,0:0:0:0:
256,128,18726,1,0,0:0:0:0:
256,128,19523,1,8,0:0:0:0:
256,128,20002,1,8,0:0:0:0:
256,128,20800,1,0,0:0:0:0:
256,128,21279,1,0,0:0:0:0:
256,128,22077,1,8,0:0:0:0:
256,128,22555,1,8,0:0:0:0:
256,128,23353,1,0,0:0:0:0:
256,128,23832,1,0,0:0:0:0:
256,128,24630,1,0,0:0:0:0:
256,128,25109,1,8,0:0:0:0:
260,140,25268,1,0,0:0:0:0:
256,128,25587,1,8,0:0:0:0:
260,115,25667,1,8,0:0:0:0:
256,128,25747,1,8,0:0:0:0:
256,128,25906,1,4,0:0:0:0:
256,160,26226,1,8,0:0:0:0:
256,160,26545,1,0,0:0:0:0:
256,160,26704,1,0,0:0:0:0:
256,160,26864,1,8,0:0:0:0:
198,149,27023,1,0,0:0:0:0:
256,160,27183,1,8,0:0:0:0:
256,160,27662,1,0,0:0:0:0:
256,160,27821,1,8,0:0:0:0:
256,160,27981,1,0,0:0:0:0:
256,160,28140,1,8,0:0:0:0:
244,152,28300,1,8,0:0:0:0:
256,160,28460,1,0,0:0:0:0:
256,160,28779,1,8,0:0:0:0:
256,160,29098,1,0,0:0:0:0:
256,160,29257,1,0,0:0:0:0:
256,160,29417,1,8,0:0:0:0:
256,160,29736,1,0,0:0:0:0:
189,140,29896,1,0,0:0:0:0:
203,48,30055,1,8,0:0:0:0:
149,57,30215,1,0,0:0:0:0:
139,90,30295,1,0,0:0:0:0:
256,160,30375,1,0,0:0:0:0:
277,152,30534,5,0,0:0:0:0:
256,160,30694,1,8,0:0:0:0:
256,160,31013,1,0,0:0:0:0:
256,160,31332,1,8,0:0:0:0:
256,160,31651,1,0,0:0:0:0:
256,160,31811,1,0,0:0:0:0:
256,160,31970,1,8,0:0:0:0:
219,116,32130,1,8,0:0:0:0:
253,129,32289,1,0,0:0:0:0:
201,21,32609,1,8,0:0:0:0:
256,160,33087,1,8,0:0:0:0:
200,148,33247,1,0,0:0:0:0:
256,160,33406,1,0,0:0:0:0:
256,160,33566,1,8,0:0:0:0:
256,160,33885,1,8,0:0:0:0:
256,160,34045,1,0,0:0:0:0:
256,160,34204,1,8,0:0:0:0:
198,147,34364,1,0,0:0:0:0:
256,96,34523,1,8,0:0:0:0:
193,115,34683,1,8,0:0:0:0:
256,96,34843,1,0,0:0:0:0:
256,96,35481,1,8,0:0:0:0:
256,96,35640,1,8,0:0:0:0:
256,96,35800,1,8,0:0:0:0:
256,96,35960,1,8,0:0:0:0:
288,96,36119,1,4,0:0:0:0:
288,96,36438,1,8,0:0:0:0:
288,96,36757,1,0,0:0:0:0:
288,96,36917,1,0,0:0:0:0:
288,96,37077,1,8,0:0:0:0:
288,96,37236,1,0,0:0:0:0:
288,96,37396,1,0,0:0:0:0:
288,96,37715,1,8,0:0:0:0:
228,55,37875,1,0,0:0:0:0:
288,96,38034,1,8,0:0:0:0:
288,96,38194,1,0,0:0:0:0:
288,96,38513,1,8,0:0:0:0:
288,96,38832,1,0,0:0:0:0:
288,96,38992,1,8,0:0:0:0:
288,96,39311,1,0,0:0:0:0:
292,26,39470,1,0,0:0:0:0:
288,96,39630,1,8,0:0:0:0:
292,26,39789,1,0,0:0:0:0:
266,30,39869,1,0,0:0:0:0:
256,128,39949,1,0,0:0:0:0:
221,89,40109,1,0,0:0:0:0:
256,128,40268,1,8,0:0:0:0:
256,128,40587,1,0,0:0:0:0:
288,96,41066,1,8,0:0:0:0:
166,87,41385,1,0,0:0:0:0:
256,128,41545,1,8,0:0:0:0:
256,128,41704,1,0,0:0:0:0:
224,4,42023,1,0,0:0:0:0:
241,108,42183,1,0,0:0:0:0:
256,96,42343,5,0,0:0:0:0:
288,128,42662,1,0,0:0:0:0:
256,128,42821,1,8,0:0:0:0:
288,96,42981,1,8,0:0:0:0:
248,50,43140,1,0,0:0:0:0:
241,68,43300,1,0,0:0:0:0:
288,96,43460,1,8,0:0:0:0:
241,68,43619,1,8,0:0:0:0:
288,96,43779,1,0,0:0:0:0:
288,96,44098,1,8,0:0:0:0:
288,96,44417,1,8,0:0:0:0:
256,96,44577,1,0,0:0:0:0:
288,96,44736,1,8,0:0:0:0:
288,96,45055,1,0,0:0:0:0:
288,96,45534,1,8,0:0:0:0:
288,96,45694,1,0,0:0:0:0:
256,64,45853,1,8,0:0:0:0:
288,96,46013,1,8,0:0:0:0:
288,96,46332,1,4,0:0:0:0:
256,160,46651,1,8,0:0:0:0:
256,160,46970,1,8,0:0:0:0:
256,160,47130,1,8,0:0:0:0:
256,160,47289,1,0,0:0:0:0:
167,125,47449,1,0,0:0:0:0:
256,160,47609,1,8,0:0:0:0:
221,106,47768,1,0,0:0:0:0:
186,83,47848,1,0,0:0:0:0:
256,160,47928,1,0,0:0:0:0:
256,160,48247,1,8,0:0:0:0:
256,160,48406,1,0,0:0:0:0:
256,160,48726,1,8,0:0:0:0:
256,160,49045,1,0,0:0:0:0:
256,160,49204,1,8,0:0:0:0:
260,173,49523,1,0,0:0:0:0:
256,160,49683,1,8,0:0:0:0:
256,160,49843,1,0,0:0:0:0:
256,102,50002,1,0,0:0:0:0:
256,160,50162,1,8,0:0:0:0:
230,134,50242,1,8,0:0:0:0:
216,104,50321,1,8,0:0:0:0:
260,173,50481,1,0,0:0:0:0:
256,160,50800,1,8,0:0:0:0:
256,160,51279,1,8,0:0:0:0:
226,98,51438,1,0,0:0:0:0:
256,160,51598,1,8,0:0:0:0:
256,160,51917,1,8,0:0:0:0:
231,87,52077,1,8,0:0:0:0:
256,160,52236,1,0,0:0:0:0:
256,160,52555,1,8,0:0:0:0:
231,88,52715,1,0,0:0:0:0:
256,160,52875,1,8,0:0:0:0:
256,160,53194,1,8,0:0:0:0:
152,88,53273,1,8,0:0:0:0:
260,173,53353,1,8,0:0:0:0:
256,160,53513,1,0,0:0:0:0:
256,160,53672,1,8,0:0:0:0:
274,146,53832,1,8,0:0:0:0:
256,160,53992,1,0,0:0:0:0:
260,173,54311,1,8,0:0:0:0:
215,128,54470,1,0,0:0:0:0:
261,144,54630,1,8,0:0:0:0:
256,160,54949,1,8,0:0:0:0:
256,160,55109,1,8,0:0:0:0:
256,160,55268,1,0,0:0:0:0:
214,104,55428,1,0,0:0:0:0:
256,160,55587,1,8,0:0:0:0:
256,128,55747,1,0,0:0:0:0:
256,160,55906,1,8,0:0:0:0:
288,96,55986,1,8,0:0:0:0:
256,160,56066,1,8,0:0:0:0:
260,173,56226,1,0,0:0:0:0:
260,173,56385,1,8,0:0:0:0:
256,160,56545,1,4,0:0:0:0:
256,192,58938,1,0,0:0:0:0:
256,192,59098,1,0,0:0:0:0:
256,192,61492,1,0,0:0:0:0:
256,192,61651,1,0,0:0:0:0:
209,56,64045,1,0,0:0:0:0:
256,192,64204,1,8,0:0:0:0:
256,192,64523,1,0,0:0:0:0:
256,192,64683,1,8,0:0:0:0:
189,176,64843,1,0,0:0:0:0:
256,192,65002,1,0,0:0:0:0:
256,192,65162,1,8,0:0:0:0:
256,192,65481,1,8,0:0:0:0:
256,192,65640,1,8,0:0:0:0:
256,160,65800,1,0,0:0:0:0:
236,89,65960,1,0,0:0:0:0:
256,160,66119,1,8,0:0:0:0:
256,192,66279,1,0,0:0:0:0:
256,160,66438,1,8,0:0:0:0:
256,160,66518,1,8,0:0:0:0:
256,192,66598,1,8,0:0:0:0:
256,160,66757,1,4,0:0:0:0:
256,160,67077,1,8,0:0:0:0:
256,160,67236,1,8,0:0:0:0:
256,160,67396,1,0,0:0:0:0:
256,160,67875,1,0,0:0:0:0:
256,160,68034,1,8,0:0:0:0:
256,160,68194,1,0,0:0:0:0:
238,120,68273,1,0,0:0:0:0:
256,160,68353,1,0,0:0:0:0:
256,160,68672,1,8,0:0:0:0:
256,160,68832,1,8,0:0:0:0:
256,160,68992,1,0,0:0:0:0:
256,128,69311,1,0,0:0:0:0:
256,160,69470,1,0,0:0:0:0:
256,160,69630,1,8,0:0:0:0:
256,160,69789,1,8,0:0:0:0:
256,160,69949,1,0,0:0:0:0:
256,128,70268,1,8,0:0:0:0:
256,128,70587,1,8,0:0:0:0:
214,94,70747,1,0,0:0:0:0:
187,8,70906,1,8,0:0:0:0:
256,160,71226,1,8,0:0:0:0:
187,8,71305,1,8,0:0:0:0:
256,160,71385,1,8,0:0:0:0:
256,160,71545,1,0,0:0:0:0:
240,100,71704,1,8,0:0:0:0:
256,160,71864,1,0,0:0:0:0:
256,160,72183,1,8,0:0:0:0:
256,160,72343,1,8,0:0:0:0:
256,160,72502,1,0,0:0:0:0:
256,160,72981,1,0,0:0:0:0:
256,160,73140,1,8,0:0:0:0:
256,160,73300,1,0,0:0:0:0:
237,127,73380,1,0,0:0:0:0:
256,160,73460,1,0,0:0:0:0:
256,160,73779,1,8,0:0:0:0:
256,160,73938,1,8,0:0:0:0:
256,160,74098,1,0,0:0:0:0:
256,160,74417,1,8,0:0:0:0:
256,160,74736,1,8,0:0:0:0:
256,160,74896,1,8,0:0:0:0:
256,160,75055,1,0,0:0:0:0:
256,160,75215,1,0,0:0:0:0:
256,160,75375,1,8,0:0:0:0:
256,160,75694,1,8,0:0:0:0:
256,160,75853,1,0,0:0:0:0:
256,160,76013,1,8,0:0:0:0:
256,160,76172,1,0,0:0:0:0:
256,160,76332,1,0,0:0:0:0:
256,160,76492,1,0,0:0:0:0:
256,160,76651,1,8,0:0:0:0:
256,160,76731,1,8,0:0:0:0:
256,160,76811,1,8,0:0:0:0:
256,160,76970,1,4,0:0:0:0:
256,128,77609,1,8,0:0:0:0:
256,128,78247,1,0,0:0:0:0:
256,128,78885,1,0,0:0:0:0:
256,128,79204,1,8,0:0:0:0:
256,128,79523,1,0,0:0:0:0:
256,128,80162,1,8,0:0:0:0:
256,128,80800,1,0,0:0:0:0:
198,12,81119,1,0,0:0:0:0:
256,128,81438,1,8,0:0:0:0:
256,128,82077,1,0,0:0:0:0:
256,128,82715,1,8,0:0:0:0:
256,128,83034,1,0,0:0:0:0:
253,102,83353,1,0,0:0:0:0:
256,128,83513,1,0,0:0:0:0:
256,128,83672,1,8,0:0:0:0:
256,128,83992,1,0,0:0:0:0:
256,128,84311,1,8,0:0:0:0:
269,112,84630,1,0,0:0:0:0:
256,128,85268,1,8,0:0:0:0:
248,113,85428,1,0,0:0:0:0:
256,128,85587,1,8,0:0:0:0:
260,120,85747,1,0,0:0:0:0:
178,26,86066,1,0,0:0:0:0:
256,128,86226,1,8,0:0:0:0:
247,130,86385,1,0,0:0:0:0:
223,135,86465,1,0,0:0:0:0:
178,26,86545,1,0,0:0:0:0:
256,96,86704,1,0,0:0:0:0:
256,96,86864,1,8,0:0:0:0:
178,146,87023,1,8,0:0:0:0:
256,96,87183,1,4,0:0:0:0:
256,128,87662,1,8,0:0:0:0:
256,128,88460,1,0,0:0:0:0:
256,128,88938,1,8,0:0:0:0:
256,128,89257,1,0,0:0:0:0:
256,128,89417,1,0,0:0:0:0:
256,128,89577,1,0,0:0:0:0:
256,128,89736,1,0,0:0:0:0:
256,128,90215,1,8,0:0:0:0:
256,192,90853,1,8,0:0:0:0:
256,192,91013,1,0,0:0:0:0:
256,160,91172,1,8,0:0:0:0:
256,160,91332,1,0,0:0:0:0:
256,160,91492,1,8,0:0:0:0:
256,160,91811,1,8,0:0:0:0:
256,160,91970,1,8,0:0:0:0:
256,160,92050,1,8,0:0:0:0:
256,160,92130,1,8,0:0:0:0:
256,160,92289,1,4,0:0:0:0:
256,160,92609,1,8,0:0:0:0:
256,160,92768,1,8,0:0:0:0:
256,160,92928,1,0,0:0:0:0:
256,160,93247,1,8,0:0:0:0:
256,160,93406,1,0,0:0:0:0:
256,160,93566,1,8,0:0:0:0:
266,76,93726,1,0,0:0:0:0:
256,128,94045,1,8,0:0:0:0:
197,82,94364,1,0,0:0:0:0:
256,160,94523,1,8,0:0:0:0:
256,128,94683,1,0,0:0:0:0:
256,160,95162,1,8,0:0:0:0:
288,160,95481,1,0,0:0:0:0:
256,160,95800,1,8,0:0:0:0:
256,160,95960,1,0,0:0:0:0:
256,160,96119,1,8,0:0:0:0:
256,160,96279,1,8,0:0:0:0:
242,145,96359,1,8,0:0:0:0:
225,129,96438,1,8,0:0:0:0:
256,160,96598,1,0,0:0:0:0:
182,59,96917,1,0,0:0:0:0:
256,160,97077,1,8,0:0:0:0:
256,160,97236,1,8,0:0:0:0:
205,151,97396,1,0,0:0:0:0:
256,160,97715,1,8,0:0:0:0:
256,160,97875,1,8,0:0:0:0:
256,160,98034,1,0,0:0:0:0:
179,144,98194,1,0,0:0:0:0:
256,160,98353,1,8,0:0:0:0:
256,160,98513,1,0,0:0:0:0:
256,160,98672,1,8,0:0:0:0:
166,61,98992,1,0,0:0:0:0:
256,128,99151,1,8,0:0:0:0:
256,160,99470,1,0,0:0:0:0:
256,160,99630,1,8,0:0:0:0:
256,128,99789,1,0,0:0:0:0:
256,128,100109,5,0,0:0:0:0:
256,160,100268,1,8,0:0:0:0:
256,160,100428,1,8,0:0:0:0:
256,160,100747,1,0,0:0:0:0:
256,160,100906,1,8,0:0:0:0:
256,160,101066,1,8,0:0:0:0:
256,128,101226,1,0,0:0:0:0:
256,128,101704,1,8,0:0:0:0:
260,140,101864,1,0,0:0:0:0:
256,128,102183,1,8,0:0:0:0:
256,128,102263,1,8,0:0:0:0:
256,128,102343,1,8,0:0:0:0:
256,128,102502,1,4,0:0:0:0:
256,160,102821,1,8,0:0:0:0:
256,160,103140,1,0,0:0:0:0:
207,114,103300,1,0,0:0:0:0:
256,160,103460,1,8,0:0:0:0:
256,160,103619,1,0,0:0:0:0:
256,160,103779,1,8,0:0:0:0:
247,55,104257,1,0,0:0:0:0:
256,160,104417,1,8,0:0:0:0:
193,166,104577,1,0,0:0:0:0:
256,160,104736,1,8,0:0:0:0:
256,160,104896,1,8,0:0:0:0:
256,160,105055,1,0,0:0:0:0:
213,22,105375,1,8,0:0:0:0:
256,160,105694,1,8,0:0:0:0:
256,160,105853,1,0,0:0:0:0:
256,160,106013,1,8,0:0:0:0:
256,160,106332,1,0,0:0:0:0:
209,127,106492,1,8,0:0:0:0:
144,208,106651,1,0,0:0:0:0:
256,160,106811,1,8,0:0:0:0:
219,135,106890,1,8,0:0:0:0:
243,96,106970,1,8,0:0:0:0:
256,160,107130,1,0,0:0:0:0:
256,160,107289,1,8,0:0:0:0:
264,138,107609,1,0,0:0:0:0:
256,160,107928,1,8,0:0:0:0:
256,160,108247,1,0,0:0:0:0:
256,160,108406,1,0,0:0:0:0:
256,160,108566,1,8,0:0:0:0:
217,114,108726,1,8,0:0:0:0:
251,128,108885,1,0,0:0:0:0:
256,160,109204,1,8,0:0:0:0:
256,160,109683,1,8,0:0:0:0:
202,105,109843,1,0,0:0:0:0:
256,160,110002,1,0,0:0:0:0:
256,160,110162,1,8,0:0:0:0:
256,160,110481,1,8,0:0:0:0:
256,160,110640,1,0,0:0:0:0:
256,160,110800,1,8,0:0:0:0:
209,109,110960,1,0,0:0:0:0:
256,96,111119,1,8,0:0:0:0:
181,76,111279,1,8,0:0:0:0:
256,96,111438,1,0,0:0:0:0:
256,96,112077,1,8,0:0:0:0:
256,96,112236,1,8,0:0:0:0:
256,96,112396,5,8,0:0:0:0:
256,96,112555,1,8,0:0:0:0:
288,96,112715,1,4,0:0:0:0:
288,96,113034,1,8,0:0:0:0:
288,96,113353,1,0,0:0:0:0:
288,96,113513,1,0,0:0:0:0:
288,96,113672,1,8,0:0:0:0:
288,96,113832,1,0,0:0:0:0:
288,96,113992,1,8,0:0:0:0:
288,96,114311,1,8,0:0:0:0:
232,101,114470,1,0,0:0:0:0:
288,96,114630,1,8,0:0:0:0:
288,96,114789,1,0,0:0:0:0:
288,96,115109,1,8,0:0:0:0:
196,16,115428,1,0,0:0:0:0:
288,96,115587,1,8,0:0:0:0:
288,96,115906,1,0,0:0:0:0:
288,96,116066,1,0,0:0:0:0:
288,96,116226,1,8,0:0:0:0:
214,63,116385,1,0,0:0:0:0:
195,81,116465,1,0,0:0:0:0:
256,128,116545,1,0,0:0:0:0:
194,119,116704,1,0,0:0:0:0:
256,128,116864,1,8,0:0:0:0:
256,128,117183,1,0,0:0:0:0:
288,96,117662,1,8,0:0:0:0:
288,96,117981,1,0,0:0:0:0:
256,128,118140,1,8,0:0:0:0:
256,128,118300,1,0,0:0:0:0:
256,96,118619,1,0,0:0:0:0:
256,128,118779,1,0,0:0:0:0:
256,96,118938,5,0,0:0:0:0:
288,128,119257,1,0,0:0:0:0:
256,128,119417,1,8,0:0:0:0:
288,96,119577,1,8,0:0:0:0:
209,85,119736,1,0,0:0:0:0:
244,21,119896,1,0,0:0:0:0:
288,96,120055,1,8,0:0:0:0:
244,21,120215,1,8,0:0:0:0:
288,96,120375,1,0,0:0:0:0:
288,96,120694,1,8,0:0:0:0:
288,96,121013,1,8,0:0:0:0:
288,96,121172,1,0,0:0:0:0:
288,96,121332,1,8,0:0:0:0:
288,96,121651,1,0,0:0:0:0:
288,96,122130,1,8,0:0:0:0:
160,64,122289,1,0,0:0:0:0:
256,64,122449,1,8,0:0:0:0:
288,96,122609,5,8,0:0:0:0:
288,96,122928,1,4,0:0:0:0:
256,160,123247,1,8,0:0:0:0:
256,160,123566,1,8,0:0:0:0:
256,160,123726,1,0,0:0:0:0:
256,160,123885,1,8,0:0:0:0:
256,160,124045,1,8,0:0:0:0:
256,160,124204,1,0,0:0:0:0:
235,131,124284,1,0,0:0:0:0:
221,112,124364,1,0,0:0:0:0:
256,160,124523,1,8,0:0:0:0:
256,160,124843,1,8,0:0:0:0:
256,160,125002,1,0,0:0:0:0:
256,160,125321,1,8,0:0:0:0:
256,160,125640,1,0,0:0:0:0:
256,160,125800,1,8,0:0:0:0:
260,173,126119,1,8,0:0:0:0:
256,160,126279,1,8,0:0:0:0:
256,160,126438,1,0,0:0:0:0:
229,99,126598,1,0,0:0:0:0:
256,160,126757,1,8,0:0:0:0:
236,138,126837,1,8,0:0:0:0:
257,91,126917,1,8,0:0:0:0:
260,173,127077,1,0,0:0:0:0:
256,160,127396,1,8,0:0:0:0:
256,160,127875,1,8,0:0:0:0:
256,160,128034,1,0,0:0:0:0:
256,160,128194,1,8,0:0:0:0:
256,160,128513,1,8,0:0:0:0:
256,160,128672,1,8,0:0:0:0:
260,173,128832,1,0,0:0:0:0:
256,160,129151,1,8,0:0:0:0:
228,102,129311,1,0,0:0:0:0:
256,160,129470,1,8,0:0:0:0:
256,160,129789,1,8,0:0:0:0:
238,59,129869,1,8,0:0:0:0:
260,173,129949,1,8,0:0:0:0:
256,160,130109,1,0,0:0:0:0:
256,160,130268,1,8,0:0:0:0:
152,71,130428,1,8,0:0:0:0:
256,160,130587,1,0,0:0:0:0:
260,173,130906,1,8,0:0:0:0:
207,154,131066,1,0,0:0:0:0:
256,160,131226,1,8,0:0:0:0:
256,160,131545,1,8,0:0:0:0:
180,31,131704,1,8,0:0:0:0:
260,173,131864,1,0,0:0:0:0:
194,172,132023,1,0,0:0:0:0:
256,160,132183,1,8,0:0:0:0:
256,160,132343,1,0,0:0:0:0:
256,160,132502,1,8,0:0:0:0:
256,128,132582,1,8,0:0:0:0:
256,160,132662,1,8,0:0:0:0:
260,173,132821,1,0,0:0:0:0:
260,173,132981,1,8,0:0:0:0:
256,160,133140,1,4,0:0:0:0:
256,192,135534,1,0,0:0:0:0:
256,192,135694,1,0,0:0:0:0:
256,192,138087,1,0,0:0:0:0:
256,192,138247,1,0,0:0:0:0:
129,217,140640,1,0,0:0:0:0:
256,192,140800,1,8,0:0:0:0:
256,192,141119,1,0,0:0:0:0:
256,192,141279,1,8,0:0:0:0:
195,164,141438,1,0,0:0:0:0:
256,192,141598,1,0,0:0:0:0:
256,192,141757,1,8,0:0:0:0:
256,192,142077,1,8,0:0:0:0:
253,158,142236,1,8,0:0:0:0:
256,160,142396,1,0,0:0:0:0:
214,109,142555,1,0,0:0:0:0:
256,160,142715,1,8,0:0:0:0:
256,192,142875,1,0,0:0:0:0:
256,160,143034,1,8,0:0:0:0:
256,160,143114,1,8,0:0:0:0:
256,192,143194,1,8,0:0:0:0:
256,160,143353,1,4,0:0:0:0:
256,160,143832,1,0,0:0:0:0:
256,160,143992,1,8,0:0:0:0:
235,139,144071,1,8,0:0:0:0:
256,160,144151,1,8,0:0:0:0:
256,160,144311,1,0,0:0:0:0:
256,160,144470,1,8,0:0:0:0:
226,107,144630,1,0,0:0:0:0:
243,39,144789,1,0,0:0:0:0:
256,160,144949,1,8,0:0:0:0:
174,36,145268,1,0,0:0:0:0:
178,97,145428,1,0,0:0:0:0:
256,160,145587,1,8,0:0:0:0:
256,160,145747,1,0,0:0:0:0:
244,165,146066,1,8,0:0:0:0:
193,24,146385,1,0,0:0:0:0:
256,160,146545,1,8,0:0:0:0:
256,160,146704,1,0,0:0:0:0:
256,160,146864,1,8,0:0:0:0:
244,165,147023,1,0,0:0:0:0:
227,142,147103,1,0,0:0:0:0:
193,24,147183,1,0,0:0:0:0:
193,24,147343,1,0,0:0:0:0:
256,160,147502,1,8,0:0:0:0:
252,78,147821,1,0,0:0:0:0:
130,52,148300,1,0,0:0:0:0:
256,160,148460,1,8,0:0:0:0:
256,160,148619,1,8,0:0:0:0:
256,160,148779,1,0,0:0:0:0:
244,165,148938,1,0,0:0:0:0:
256,160,149098,1,8,0:0:0:0:
227,115,149257,1,0,0:0:0:0:
256,160,149577,1,8,0:0:0:0:
204,28,149656,1,8,0:0:0:0:
230,48,149736,1,8,0:0:0:0:
237,143,149896,1,0,0:0:0:0:
256,160,150055,1,8,0:0:0:0:
256,160,150215,1,8,0:0:0:0:
256,160,150375,1,0,0:0:0:0:
256,160,150534,1,0,0:0:0:0:
244,165,150694,1,8,0:0:0:0:
244,165,150853,1,0,0:0:0:0:
39,107,151332,1,8,0:0:0:0:
245,78,151492,1,0,0:0:0:0:
244,165,151651,1,8,0:0:0:0:
244,165,151811,1,0,0:0:0:0:
244,165,151970,1,8,0:0:0:0:
256,160,152130,1,8,0:0:0:0:
256,160,152449,1,0,0:0:0:0:
256,160,152609,1,8,0:0:0:0:
244,165,152768,1,0,0:0:0:0:
244,165,152848,1,0,0:0:0:0:
244,165,152928,1,0,0:0:0:0:
256,160,153087,1,0,0:0:0:0:
244,165,153247,1,8,0:0:0:0:
256,160,153327,1,8,0:0:0:0:
256,160,153406,1,8,0:0:0:0:
256,160,153566,1,4,0:0:0:0:
244,165,154204,1,4,0:0:0:0:
256,160,154364,1,4,0:0:0:0:
244,165,154683,1,12,0:0:0:0:
244,165,155481,1,0,0:0:0:0:
244,165,156119,1,4,0:0:0:0:
244,165,156438,1,4,0:0:0:0:
224,128,156757,1,12,0:0:0:0:
224,128,156917,1,4,0:0:0:0:
224,128,157236,1,12,0:0:0:0:
224,128,158194,1,12,0:0:0:0:
224,128,158353,1,12,0:0:0:0:
224,58,158513,1,12,0:0:0:0:
224,128,158672,1,4,0:0:0:0:
224,128,159311,1,4,0:0:0:0:
224,128,159470,1,4,0:0:0:0:
224,128,159789,1,12,0:0:0:0:
224,128,160747,1,12,0:0:0:0:
224,128,161066,1,0,0:0:0:0:
224,128,161226,1,8,0:0:0:0:
237,125,161545,1,8,0:0:0:0:
224,128,161704,1,0,0:0:0:0:
224,128,161864,1,8,0:0:0:0:
224,128,162183,1,8,0:0:0:0:
237,125,162502,1,0,0:0:0:0:
224,128,162582,1,0,0:0:0:0:
224,128,162662,1,0,0:0:0:0:
224,128,162821,1,8,0:0:0:0:
224,128,162981,1,0,0:0:0:0:
151,102,163300,1,0,0:0:0:0:
224,128,163460,1,8,0:0:0:0:
224,128,163779,1,8,0:0:0:0:
251,85,163938,1,8,0:0:0:0:
224,128,164098,1,8,0:0:0:0:
218,61,164257,1,8,0:0:0:0:
224,128,164417,1,8,0:0:0:0:
235,53,164577,1,8,0:0:0:0:
224,128,164736,1,8,0:0:0:0:
234,51,164896,1,8,0:0:0:0:
224,128,165055,1,4,0:0:0:0:
288,192,172715,5,8,0:0:0:0:
288,192,172875,1,0,0:0:0:0:
288,192,173034,1,8,0:0:0:0:
288,192,173194,1,0,0:0:0:0:
256,128,173353,1,8,0:0:0:0:
288,192,173672,1,8,0:0:0:0:
288,192,173832,1,8,0:0:0:0:
288,192,173912,1,8,0:0:0:0:
288,192,173992,1,8,0:0:0:0:
288,96,175268,5,4,0:0:0:0:
256,160,175587,1,8,0:0:0:0:
256,160,175906,1,8,0:0:0:0:
256,160,176066,1,8,0:0:0:0:
256,160,176226,1,0,0:0:0:0:
256,160,176385,1,0,0:0:0:0:
256,160,176545,1,8,0:0:0:0:
266,159,176704,1,0,0:0:0:0:
259,144,176784,1,0,0:0:0:0:
256,160,176864,1,0,0:0:0:0:
232,108,177023,1,0,0:0:0:0:
256,160,177183,1,8,0:0:0:0:
256,160,177343,1,0,0:0:0:0:
256,160,177662,1,8,0:0:0:0:
256,160,177981,1,0,0:0:0:0:
256,160,178140,1,8,0:0:0:0:
260,173,178460,1,8,0:0:0:0:
256,160,178619,1,8,0:0:0:0:
256,160,178779,1,0,0:0:0:0:
222,109,178938,1,0,0:0:0:0:
256,160,179098,1,8,0:0:0:0:
240,137,179178,1,8,0:0:0:0:
223,113,179257,1,8,0:0:0:0:
260,173,179417,1,0,0:0:0:0:
258,130,179577,1,0,0:0:0:0:
256,160,179736,1,8,0:0:0:0:
256,160,180215,1,8,0:0:0:0:
202,92,180375,1,0,0:0:0:0:
256,160,180534,1,8,0:0:0:0:
256,160,180853,1,8,0:0:0:0:
229,115,181013,1,8,0:0:0:0:
256,160,181172,1,0,0:0:0:0:
224,111,181332,1,0,0:0:0:0:
256,160,181492,1,8,0:0:0:0:
221,109,181651,1,0,0:0:0:0:
256,160,181811,1,8,0:0:0:0:
256,160,182130,1,8,0:0:0:0:
260,173,182210,1,8,0:0:0:0:
260,173,182289,1,8,0:0:0:0:
256,160,182449,1,0,0:0:0:0:
256,160,182609,1,8,0:0:0:0:
256,160,182768,1,8,0:0:0:0:
256,160,182928,1,0,0:0:0:0:
260,173,183247,1,8,0:0:0:0:
234,117,183406,1,0,0:0:0:0:
229,77,183566,1,8,0:0:0:0:
256,160,183885,1,8,0:0:0:0:
256,160,184045,1,8,0:0:0:0:
260,173,184204,1,0,0:0:0:0:
199,145,184364,1,0,0:0:0:0:
256,160,184523,1,8,0:0:0:0:
256,160,184683,1,0,0:0:0:0:
256,160,184843,1,8,0:0:0:0:
256,160,184922,1,8,0:0:0:0:
256,96,185002,1,8,0:0:0:0:
260,173,185162,1,0,0:0:0:0:
260,173,185321,1,8,0:0:0:0:
256,160,185481,1,4,0:0:0:0:
256,192,187875,1,0,0:0:0:0:
256,192,188034,1,0,0:0:0:0:
256,192,190428,1,0,0:0:0:0:
256,192,190587,1,0,0:0:0:0:
163,22,192981,1,0,0:0:0:0:
256,192,193140,1,8,0:0:0:0:
256,192,193460,1,0,0:0:0:0:
256,192,193619,1,8,0:0:0:0:
209,152,193779,1,0,0:0:0:0:
256,192,193938,1,0,0:0:0:0:
256,192,194098,1,8,0:0:0:0:
256,192,194417,1,8,0:0:0:0:
239,126,194577,1,8,0:0:0:0:
256,160,194736,1,0,0:0:0:0:
274,145,194896,1,0,0:0:0:0:
256,160,195055,1,8,0:0:0:0:
256,192,195215,1,0,0:0:0:0:
256,160,195375,1,8,0:0:0:0:
256,160,195454,1,8,0:0:0:0:
256,192,195534,1,8,0:0:0:0:
256,160,195694,1,4,0:0:0:0:
256,160,196013,1,8,0:0:0:0:
256,160,196172,1,8,0:0:0:0:
256,160,196332,1,0,0:0:0:0:
256,160,196811,1,0,0:0:0:0:
256,160,196970,1,8,0:0:0:0:
256,160,197130,1,0,0:0:0:0:
226,135,197210,1,0,0:0:0:0:
256,160,197289,1,0,0:0:0:0:
217,128,197449,1,0,0:0:0:0:
256,160,197609,1,8,0:0:0:0:
256,160,197768,1,8,0:0:0:0:
256,160,197928,1,0,0:0:0:0:
256,128,198247,1,0,0:0:0:0:
256,160,198406,1,0,0:0:0:0:
256,160,198566,1,8,0:0:0:0:
256,160,198726,1,8,0:0:0:0:
256,160,198885,1,0,0:0:0:0:
256,128,199204,1,8,0:0:0:0:
255,139,199364,1,0,0:0:0:0:
256,128,199523,1,8,0:0:0:0:
256,160,199683,1,0,0:0:0:0:
256,160,199843,1,8,0:0:0:0:
256,160,200162,1,8,0:0:0:0:
228,129,200242,1,8,0:0:0:0:
256,160,200321,1,8,0:0:0:0:
256,160,200481,1,0,0:0:0:0:
256,160,200640,1,8,0:0:0:0:
256,160,200800,1,0,0:0:0:0:
250,145,200960,1,0,0:0:0:0:
256,160,201119,1,8,0:0:0:0:
256,160,201279,1,8,0:0:0:0:
256,160,201438,1,0,0:0:0:0:
256,160,201917,1,0,0:0:0:0:
256,160,202077,1,8,0:0:0:0:
256,160,202236,1,0,0:0:0:0:
234,125,202316,1,0,0:0:0:0:
256,160,202396,1,0,0:0:0:0:
207,108,202555,1,0,0:0:0:0:
256,160,202715,1,8,0:0:0:0:
256,160,202875,1,8,0:0:0:0:
256,160,203034,1,0,0:0:0:0:
256,160,203353,1,8,0:0:0:0:
256,160,203672,1,8,0:0:0:0:
256,160,203832,1,8,0:0:0:0:
256,160,203992,1,0,0:0:0:0:
256,160,204151,1,0,0:0:0:0:
256,160,204311,1,8,0:0:0:0:
256,160,204630,1,8,0:0:0:0:
219,41,204789,1,0,0:0:0:0:
256,160,204949,1,8,0:0:0:0:
256,160,205109,1,0,0:0:0:0:
249,145,205188,1,0,0:0:0:0:
249,145,205268,1,0,0:0:0:0:
232,105,205428,1,0,0:0:0:0:
256,160,205587,1,8,0:0:0:0:
256,160,205667,1,8,0:0:0:0:
256,160,205747,1,8,0:0:0:0:
256,160,205906,1,4,0:0:0:0:
256,128,206545,1,8,0:0:0:0:
256,128,207183,1,0,0:0:0:0:
256,128,207821,1,0,0:0:0:0:
256,128,208140,1,8,0:0:0:0:
256,128,208460,1,0,0:0:0:0:
256,128,209098,1,8,0:0:0:0:
256,128,209736,1,0,0:0:0:0:
151,89,210055,1,0,0:0:0:0:
256,128,210375,1,8,0:0:0:0:
256,128,211013,1,0,0:0:0:0:
256,128,211651,1,8,0:0:0:0:
256,128,211970,1,0,0:0:0:0:
253,102,212289,1,0,0:0:0:0:
256,128,212449,1,0,0:0:0:0:
256,128,212609,1,8,0:0:0:0:
256,128,212928,1,0,0:0:0:0:
256,128,213247,1,8,0:0:0:0:
269,112,213566,1,0,0:0:0:0:
256,128,214204,1,8,0:0:0:0:
248,113,214364,1,0,0:0:0:0:
256,128,214523,1,8,0:0:0:0:
260,120,214683,1,0,0:0:0:0:
259,119,215002,1,0,0:0:0:0:
253,89,215082,1,0,0:0:0:0:
256,128,215162,1,0,0:0:0:0:
247,130,215321,1,12,0:0:0:0:
206,10,215640,1,0,0:0:0:0:
256,96,215800,1,8,0:0:0:0:
256,96,215960,1,4,0:0:0:0:
