osu file format v14

[General]
AudioFilename: audio.mp3
AudioLeadIn: 0
PreviewTime: 36007
Countdown: 1
SampleSet: None
StackLeniency: 0.7
Mode: 0
LetterboxInBreaks: 0
WidescreenStoryboard: 1

[Editor]
DistanceSpacing: 0.8
BeatDivisor: 4
GridSize: 8
TimelineZoom: 2.1

[Metadata]
Title:Uso no Hibana
TitleUnicode:嘘の火花
Artist:96neko
ArtistUnicode:96猫
Creator:Yumeko
Version:Spark of a Lie [CS5]
Source:クズの本懐
Tags:kuzu no honkai scum's wish scums opening op
BeatmapID:1257361
BeatmapSetID:594181

[Difficulty]
HPDrainRate:5
CircleSize:5
OverallDifficulty:8.5
ApproachRate:9.5
SliderMultiplier:1.4
SliderTickRate:1

[Events]
//Background and Video events
0,0,"PYcp04o.jpg",0,0
//Break Periods
2,165302,169365
//Storyboard Layer 0 (Background)
//Storyboard Layer 1 (Fail)
//Storyboard Layer 2 (Pass)
//Storyboard Layer 3 (Foreground)
//Storyboard Sound Samples

[TimingPoints]
422,319.148936170213,4,2,1,80,1,0
741,-100,4,2,1,50,0,0
3773,-100,4,2,1,40,0,0
3852,-100,4,2,1,42,0,0
3932,-100,4,2,1,44,0,0
4092,-100,4,2,1,46,0,0
4172,-100,4,2,1,48,0,0
4251,-100,4,2,1,60,0,0
4730,-100,4,2,1,50,0,0
4810,-100,4,2,1,55,0,0
4890,-100,4,2,1,60,0,0
5049,-100,4,2,1,55,0,0
5129,-100,4,2,1,60,0,0
5209,-100,4,2,1,65,0,0
5368,-100,4,2,1,60,0,0
5448,-100,4,2,1,65,0,0
5528,-83.3333333333333,4,2,1,70,0,0
5687,-83.3333333333333,4,2,1,60,0,0
15262,-83.3333333333333,4,2,1,50,0,0
15741,-83.3333333333333,4,2,1,60,0,0
16060,-100,4,2,1,65,0,0
24677,-100,4,2,1,60,0,0
25953,-100,4,2,1,75,0,0
26113,-100,4,2,1,60,0,0
26592,-80,4,2,1,60,0,0
33613,-133.333333333333,4,2,1,60,0,0
34251,-100,4,2,1,60,0,0
34730,-80,4,2,1,60,0,0
35528,-100,4,2,1,70,0,0
36166,-66.6666666666667,4,2,1,80,0,1
45102,-66.6666666666667,4,3,10,80,0,0
45262,-66.6666666666667,4,2,1,80,0,0
46219,-66.6666666666667,4,3,10,80,0,0
46379,-66.6666666666667,4,2,1,80,0,1
55953,-66.6666666666667,4,2,1,60,0,1
56033,-66.6666666666667,4,2,1,63,0,1
56113,-66.6666666666667,4,2,1,65,0,1
56193,-66.6666666666667,4,2,1,68,0,1
56273,-66.6666666666667,4,2,1,70,0,1
56352,-66.6666666666667,4,2,1,72,0,1
56432,-66.6666666666667,4,2,1,73,0,1
56512,-66.6666666666667,4,2,1,74,0,1
56592,-100,4,2,1,80,0,0
56672,-100,4,2,1,70,0,0
56751,-100,4,2,1,68,0,0
56831,-100,4,2,1,66,0,0
56911,-100,4,2,1,65,0,0
56991,-100,4,2,1,64,0,0
57070,-100,4,2,1,63,0,0
57150,-100,4,2,1,62,0,0
57230,-100,4,2,1,60,0,0
57310,-100,4,2,1,59,0,0
57390,-100,4,2,1,58,0,0
57469,-100,4,2,1,57,0,0
57549,-100,4,2,1,56,0,0
57629,-100,4,2,1,55,0,0
57709,-100,4,2,1,54,0,0
57789,-100,4,2,1,53,0,0
57868,-100,4,2,1,52,0,0
57948,-100,4,2,1,51,0,0
58028,-100,4,2,1,50,0,0
58108,-100,4,2,1,49,0,0
58187,-100,4,2,1,48,0,0
58267,-100,4,2,1,47,0,0
58347,-100,4,2,1,46,0,0
58427,-100,4,2,1,45,0,0
58507,-100,4,2,1,44,0,0
58586,-100,4,2,1,43,0,0
58666,-100,4,2,1,42,0,0
58746,-100,4,2,1,41,0,0
58826,-100,4,2,1,40,0,0
58906,-100,4,2,1,39,0,0
58985,-133.333333333333,4,2,1,45,0,0
59145,-133.333333333333,4,2,1,60,0,0
59783,-133.333333333333,4,2,1,40,0,0
60102,-133.333333333333,4,2,1,20,0,0
60262,-200,4,2,1,40,0,0
61060,-200,4,2,1,20,0,0
61219,-133.333333333333,4,2,1,40,0,0
61539,-133.333333333333,4,2,1,60,0,0
61698,-133.333333333333,4,2,1,70,0,0
61778,-133.333333333333,4,2,1,40,0,0
62177,-133.333333333333,4,2,1,30,0,0
62257,-133.333333333333,4,2,1,15,0,0
62336,-133.333333333333,4,2,1,40,0,0
62815,-133.333333333333,4,2,1,20,0,0
62975,-133.333333333333,4,2,1,40,0,0
63453,-133.333333333333,4,2,1,40,0,0
64092,-133.333333333333,4,2,1,60,0,0
64251,-117.647058823529,4,2,1,65,0,1
64730,-111.111111111111,4,2,1,75,0,1
66485,-100,4,2,1,70,0,0
66804,-100,4,2,1,80,0,1
67443,-74.0740740740741,4,2,1,80,0,1
74464,-74.0740740740741,4,2,1,80,0,1
74703,-74.0740740740741,4,2,1,70,0,1
74783,-74.0740740740741,4,2,1,70,0,1
74943,-74.0740740740741,4,2,1,72,0,1
75102,-74.0740740740741,4,2,1,74,0,1
75262,-74.0740740740741,4,2,1,76,0,1
75422,-74.0740740740741,4,2,1,78,0,1
75581,-74.0740740740741,4,2,1,80,0,1
75741,-74.0740740740741,4,2,1,82,0,1
75900,-74.0740740740741,4,2,1,84,0,1
76060,-74.0740740740741,4,2,1,86,0,1
76219,-74.0740740740741,4,2,1,88,0,1
76379,-74.0740740740741,4,2,1,90,0,1
76539,-74.0740740740741,4,2,1,92,0,1
76698,-74.0740740740741,4,2,1,80,0,1
77017,-74.0740740740741,4,2,1,70,0,0
77177,-100,4,2,1,60,0,0
81964,-100,4,2,1,50,0,0
82443,-100,4,2,1,30,0,0
82602,-100,4,2,1,40,0,0
82762,-90.9090909090909,4,2,1,50,0,0
83081,-90.9090909090909,4,2,1,35,0,0
83241,-90.9090909090909,4,2,1,50,0,0
83719,-90.9090909090909,4,2,1,40,0,0
83879,-90.9090909090909,4,2,1,50,0,0
84358,-90.9090909090909,4,2,1,45,0,0
84517,-90.9090909090909,4,2,1,50,0,0
84677,-90.9090909090909,4,2,1,60,0,0
84836,-90.9090909090909,4,2,1,50,0,0
84996,-90.9090909090909,4,2,1,55,0,0
85156,-90.9090909090909,4,2,1,56,0,0
85315,-90.9090909090909,4,2,1,57,0,0
85475,-90.9090909090909,4,2,1,58,0,0
85634,-90.9090909090909,4,2,1,59,0,0
85794,-83.3333333333333,4,2,1,60,0,0
85953,-83.3333333333333,4,2,1,61,0,0
86113,-83.3333333333333,4,2,1,62,0,0
86273,-83.3333333333333,4,2,1,63,0,0
86432,-83.3333333333333,4,2,1,64,0,0
86512,-83.3333333333333,4,2,1,65,0,0
86592,-83.3333333333333,4,2,1,66,0,0
86751,-83.3333333333333,4,2,1,68,0,0
86911,-83.3333333333333,4,2,1,71,0,0
87070,-83.3333333333333,4,2,1,75,0,0
87230,-83.3333333333333,4,2,1,90,0,0
88507,-133.333333333333,4,2,1,30,0,0
89304,-133.333333333333,4,2,1,40,0,0
89464,-133.333333333333,4,2,1,50,0,0
89624,-133.333333333333,4,2,1,55,0,0
89783,-133.333333333333,4,2,1,60,0,0
90262,-133.333333333333,4,2,1,50,0,0
90661,-133.333333333333,4,2,1,20,0,0
90741,-133.333333333333,4,2,1,23,0,0
90820,-133.333333333333,4,2,1,26,0,0
90900,-100,4,2,1,29,0,0
90980,-100,4,2,1,32,0,0
91060,-100,4,2,1,40,0,0
91140,-100,4,2,1,35,0,0
91219,-100,4,2,1,38,0,0
91299,-100,4,2,1,41,0,0
91379,-83.3333333333333,4,2,1,60,0,0
91459,-83.3333333333333,4,2,1,44,0,0
91539,-100,4,2,1,47,0,0
91618,-100,4,2,1,50,0,0
91698,-71.4285714285714,4,2,1,70,0,0
91778,-71.4285714285714,4,2,1,53,0,0
91858,-71.4285714285714,4,2,1,56,0,0
91937,-71.4285714285714,4,2,1,59,0,0
92017,-71.4285714285714,4,2,1,62,0,0
92097,-71.4285714285714,4,2,1,64,0,0
92177,-71.4285714285714,4,2,1,66,0,0
92257,-71.4285714285714,4,2,1,68,0,0
92336,-80,4,2,1,70,0,0
92496,-80,4,2,1,60,0,0
92975,-100,4,2,1,60,0,0
102549,-83.3333333333333,4,2,1,60,0,0
110209,-133.333333333333,4,2,1,60,0,0
110847,-100,4,2,1,60,0,0
111326,-80,4,2,1,60,0,0
112124,-100,4,2,1,50,0,0
112203,-100,4,2,1,52,0,0
112283,-100,4,2,1,54,0,0
112363,-100,4,2,1,56,0,0
112443,-100,4,2,1,58,0,0
112523,-100,4,2,1,60,0,0
112602,-66.6666666666667,4,2,1,70,0,0
112762,-66.6666666666667,4,2,1,70,0,1
121698,-66.6666666666667,4,3,10,80,0,0
121858,-66.6666666666667,4,2,1,80,0,0
122177,-66.6666666666667,4,3,10,80,0,0
122336,-66.6666666666667,4,2,1,80,0,0
122975,-66.6666666666667,4,2,1,70,0,1
131911,-66.6666666666667,4,2,1,40,0,1
131991,-66.6666666666667,4,2,1,42,0,1
132070,-66.6666666666667,4,2,1,43,0,1
132150,-66.6666666666667,4,2,1,45,0,1
132230,-66.6666666666667,4,2,1,56,0,1
132310,-66.6666666666667,4,2,1,57,0,1
132390,-66.6666666666667,4,2,1,58,0,1
132469,-66.6666666666667,4,2,1,59,0,1
132549,-66.6666666666667,4,2,1,60,0,1
132629,-66.6666666666667,4,2,1,62,0,1
132709,-66.6666666666667,4,2,1,63,0,1
132789,-66.6666666666667,4,2,1,65,0,1
132868,-66.6666666666667,4,2,1,66,0,1
132948,-66.6666666666667,4,2,1,67,0,1
133028,-66.6666666666667,4,2,1,68,0,1
133187,-74.0740740740741,4,2,1,80,0,0
133347,-100,4,2,1,75,0,0
133507,-90.9090909090909,4,2,1,70,0,0
133666,-90.9090909090909,4,2,1,60,0,0
133826,-100,4,2,1,55,0,0
134145,-100,4,2,1,50,0,0
140687,-100,4,2,1,60,0,0
140847,-100,4,2,1,75,0,0
141166,-100,4,2,1,60,0,0
141326,-100,4,2,1,75,0,0
141645,-100,4,2,1,55,0,0
141804,-100,4,2,1,75,0,0
142124,-100,4,2,1,55,0,0
142283,-100,4,2,1,70,0,0
142443,-100,4,2,1,75,0,0
142602,-100,4,2,1,80,0,0
142762,-100,4,2,1,85,0,0
142922,-100,4,2,1,75,0,0
143081,-100,4,2,1,70,0,0
143400,-80,4,2,1,70,0,0
153613,-80,4,2,1,70,0,0
155687,-80,4,3,10,70,0,0
156166,-80,4,2,1,70,0,0
156326,-80,4,2,1,70,0,0
156485,-80,4,3,10,70,0,0
156645,-80,4,2,1,60,0,0
163826,-100,4,2,1,72,0,0
163985,-100,4,2,1,74,0,0
164145,-100,4,2,1,76,0,0
164304,-100,4,2,1,78,0,0
164464,-100,4,2,1,80,0,0
164624,-100,4,2,1,82,0,0
164783,-100,4,2,1,84,0,0
164943,-100,4,2,1,86,0,0
165102,-100,4,2,1,90,0,0
169890,-100,4,2,1,60,0,0
172084,-100,4,2,1,80,0,0
172762,-100,4,2,1,40,0,0
172842,-100,4,2,1,41,0,0
172922,-100,4,2,1,42,0,0
173081,-100,4,2,1,43,0,0
173161,-100,4,2,1,44,0,0
173241,-100,4,2,1,45,0,0
173400,-100,4,2,1,46,0,0
173560,-100,4,2,1,47,0,0
173640,-100,4,2,1,48,0,0
173719,-100,4,2,1,49,0,0
173799,-100,4,2,1,50,0,0
173879,-100,4,2,1,51,0,0
174039,-100,4,2,1,50,0,0
174198,-100,4,2,1,45,0,0
174358,-100,4,2,1,40,0,0
174517,-100,4,2,1,38,0,0
174677,-100,4,2,1,35,0,0
174836,-100,4,2,1,30,0,0
175156,-66.6666666666667,4,2,1,80,0,0
175315,-66.6666666666667,4,2,1,80,0,1
183134,-66.6666666666667,4,2,1,60,0,1
183214,-66.6666666666667,4,2,1,61,0,1
183294,-66.6666666666667,4,2,1,62,0,1
183453,-66.6666666666667,4,2,1,63,0,1
183613,-66.6666666666667,4,2,1,64,0,1
183693,-66.6666666666667,4,2,1,65,0,1
183773,-66.6666666666667,4,2,1,66,0,1
183932,-66.6666666666667,4,2,1,67,0,1
184092,-66.6666666666667,4,2,1,68,0,1
184172,-66.6666666666667,4,2,1,69,0,1
184251,-66.6666666666667,4,2,1,70,0,1
184411,-66.6666666666667,4,2,1,71,0,1
184491,-66.6666666666667,4,2,1,72,0,1
184570,-66.6666666666667,4,2,1,73,0,1
184730,-66.6666666666667,4,2,1,80,0,1
184890,-66.6666666666667,4,2,1,50,0,1
184969,-66.6666666666667,4,2,1,53,0,1
185049,-66.6666666666667,4,2,1,56,0,1
185129,-66.6666666666667,4,2,1,59,0,1
185209,-66.6666666666667,4,2,1,62,0,1
185289,-66.6666666666667,4,2,1,65,0,1
185368,-66.6666666666667,4,2,1,68,0,1
185448,-66.6666666666667,4,2,1,71,0,1
185528,-100,4,2,1,80,0,0
185687,-100,4,2,1,50,0,0
187922,-100,4,2,1,60,0,0
188081,-100,4,2,1,70,0,0
188241,-100,4,2,1,50,0,0
189677,-100,4,2,1,20,0,0
189996,-100,4,2,1,50,0,0
190475,-100,4,2,1,60,0,0
190634,-100,4,2,1,70,0,0
191273,-100,4,2,1,50,0,0
191592,-100,4,2,1,10,0,0
191751,-133.333333333333,4,2,1,50,0,0
192549,-100,4,2,1,25,0,0
192709,-100,4,2,1,50,0,0
193028,-100,4,2,1,60,0,0
193187,-100,4,2,1,75,0,1
194304,-86.9565217391304,4,2,1,75,0,1
194943,-76.9230769230769,4,2,1,70,0,1
195422,-76.9230769230769,4,2,1,70,0,0
195741,-100,4,2,1,85,0,1
196379,-66.6666666666667,4,2,1,85,0,1
203400,-66.6666666666667,4,2,1,75,0,1
203640,-66.6666666666667,4,2,1,76,0,1
203719,-66.6666666666667,4,2,1,78,0,1
203879,-66.6666666666667,4,2,1,80,0,1
204039,-66.6666666666667,4,2,1,82,0,1
204198,-66.6666666666667,4,2,1,84,0,1
204358,-66.6666666666667,4,2,1,86,0,1
204517,-66.6666666666667,4,2,1,88,0,1
204677,-66.6666666666667,4,2,1,90,0,1
204836,-66.6666666666667,4,2,1,92,0,1
204996,-66.6666666666667,4,2,1,94,0,1
205156,-66.6666666666667,4,2,1,96,0,1
205315,-66.6666666666667,4,2,1,98,0,1
205475,-66.6666666666667,4,2,1,100,0,1
205634,-66.6666666666667,4,2,1,90,0,1
205953,-76.9230769230769,4,2,1,70,0,0
206113,-76.9230769230769,4,2,1,50,0,0
206273,-83.3333333333333,4,2,1,60,0,0
206432,-83.3333333333333,4,2,1,45,0,0
206592,-90.9090909090909,4,2,1,50,0,0
206911,-100,4,2,1,60,0,0
211379,-100,4,2,1,40,0,0
211539,-100,4,2,1,55,0,0
211698,-100,4,2,1,60,0,0
211858,-100,4,2,1,45,0,0
212017,-100,4,2,1,45,0,0
212177,-100,4,2,1,45,0,0
212336,-100,4,2,1,50,0,0
212496,-100,4,2,1,55,0,0
212656,-100,4,2,1,40,0,0
212815,-100,4,2,1,45,0,0
212975,-100,4,2,1,60,0,0
213134,-100,4,2,1,65,0,0
213294,-100,4,2,1,60,0,0
213453,-100,4,2,1,70,0,0
213613,-100,4,2,1,40,0,0
213693,-100,4,2,1,42,0,0
213773,-100,4,2,1,45,0,0
213852,-100,4,2,1,47,0,0
213932,-100,4,2,1,50,0,0
214012,-100,4,2,1,52,0,0
214092,-100,4,2,1,55,0,0
214172,-100,4,2,1,57,0,0
214251,-100,4,2,1,60,0,0
214411,-100,4,2,1,62,0,0
214730,-76.9230769230769,4,2,1,65,0,0
215368,-76.9230769230769,4,2,1,75,0,0
215847,-76.9230769230769,4,2,1,85,0,0
216007,-76.9230769230769,4,2,1,100,0,0

[Colours]
Combo1 : 177,177,177
Combo2 : 255,170,255
Combo3 : 255,0,128

[HitObjects]
368,80,422,5,6,0:0:0:0:
240,192,741,5,0,0:0:0:0:
304,240,900,1,0,0:0:0:0:
176,144,1219,1,0,0:0:0:0:
160,224,1379,2,0,B|80:192|80:104,1,140
272,192,1858,2,0,B|288:96|217:52,1,140
153,83,2336,5,0,0:0:0:0:
80,144,2496,1,8,3:0:0:0:
208,208,2656,1,8,3:0:0:0:
0,200,2815,1,4,0:3:0:0:
160,304,2975,6,0,B|240:336|304:288,1,140,2|0,0:0|0:0,0:0:0:0:
208,208,3453,2,0,B|160:176|96:240|64:192,1,140,2|8,0:0|0:0,0:0:0:0:
64,192,3852,1,8,0:0:0:0:
64,192,3932,1,8,0:0:0:0:
224,120,4092,5,8,0:0:0:0:
232,112,4172,1,8,0:0:0:0:
240,104,4251,1,2,0:0:0:0:
184,264,4411,1,8,0:0:0:0:
88,128,4570,1,8,0:0:0:0:
304,152,4730,5,8,0:0:0:0:
304,152,4810,1,8,0:0:0:0:
304,152,4890,1,8,0:0:0:0:
80,192,5049,1,8,0:0:0:0:
80,192,5129,1,8,0:0:0:0:
80,192,5209,1,8,0:0:0:0:
272,304,5368,1,8,0:0:0:0:
288,312,5448,1,8,0:0:0:0:
304,320,5528,6,0,P|352:320|400:272,1,83.9999974365235,10|0,0:0|0:0,0:0:0:0:
328,88,5847,1,8,2:0:0:0:
192,192,6007,1,0,0:0:0:0:
266,36,6166,2,0,B|213:40|198:90|198:90,1,85,10|0,1:0|0:0,0:0:0:0:
240,256,6485,1,8,2:0:0:0:
112,120,6645,1,0,0:0:0:0:
240,256,6804,5,10,1:0:0:0:
318,112,6964,1,0,0:0:0:0:
162,283,7124,2,0,P|210:259|266:259,1,83.9999974365235,8|2,2:0|0:0,0:0:0:0:
424,240,7443,5,10,1:0:0:0:
239,255,7602,1,0,0:0:0:0:
371,178,7762,2,0,P|419:226|424:276,1,83.9999974365235,8|0,0:0|0:0,0:0:0:0:
183,206,8081,5,10,1:0:0:0:
371,178,8241,1,0,0:0:0:0:
183,206,8400,1,8,0:0:0:0:
371,178,8560,1,0,0:0:0:0:
192,288,8719,2,0,B|142:293|114:252|114:252,1,85,10|0,1:0|0:0,0:0:0:0:
240,112,9039,1,8,0:0:0:0:
336,248,9198,1,0,0:0:0:0:
183,206,9358,5,10,1:0:0:0:
416,296,9517,1,0,0:0:0:0:
240,328,9677,5,10,0:0:0:0:
330,95,9836,1,0,0:0:0:0:
160,96,9996,5,10,1:0:0:0:
448,214,10156,1,0,0:0:0:0:
152,328,10315,5,8,0:0:0:0:
272,40,10475,1,0,0:0:0:0:
336,256,10634,5,10,1:0:0:0:
272,96,10794,1,0,0:0:0:0:
280,328,10953,1,8,0:0:0:0:
328,168,11113,1,2,0:0:0:0:
134,264,11273,2,0,L|163:171,1,83.9999974365235,10|0,1:0|0:0,0:0:0:0:
432,208,11592,1,8,0:0:0:0:
241,95,11751,5,0,0:0:0:0:
376,104,11911,1,10,1:0:0:0:
160,184,12070,1,8,1:0:0:0:
357,237,12230,2,0,P|405:229|445:184,1,83.9999974365235,8|0,0:0|0:0,0:0:0:0:
160,184,12549,5,10,1:0:0:0:
241,95,12708,1,8,1:0:0:0:
192,296,12868,2,0,P|224:336|289:340,1,83.9999974365235,8|0,0:0|0:0,0:0:0:0:
408,271,13187,6,0,B|430:263|430:263|438:235|458:220|458:220|456:187|474:165,1,125.999996154785,10|0,1:0|0:0,0:0:0:0:
472,160,13507,1,8,1:2:0:0:
352,56,13666,1,0,0:0:0:0:
372,194,13826,1,10,1:0:0:0:
464,32,13985,1,0,0:0:0:0:
256,64,14145,1,8,1:2:0:0:
264,208,14304,1,0,0:0:0:0:
136,40,14464,5,8,1:2:0:0:
160,240,14623,1,8,1:0:0:0:
256,64,14783,1,10,0:2:0:0:
320,232,14943,1,8,1:0:0:0:
368,40,15102,1,8,1:0:0:0:
160,240,15262,5,8,0:0:0:0:
144,248,15341,1,8,0:0:0:0:
124,257,15421,1,10,0:0:0:0:
103,264,15501,1,8,0:0:0:0:
82,266,15581,1,8,0:0:0:0:
61,266,15660,1,8,0:0:0:0:
40,263,15740,1,14,0:0:0:0:
304,144,16060,5,0,0:0:0:0:
336,216,16219,1,8,1:0:0:0:
320,288,16379,2,0,P|208:308|160:284,1,140
104,152,16858,1,0,0:0:0:0:
176,120,17017,5,8,1:0:0:0:
232,224,17177,2,0,L|151:181,1,70,0|2,0:0|0:0,0:0:0:0:
32,120,17496,1,8,1:0:0:0:
320,168,17815,5,0,0:0:0:0:
234,223,17974,1,0,0:0:0:0:
179,138,18133,1,0,0:0:0:0:
312,264,18293,1,8,1:0:0:0:
88,88,18613,5,0,0:0:0:0:
179,138,18772,1,8,1:0:0:0:
176,240,18932,2,0,P|200:304|288:344,1,140
360,256,19410,1,0,0:0:0:0:
384,176,19570,1,8,1:0:0:0:
352,96,19730,2,0,P|304:56|272:56,1,70
256,169,20049,6,0,P|323:197|387:173,1,140,8|0,1:0|0:0,0:0:0:0:
440,104,20528,1,0,0:0:0:0:
408,32,20687,1,0,0:0:0:0:
376,280,20847,1,8,1:0:0:0:
376,280,21166,6,0,P|342:295|288:296,1,70,0|8,0:0|1:0,0:0:0:0:
270,297,21485,2,0,B|188:260|112:272,1,140
40,296,21964,1,0,0:0:0:0:
46,171,22124,1,8,1:0:0:0:
176,144,22283,2,0,P|171:189|152:232,1,70,0|2,0:0|0:0,0:0:0:0:
40,296,22602,1,8,1:0:0:0:
46,171,22922,6,0,L|32:96,1,70
33,102,23241,1,0,0:0:0:0:
144,176,23400,1,8,1:0:0:0:
144,176,23560,2,0,P|188:168|234:184,1,70
232,288,23879,6,0,B|288:312|332:272|332:272|360:264|360:264|384:246,1,140,8|0,1:0|0:0,0:0:0:0:
448,240,24358,1,0,0:0:0:0:
392,152,24517,2,0,P|374:122|372:62,1,70,4|8,0:0|0:0,0:0:0:0:
368,72,24757,1,8,0:0:0:0:
368,72,24836,1,10,1:0:0:0:
264,152,24996,5,10,1:0:0:0:
352,240,25155,1,8,0:0:0:0:
352,240,25235,1,8,0:0:0:0:
352,240,25314,1,10,1:0:0:0:
264,32,25475,1,10,1:0:0:0:
160,144,25634,5,8,0:0:0:0:
120,160,25713,1,8,0:0:0:0:
80,160,25793,1,8,0:0:0:0:
40,148,25873,1,0,0:0:0:0:
16,112,25953,1,14,1:0:0:0:
104,40,26113,1,0,0:0:0:0:
256,168,26273,1,8,0:0:0:0:
72,248,26432,1,0,0:0:0:0:
256,168,26592,6,0,P|261:123|240:56,1,87.5,10|0,1:0|0:0,0:0:0:0:
72,248,26911,2,0,P|128:248|168:272,1,87.5,8|0,0:0|0:0,0:0:0:0:
433,257,27230,2,0,L|320:248,1,87.5,10|0,1:0|0:0,0:0:0:0:
169,155,27549,2,0,L|271:170,1,87.5,8|0,0:0|0:0,0:0:0:0:
432,96,27868,1,10,1:0:0:0:
255,167,28028,1,0,0:0:0:0:
434,260,28187,2,0,P|452:221|423:84,1,175,8|10,0:0|1:0,0:0:0:0:
272,280,28666,5,0,0:0:0:0:
176,120,28826,1,8,0:0:0:0:
355,269,28985,2,0,P|341:229|288:192,1,87.5,0|10,0:0|1:0,0:0:0:0:
195,40,29304,2,0,P|170:90|191:143,1,87.5,0|8,0:0|0:0,0:0:0:0:
72,304,29624,2,0,P|120:304|157:254,1,87.5,0|10,0:0|1:0,0:0:0:0:
195,40,29943,5,0,0:0:0:0:
355,269,30102,1,8,0:0:0:0:
72,304,30262,2,0,P|64:256|96:208,1,87.5,0|10,0:0|1:0,0:0:0:0:
276,17,30581,2,0,P|236:18|190:43,1,87.5,0|8,0:0|0:0,0:0:0:0:
350,352,30900,2,0,P|362:313|343:250,1,87.5,0|10,0:0|1:0,0:0:0:0:
312,117,31219,5,0,0:0:0:0:
354,268,31379,1,8,1:2:0:0:
360,56,31539,2,0,P|318:42|267:53,1,87.5,0|10,0:0|1:0,0:0:0:0:
216,248,31858,5,0,0:0:0:0:
276,48,32018,1,8,0:0:0:0:
140,262,32178,2,0,P|158:298|216:328,1,87.5,0|10,0:0|1:0,0:0:0:0:
336,224,32496,5,0,0:0:0:0:
64,280,32656,1,8,0:0:0:0:
328,304,32816,2,0,P|368:295|408:232,1,87.5,0|10,0:0|1:0,0:0:0:0:
120,136,33134,2,0,P|152:112|216:112,1,87.5,0|8,0:0|0:0,0:0:0:0:
399,262,33453,1,0,0:0:0:0:
83,225,33613,6,0,B|67:161|127:132,1,105.000004005432,14|8,1:0|1:0,0:0:0:0:
296,184,34251,6,8,B|248:160|216:232|152:200,1,140,8|8,1:0|1:0,1:0:0:0:
368,144,34730,6,0,P|376:185|351:245,1,87.5,0|8,0:0|1:0,0:0:0:0:
83,225,35049,2,0,P|44:124|84:78,1,175
200,64,35528,5,8,0:0:0:0:
336,64,35687,1,8,0:0:0:0:
200,240,35847,1,8,0:0:0:0:
200,64,36007,1,8,0:0:0:0:
200,64,36086,1,8,0:0:0:0:
200,64,36166,6,0,L|144:168,1,105,14|0,1:0|0:0,0:0:0:0:
300,35,36485,1,8,0:0:0:0:
361,156,36645,1,0,0:0:0:0:
204,250,36804,2,0,P|164:209|152:160,1,105.000004005432,10|0,1:0|0:0,0:0:0:0:
300,35,37124,2,0,P|248:32|181:69,1,105.000004005432,8|0,0:0|0:0,0:0:0:0:
304,304,37443,5,10,1:0:0:0:
384,144,37602,1,0,0:0:0:0:
376,240,37762,1,8,0:0:0:0:
296,80,37921,1,0,0:0:0:0:
424,328,38081,1,10,1:0:0:0:
288,192,38241,2,0,P|224:208|184:240,1,105.000004005432,8|8,1:0|0:0,0:0:0:0:
368,272,38560,6,0,P|392:228|296:80,1,210.000008010865,12|8,1:0|1:0,0:0:0:0:
201,39,39039,5,8,0:0:0:0:
221,180,39198,1,0,0:0:0:0:
334,92,39358,1,10,1:0:0:0:
201,39,39517,1,0,0:0:0:0:
440,200,39677,2,0,P|405:169|336:160,1,105.000004005432,8|0,0:0|0:0,0:0:0:0:
104,208,39996,6,0,P|139:239|216:248,1,105.000004005432,10|0,1:0|0:0,0:0:0:0:
312,80,40316,1,8,0:0:0:0:
128,56,40475,1,0,0:0:0:0:
328,160,40634,1,10,1:0:0:0:
72,112,40794,2,0,P|128:136|176:120,1,105.000004005432,0|8,0:0|0:0,0:0:0:0:
432,174,41113,6,0,L|302:156,1,105.000004005432,0|10,0:0|1:0,0:0:0:0:
56,200,41432,2,0,L|176:224,1,105.000004005432,0|8,0:0|0:0,0:0:0:0:
408,276,41751,2,0,L|439:141,1,105.000004005432,0|10,0:0|1:0,0:0:0:0:
80,96,42070,2,0,L|52:212,1,105.000004005432,0|8,0:0|0:0,0:0:0:0:
280,136,42390,6,0,P|281:58|248:8,1,105.000004005432,0|10,0:0|1:0,0:0:0:0:
368,248,42709,2,0,P|366:293|328:368,1,105.000004005432,0|8,0:0|0:0,0:0:0:0:
152,224,43028,2,0,P|144:160|184:118,1,105.000004005432,0|2,0:0|1:0,0:0:0:0:
376,48,43347,5,0,0:0:0:0:
165,129,43507,1,8,0:0:0:0:
368,248,43666,1,0,0:0:0:0:
212,49,43826,6,0,P|200:97|224:168,1,105.000004005432,10|0,1:0|0:0,0:0:0:0:
212,325,44145,2,0,P|257:304|296:240,1,105.000004005432,8|0,0:0|0:0,0:0:0:0:
436,187,44464,2,0,P|388:133|337:115,1,105.000004005432,10|0,1:0|0:0,0:0:0:0:
152,120,44783,5,8,0:0:0:0:
360,120,44943,1,0,0:0:0:0:
360,304,45102,1,12,3:0:0:0:
152,304,45262,1,8,0:0:0:0:
152,304,45342,1,8,0:0:0:0:
152,304,45422,1,8,0:0:0:0:
256,208,45581,5,8,0:0:0:0:
416,260,45741,1,8,0:0:0:0:
416,260,45821,1,8,0:0:0:0:
416,260,45901,1,8,0:0:0:0:
257,56,46060,1,8,0:0:0:0:
257,88,46140,1,8,0:0:0:0:
257,120,46219,6,0,L|140:120,1,105.000004005432,12|14,0:3|1:0,0:0:0:0:
40,128,46539,1,0,0:0:0:0:
336,88,46698,2,0,P|397:90|441:105,1,105.000004005432,8|0,0:0|0:0,0:0:0:0:
336,264,47017,1,10,1:0:0:0:
184,64,47177,1,0,0:0:0:0:
96,232,47337,1,8,0:0:0:0:
336,88,47496,1,0,0:0:0:0:
96,232,47656,5,10,1:0:0:0:
336,264,47815,1,0,0:0:0:0:
32,304,47975,2,0,B|-5:239|7:191,1,105.000004005432,8|0,0:0|0:0,0:0:0:0:
224,96,48294,1,10,1:0:0:0:
336,264,48453,2,0,B|345:298|308:363,1,105.000004005432,0|8,0:0|0:0,0:0:0:0:
149,185,48773,6,0,P|186:206|336:160,1,210.000008010865,14|8,1:0|1:0,0:0:0:0:
242,58,49251,1,8,0:0:0:0:
241,312,49410,1,0,0:0:0:0:
149,185,49570,1,10,1:0:0:0:
391,106,49729,1,0,0:0:0:0:
391,264,49889,5,8,0:0:0:0:
242,58,50049,1,0,0:0:0:0:
241,312,50209,1,10,1:0:0:0:
242,58,50368,1,0,0:0:0:0:
241,312,50528,1,8,0:0:0:0:
391,106,50688,1,0,0:0:0:0:
149,185,50847,1,10,1:0:0:0:
391,106,51007,2,0,L|272:144,1,105.000004005432,0|8,0:0|0:0,0:0:0:0:
0,224,51326,6,0,L|112:248,1,105.000004005432,0|10,0:0|1:0,0:0:0:0:
391,264,51645,2,0,L|240:224,1,105.000004005432,0|8,0:0|0:0,0:0:0:0:
80,146,51964,2,0,P|78:186|136:274,1,105.000004005432,0|10,0:0|1:0,0:0:0:0:
424,169,52283,2,0,P|416:229|372:277,1,105.000004005432,0|8,0:0|0:0,0:0:0:0:
160,168,52603,2,0,P|164:128|208:48,1,105.000004005432,0|10,0:0|1:0,0:0:0:0:
480,272,52922,2,0,P|442:322|400:344,1,105.000004005432,0|8,0:0|0:0,0:0:0:0:
200,344,53241,2,0,P|151:332|88:280,1,105.000004005432,0|10,0:0|1:0,0:0:0:0:
197,146,53560,5,0,0:0:0:0:
344,168,53720,1,8,0:0:0:0:
144,224,53879,1,0,0:0:0:0:
360,248,54039,2,0,P|402:222|424:128,1,105.000004005432,10|8,1:0|0:0,0:0:0:0:
424,160,54278,1,8,0:0:0:0:
424,160,54358,1,8,0:0:0:0:
208,200,54517,1,8,1:0:0:0:
360,328,54677,1,8,0:0:0:0:
360,328,54757,1,8,0:0:0:0:
360,328,54836,6,0,P|408:336|472:296,1,105.000004005432,8|8,0:0|1:0,0:0:0:0:
248,48,55156,1,8,0:0:0:0:
248,48,55235,1,8,0:0:0:0:
248,48,55315,1,8,0:0:0:0:
96,176,55475,1,8,0:0:0:0:
96,176,55555,1,8,0:0:0:0:
96,176,55635,1,8,0:0:0:0:
336,160,55794,1,8,0:0:0:0:
100,257,55953,5,8,0:0:0:0:
51,243,56032,1,8,0:0:0:0:
19,203,56112,1,8,0:0:0:0:
18,151,56192,1,8,0:0:0:0:
47,109,56272,1,8,0:0:0:0:
96,93,56351,1,8,0:0:0:0:
145,109,56431,1,8,0:0:0:0:
175,151,56511,1,8,0:0:0:0:
174,203,56591,5,10,0:0:0:0:
256,192,56672,12,8,58985,1:0:0:0:
256,192,59145,5,8,1:0:0:0:
256,192,59783,2,0,B|216:256|256:316,1,131.25000500679
224,336,60262,6,0,B|168:232|232:168,1,175
136,112,61219,6,0,P|112:144|104:168,1,52.5000020027161
96,232,61539,1,8,1:0:0:0:
224,336,61698,6,0,B|352:368|384:256,1,183.750007009506,8|0,1:0|0:0,0:0:0:0:
291,259,62336,2,0,B|263:163|344:112,1,157.500006008148
392,104,62975,2,0,B|288:104|288:104|280:120|280:104|280:104|232:104,1,157.500006008148
424,24,63613,6,0,P|471:57|494:112,1,105.000004005432
284,109,64092,1,2,0:0:0:0:
496,168,64251,6,0,P|481:227|424:272,1,119.000002269745,8|8,0:0|1:0,0:0:0:0:
240,336,64730,6,0,P|318:343|369:295,1,125.999996154785,8|8,0:0|1:0,0:0:0:0:
256,224,65209,1,8,0:0:0:0:
152,112,65368,1,8,1:0:0:0:
392,136,65528,1,8,0:0:0:0:
248,328,65687,1,8,1:0:0:0:
416,240,65847,1,8,0:0:0:0:
232,88,66007,1,8,1:0:0:0:
320,264,66167,1,8,0:0:0:0:
368,32,66326,1,8,1:0:0:0:
238,259,66486,5,8,0:0:0:0:
220,218,66566,1,8,0:0:0:0:
220,175,66646,1,8,0:0:0:0:
220,131,66725,1,8,0:0:0:0:
232,88,66805,5,14,1:0:0:0:
456,64,66964,1,0,0:0:0:0:
451,246,67124,1,10,0:0:0:0:
218,153,67283,1,0,0:0:0:0:
456,64,67443,2,0,B|497:145|448:256,1,189.000000720978,14|8,1:0|0:0,0:0:0:0:
240,264,67922,5,0,0:0:0:0:
80,96,68081,1,10,1:0:0:0:
130,273,68241,1,0,0:0:0:0:
320,104,68400,2,0,B|352:152|320:232,1,94.5000003604889,14|0,0:0|0:0,0:0:0:0:
112,184,68719,5,14,1:0:0:0:
331,194,68879,1,0,0:0:0:0:
130,273,69039,2,0,P|108:202|128:146,1,94.5000003604889,14|0,0:0|0:0,0:0:0:0:
256,32,69358,5,14,1:0:0:0:
384,272,69517,1,0,0:0:0:0:
256,32,69677,1,10,0:0:0:0:
130,273,69836,1,0,0:0:0:0:
384,272,69996,2,0,P|432:176|383:117,1,189.000000720978,14|8,1:0|0:0,0:0:0:0:
176,192,70475,5,0,0:0:0:0:
360,192,70634,1,10,1:0:0:0:
192,113,70794,1,0,0:0:0:0:
348,270,70953,1,12,0:0:0:0:
274,53,71113,1,0,0:0:0:0:
288,336,71272,5,14,1:0:0:0:
400,69,71432,1,0,0:0:0:0:
156,314,71591,1,8,0:0:0:0:
111,69,71751,1,0,0:0:0:0:
344,312,71910,5,14,1:0:0:0:
408,184,72070,1,0,0:0:0:0:
464,312,72230,1,10,0:0:0:0:
288,184,72390,1,0,0:0:0:0:
156,314,72549,2,0,B|124:290|156:234|156:234|108:194|148:130,1,189.000000720978,14|8,1:0|0:0,0:0:0:0:
248,72,73028,5,0,0:0:0:0:
56,72,73187,1,14,1:0:0:0:
56,272,73347,1,8,1:0:0:0:
248,272,73507,2,0,P|302:287|344:272,1,94.5000003604889,14|0,0:0|0:0,0:0:0:0:
400,72,73826,5,14,1:0:0:0:
112,72,73986,1,8,1:0:0:0:
352,192,74145,2,0,P|407:199|464:176,1,94.5000003604889,14|0,0:0|0:0,0:0:0:0:
296,72,74464,6,0,P|210:95|168:168,1,141.750000540733,14|0,1:0|0:0,0:0:0:0:
176,144,74783,1,8,1:0:0:0:
384,264,74943,1,8,0:0:0:0:
176,144,75102,1,8,1:0:0:0:
384,48,75262,5,8,0:0:0:0:
224,208,75422,1,8,1:0:0:0:
384,48,75581,1,8,0:0:0:0:
224,208,75741,1,8,1:0:0:0:
488,168,75900,5,8,0:0:0:0:
112,96,76060,1,8,1:0:0:0:
488,168,76220,1,8,0:0:0:0:
112,96,76379,1,8,1:0:0:0:
488,168,76539,1,8,0:0:0:0:
112,96,76698,5,8,0:0:0:0:
104,112,76778,1,8,0:0:0:0:
96,128,76858,1,8,0:0:0:0:
88,144,76937,1,8,0:0:0:0:
80,160,77017,2,0,P|80:224|112:272,1,94.5000003604889,10|0,0:0|0:0,0:0:0:0:
232,304,77336,6,0,P|220:307|142:288,1,70,8|2,1:0|0:0,0:0:0:0:
80,160,77656,2,0,P|113:123|216:136,1,140,8|4,1:0|0:3,0:0:0:0:
296,256,78134,1,2,0:0:0:0:
156,188,78294,1,8,1:0:0:0:
304,152,78453,1,2,0:0:0:0:
112,280,78613,1,8,1:0:0:0:
112,280,78932,5,8,1:0:0:0:
304,152,79092,1,2,0:0:0:0:
112,280,79251,1,4,0:3:0:0:
304,152,79570,5,8,1:0:0:0:
408,136,79731,1,2,0:0:0:0:
304,152,79890,1,8,1:0:0:0:
408,136,80050,1,2,0:0:0:0:
304,152,80210,2,0,P|296:256|336:288,1,140,8|4,1:0|0:3,0:0:0:0:
408,136,80688,5,2,0:0:0:0:
184,168,80848,1,8,1:0:0:0:
408,136,81007,1,2,0:0:0:0:
184,168,81167,1,8,1:0:0:0:
408,136,81486,6,0,P|428:97|424:40,1,70,8|2,1:0|0:0,0:0:0:0:
336,32,81804,1,4,0:3:0:0:
408,136,81964,2,0,P|350:166|264:136,1,140,8|0,1:0|0:0,0:0:0:0:
336,88,82443,5,8,0:0:0:0:
336,240,82602,1,0,0:0:0:0:
384,24,82762,2,8,P|336:10|280:16,1,77.0000023498536,8|0,1:0|0:0,1:0:0:0:
152,64,83081,1,8,0:0:0:0:
240,192,83241,2,0,P|282:202|344:184,1,77.0000023498536,0|8,0:0|1:0,0:0:0:0:
376,88,83560,1,0,0:0:0:0:
144,160,83719,2,0,P|89:195|75:220,1,77.0000023498536,8|0,0:0|0:0,0:0:0:0:
328,296,84039,5,8,1:0:0:0:
304,176,84198,1,0,0:0:0:0:
240,352,84358,1,8,0:0:0:0:
424,336,84517,1,0,0:0:0:0:
304,176,84677,2,0,P|264:160|200:168,1,77.0000023498536,8|0,1:0|0:0,0:0:0:0:
368,328,84996,2,0,B|368:280|368:280|344:224,1,77.0000023498536,10|0,0:0|0:0,0:0:0:0:
303,175,85315,5,8,1:0:0:0:
168,176,85475,1,8,1:0:0:0:
240,288,85634,1,8,1:0:0:0:
303,175,85794,6,0,P|320:134|303:71,1,83.9999974365235,8|8,0:0|1:0,0:0:0:0:
240,288,86113,2,0,L|243:376,1,83.9999974365235,8|8,1:0|0:0,0:0:0:0:
168,176,86432,1,10,1:0:0:0:
168,176,86512,1,8,1:0:0:0:
168,176,86592,5,10,1:0:0:0:
240,288,86751,1,8,1:0:0:0:
303,175,86911,1,8,0:0:0:0:
328,384,87070,1,8,1:0:0:0:
368,56,87230,1,6,0:0:0:0:
273,21,88507,6,0,P|347:38|381:74,1,105.000004005432
464,240,88985,2,0,L|406:218,1,52.5000020027161
264,168,89305,1,4,0:3:0:0:
201,264,89465,1,4,0:3:0:0:
244,363,89624,1,4,0:3:0:0:
264,168,89783,1,12,1:0:0:0:
272,264,90262,6,0,P|214:192|212:160,1,105.000004005432
239,151,90661,1,8,0:0:0:0:
239,151,90741,1,8,0:0:0:0:
239,151,90820,1,8,0:0:0:0:
239,151,90900,1,8,0:0:0:0:
239,151,90980,1,8,0:0:0:0:
239,151,91060,6,8,L|272:140,3,35,10|8|8|8,0:0|0:0|0:0|0:0,0:0:0:0:
80,248,91379,2,8,L|37:259,3,41.9999987182618,10|8|8|8,0:0|0:0|0:0|0:0,0:0:0:0:
280,256,91698,2,8,L|336:240,3,48.9999985046387,10|8|8|8,0:0|0:0|0:0|0:0,0:0:0:0:
24,323,92017,1,10,0:0:0:0:
0,283,92097,1,8,0:0:0:0:
0,235,92177,1,8,0:0:0:0:
16,195,92257,1,8,0:0:0:0:
56,163,92336,2,0,P|104:155|144:163,1,87.5,14|0,1:0|0:0,0:0:0:0:
200,272,92656,5,8,0:0:0:0:
296,224,92815,1,0,0:0:0:0:
320,128,92975,2,0,L|298:38,1,70,8|0,1:0|0:0,0:0:0:0:
184,136,93294,1,8,0:0:0:0:
296,224,93453,2,0,P|304:176|296:136,1,70,8|0,1:0|0:0,0:0:0:0:
224,304,93773,6,0,B|176:328|136:320,2,70,8|8|0,1:0|0:0|0:0,0:0:0:0:
56,112,94251,1,8,1:0:0:0:
56,112,94411,2,0,P|72:160|88:184,1,70,8|10,1:0|0:0,0:0:0:0:
208,192,94729,1,0,0:0:0:0:
328,184,94890,2,0,L|394:127,1,70,8|2,1:0|0:0,0:0:0:0:
448,264,95209,6,0,P|421:284|360:280,1,70,14|0,0:0|0:0,0:0:0:0:
210,110,95528,1,8,1:0:0:0:
210,110,95847,5,8,0:0:0:0:
147,186,96007,1,8,1:0:0:0:
288,160,96166,1,0,0:0:0:0:
108,250,96326,2,0,P|154:262|193:243,1,70,2|8,0:0|0:0,0:0:0:0:
256,325,96645,6,0,P|299:320|344:216,1,140,0|2,0:0|0:0,0:0:0:0:
256,112,97124,1,8,0:0:0:0:
128,152,97283,1,0,0:0:0:0:
384,72,97443,1,0,0:0:0:0:
125,221,97762,6,0,P|124:178|129:143,1,70,8|0,0:0|0:0,0:0:0:0:
200,64,98081,1,8,1:0:0:0:
264,224,98241,1,0,0:0:0:0:
200,152,98400,1,8,0:0:0:0:
262,37,98560,2,0,P|223:46|188:80,1,70,8|0,1:0|0:0,0:0:0:0:
208,184,98879,2,0,P|238:214|269:225,1,70,8|8,1:0|0:0,0:0:0:0:
360,168,99198,2,0,P|370:126|363:94,1,70,2|8,0:0|1:0,0:0:0:0:
199,63,99517,5,8,1:0:0:0:
365,100,99677,1,10,0:0:0:0:
263,223,99836,2,0,P|232:253|191:262,1,70,0|8,0:0|1:0,0:0:0:0:
112,152,100156,5,0,0:0:0:0:
288,56,100315,1,8,0:0:0:0:
207,261,100475,2,0,P|240:296|280:304,1,70,0|8,0:0|1:0,0:0:0:0:
112,152,100794,5,0,0:0:0:0:
288,56,100953,1,8,0:0:0:0:
72,232,101113,2,0,P|42:201|26:175,1,70,8|0,1:0|0:0,0:0:0:0:
184,40,101432,5,8,0:0:0:0:
207,261,101592,1,8,1:0:0:0:
288,56,101751,1,8,0:0:0:0:
288,56,101831,1,8,0:0:0:0:
288,56,101911,1,8,0:0:0:0:
304,248,102070,1,8,1:0:0:0:
384,72,102230,5,8,0:0:0:0:
392,88,102310,1,8,0:0:0:0:
400,104,102390,1,8,0:0:0:0:
408,120,102469,1,8,0:0:0:0:
416,136,102549,6,0,P|435:173|440:248,1,83.9999974365235,14|0,1:0|0:0,0:0:0:0:
368,336,102868,1,8,0:0:0:0:
162,254,103028,1,0,0:0:0:0:
312,168,103187,2,0,L|304:72,1,83.9999974365235,10|0,1:0|0:0,0:0:0:0:
168,144,103507,1,8,0:0:0:0:
416,144,103666,1,0,0:0:0:0:
312,344,103826,5,10,1:0:0:0:
227,95,103985,1,0,0:0:0:0:
403,271,104144,1,8,0:0:0:0:
188,339,104304,1,2,0:0:0:0:
469,224,104464,2,0,B|437:188|381:192,1,83.9999974365235,10|0,1:0|0:0,0:0:0:0:
152,136,104783,5,8,0:0:0:0:
394,191,104943,1,0,0:0:0:0:
240,328,105102,1,10,1:0:0:0:
222,78,105262,1,0,0:0:0:0:
354,288,105422,1,8,0:0:0:0:
148,276,105581,1,2,0:0:0:0:
344,96,105741,1,10,1:0:0:0:
251,331,105900,1,0,0:0:0:0:
344,96,106060,1,8,0:0:0:0:
251,331,106219,1,0,0:0:0:0:
440,224,106380,5,10,1:0:0:0:
224,136,106539,2,0,B|206:162|206:162|208:192|192:232,1,83.9999974365235,0|8,0:0|0:0,0:0:0:0:
328,304,106858,1,0,0:0:0:0:
400,120,107017,1,10,1:0:0:0:
408,336,107177,1,0,0:0:0:0:
312,88,107336,1,8,0:0:0:0:
248,288,107496,2,0,P|218:339|170:350,1,83.9999974365235,0|10,0:0|1:0,0:0:0:0:
312,192,107815,5,0,0:0:0:0:
112,184,107975,1,8,0:0:0:0:
384,240,108134,2,0,B|405:193|384:136,1,83.9999974365235,0|10,0:0|1:0,0:0:0:0:
160,80,108453,5,0,0:0:0:0:
312,192,108613,1,8,0:0:0:0:
80,72,108772,2,0,B|93:23|136:0,1,83.9999974365235,0|10,0:0|1:0,0:0:0:0:
392,56,109092,5,0,0:0:0:0:
160,80,109251,1,8,0:0:0:0:
447,0,109411,2,0,P|464:35|456:96,1,83.9999974365235,0|10,0:0|1:0,0:0:0:0:
184,208,109730,6,0,P|214:177|272:168,1,83.9999974365235,0|8,0:0|0:0,0:0:0:0:
424,168,110049,1,0,0:0:0:0:
216,279,110209,6,0,B|144:296|116:238,1,105.000004005432,14|8,1:0|0:0,0:0:0:0:
320,216,110847,6,0,B|368:312|288:368,1,140,8|8,1:0|1:0,0:0:0:0:
240,248,111326,2,0,P|234:204|261:146,1,87.5,2|8,0:0|1:0,0:0:0:0:
336,128,111645,2,0,B|256:48|180:110,1,175,0|0,1:0|1:0,1:0:0:0:
136,40,112124,5,10,0:0:0:0:
167,19,112203,1,8,0:0:0:0:
208,7,112283,1,10,0:0:0:0:
247,7,112363,1,8,0:0:0:0:
289,11,112443,1,10,0:0:0:0:
328,32,112523,1,8,0:0:0:0:
360,56,112602,6,0,P|418:119|439:169,1,105.000004005432,10|14,1:0|1:0,0:0:0:0:
312,336,112922,1,0,0:0:0:0:
136,192,113081,1,8,0:0:0:0:
328,160,113241,1,0,0:0:0:0:
192,320,113400,2,0,P|150:323|80:288,1,105.000004005432,10|0,1:0|0:0,0:0:0:0:
248,48,113719,5,8,0:0:0:0:
168,208,113878,1,0,0:0:0:0:
248,48,114038,1,10,1:0:0:0:
256,272,114197,1,0,0:0:0:0:
128,24,114357,1,10,0:0:0:0:
320,112,114517,2,0,P|294:69|238:46,1,105.000004005432,0|10,0:0|1:0,0:0:0:0:
176,304,114836,2,0,B|204:352|270:358,1,105.000004005432,0|8,0:0|0:0,0:0:0:0:
406,166,115156,6,0,B|378:118|293:106,1,105.000004005432,0|10,0:0|1:0,0:0:0:0:
88,224,115475,1,0,0:0:0:0:
304,312,115634,2,0,L|424:288,1,105.000004005432,8|0,0:0|0:0,0:0:0:0:
192,352,115953,5,10,1:0:0:0:
280,136,116113,2,0,L|256:16,1,105.000004005432,0|8,0:0|0:0,0:0:0:0:
304,280,116432,1,0,0:0:0:0:
304,34,116591,1,10,1:0:0:0:
162,280,116751,1,0,0:0:0:0:
162,34,116910,1,8,0:0:0:0:
374,157,117070,1,0,0:0:0:0:
91,157,117229,1,10,1:0:0:0:
240,352,117390,6,0,L|240:232,1,105.000004005432,0|8,0:0|0:0,0:0:0:0:
240,24,117709,2,0,L|240:168,1,105.000004005432,0|10,0:0|1:0,0:0:0:0:
40,192,118028,2,0,L|176:192,1,105.000004005432,0|8,0:0|0:0,0:0:0:0:
408,192,118347,2,0,L|280:192,1,105.000004005432,0|10,0:0|1:0,0:0:0:0:
104,352,118666,2,0,P|120:293|184:252,1,105.000004005432,0|8,0:0|0:0,0:0:0:0:
376,32,118985,2,0,P|357:77|300:125,1,105.000004005432,0|10,0:0|1:0,0:0:0:0:
72,32,119304,2,0,P|104:96|160:128,1,105.000004005432,0|8,0:0|0:0,0:0:0:0:
384,352,119624,2,0,P|352:288|304:264,1,105.000004005432,0|10,0:0|1:0,0:0:0:0:
108,196,119943,5,0,0:0:0:0:
280,128,120102,1,8,0:0:0:0:
108,196,120262,1,0,0:0:0:0:
272,288,120422,2,0,P|316:297|376:280,1,105.000004005432,10|0,1:0|0:0,0:0:0:0:
232,200,120741,2,0,P|184:248|168:312,1,105.000004005432,8|0,0:0|0:0,0:0:0:0:
472,208,121060,2,0,P|472:152|440:104,1,105.000004005432,10|0,1:0|0:0,0:0:0:0:
152,168,121379,5,8,0:0:0:0:
392,168,121539,1,0,0:0:0:0:
152,376,121698,1,12,0:3:0:0:
384,376,121858,1,8,0:0:0:0:
384,376,121937,1,8,0:0:0:0:
384,376,122017,1,8,0:0:0:0:
264,272,122177,5,12,0:3:0:0:
80,272,122336,1,8,0:0:0:0:
80,272,122416,1,8,0:0:0:0:
80,272,122496,1,8,0:0:0:0:
160,40,122656,1,8,0:0:0:0:
160,56,122736,1,8,0:0:0:0:
160,72,122815,2,0,P|221:100|288:88,1,105.000004005432,8|14,0:3|1:0,0:0:0:0:
472,48,123133,1,0,0:0:0:0:
416,232,123293,5,8,0:0:0:0:
257,99,123453,1,0,0:0:0:0:
496,184,123613,2,0,P|509:223|496:288,1,105.000004005432,10|0,1:0|0:0,0:0:0:0:
180,135,123931,5,8,0:0:0:0:
424,104,124091,1,0,0:0:0:0:
344,352,124251,1,10,1:0:0:0:
200,152,124410,1,0,0:0:0:0:
448,152,124570,1,8,0:0:0:0:
144,240,124729,1,0,0:0:0:0:
512,248,124889,1,10,1:0:0:0:
336,152,125049,2,0,P|304:192|320:272,1,105.000004005432,0|8,0:0|0:0,0:0:0:0:
348,14,125368,6,0,P|445:60|422:183,1,210.000008010865,14|10,1:0|1:0,0:0:0:0:
184,208,125846,1,8,0:0:0:0:
400,208,126006,1,0,0:0:0:0:
120,144,126165,1,10,1:0:0:0:
448,280,126325,1,0,0:0:0:0:
216,128,126485,1,8,0:0:0:0:
352,288,126644,1,0,0:0:0:0:
72,216,126804,5,10,1:0:0:0:
208,352,126963,1,0,0:0:0:0:
320,112,127123,1,8,0:0:0:0:
304,384,127282,1,0,0:0:0:0:
200,32,127442,1,10,1:0:0:0:
223,324,127602,2,0,P|276:376|318:384,1,105.000004005432,0|8,0:0|0:0,0:0:0:0:
168,192,127921,6,0,P|136:156|131:70,1,105.000004005432,0|10,0:0|1:0,0:0:0:0:
464,192,128240,2,0,P|432:223|364:246,1,105.000004005432,0|8,0:0|0:0,0:0:0:0:
272,0,128560,2,0,P|335:17|376:76,1,105.000004005432,0|10,0:0|1:0,0:0:0:0:
272,264,128879,6,0,B|208:256|208:256|184:200,1,105.000004005432,0|8,0:0|0:0,0:0:0:0:
464,192,129198,2,0,B|480:144|480:144|448:80,1,105.000004005432,0|10,0:0|1:0,0:0:0:0:
272,0,129517,2,0,B|216:24|216:24|192:112,1,105.000004005432,0|8,0:0|0:0,0:0:0:0:
424,264,129836,2,0,P|384:296|312:288,1,105.000004005432,0|10,0:0|1:0,0:0:0:0:
248,192,130155,5,0,0:0:0:0:
424,248,130314,1,8,0:0:0:0:
384,56,130474,1,0,0:0:0:0:
424,248,130634,2,0,P|415:285|358:339,1,105.000004005432,10|8,1:0|0:0,0:0:0:0:
364,339,130874,1,8,0:0:0:0:
364,339,130953,1,2,0:0:0:0:
176,288,131113,5,8,1:0:0:0:
200,112,131273,1,8,0:0:0:0:
200,112,131352,1,8,0:0:0:0:
200,112,131432,1,0,0:0:0:0:
176,288,131592,1,8,1:0:0:0:
24,176,131751,1,8,0:0:0:0:
248,152,131910,5,8,0:0:0:0:
272,168,131990,1,8,0:0:0:0:
288,192,132070,1,8,0:0:0:0:
296,216,132149,1,8,0:0:0:0:
293,240,132229,5,8,0:0:0:0:
245,261,132309,1,8,0:0:0:0:
193,261,132389,1,8,0:0:0:0:
146,240,132468,1,8,0:0:0:0:
120,200,132549,1,8,0:0:0:0:
104,152,132628,1,8,0:0:0:0:
120,96,132709,1,8,0:3:0:0:
176,48,132789,1,8,0:3:0:0:
256,32,132868,1,8,0:3:0:0:
328,72,132948,1,8,0:3:0:0:
376,144,133028,1,8,0:0:0:0:
208,232,133187,6,0,P|206:172|224:136,1,94.5000003604889,12|0,1:0|0:0,0:0:0:0:
328,72,133507,2,0,P|332:106|312:168,1,77.0000023498536
224,141,133826,2,0,B|208:160|200:208|192:208|224:304,1,140
189,358,134304,5,0,0:0:0:0:
312,320,134464,1,0,0:0:0:0:
209,252,134624,1,0,0:0:0:0:
80,296,134783,2,0,B|40:248|56:160,1,140
192,144,135262,1,0,0:0:0:0:
312,208,135422,1,0,0:0:0:0:
288,352,135581,1,8,1:0:0:0:
209,252,135741,6,0,P|185:295|192:328,1,70,8|0,1:0|0:0,0:0:0:0:
288,352,136060,1,0,0:0:0:0:
288,352,136219,1,0,0:0:0:0:
375,272,136379,1,0,0:0:0:0:
375,272,136539,1,0,0:0:0:0:
368,168,136698,1,0,0:0:0:0:
304,88,136858,1,0,0:0:0:0:
292,279,137017,6,0,B|374:224|367:150,1,140
224,224,137656,2,0,P|208:260|208:320,1,70
264,360,137975,1,0,0:0:0:0:
360,336,138134,5,8,1:0:0:0:
356,218,138294,2,0,P|279:202|211:234,1,140,8|0,1:0|0:0,0:0:0:0:
416,152,138932,2,0,P|440:176|444:242,2,70
312,80,139411,2,0,P|216:48|156:67,1,140
232,152,139890,2,0,B|248:187|248:187|237:266|237:266|264:312,1,140
320,352,140368,5,0,0:0:0:0:
392,280,140528,1,0,0:0:0:0:
320,352,140687,1,8,1:0:0:0:
392,280,140847,6,0,P|393:197|344:136,1,140,10|0,1:0|0:0,0:0:0:0:
72,272,141326,2,0,P|152:256|216:280,1,140,10|0,1:0|0:0,0:0:0:0:
432,80,141804,2,0,P|344:96|288:64,1,140,10|0,1:0|0:0,0:0:0:0:
58,203,142283,6,8,L|76:295,1,70,8|8,1:0|1:0,1:0:0:0:
320,136,142602,2,8,L|303:51,1,70,8|8,1:0|1:0,1:0:0:0:
144,176,142922,1,8,1:0:0:0:
320,256,143081,1,10,0:0:0:0:
326,277,143161,1,10,0:0:0:0:
321,302,143241,1,10,0:0:0:0:
309,323,143320,1,10,0:0:0:0:
291,340,143400,6,0,P|200:344|136:288,2,175,14|8|10,1:0|0:0|1:0,0:0:0:0:
360,224,144198,5,0,0:0:0:0:
200,168,144358,1,8,0:0:0:0:
421,162,144517,2,0,P|442:204|424:272,1,87.5,0|10,0:0|1:0,0:0:0:0:
352,336,144836,2,0,P|312:337|232:312,1,87.5,0|8,0:0|0:0,0:0:0:0:
80,160,145156,2,0,P|104:144|168:128,1,87.5,0|10,0:0|1:0,0:0:0:0:
360,224,145475,1,0,0:0:0:0:
152,216,145634,1,8,0:0:0:0:
360,224,145794,1,0,0:0:0:0:
152,216,145953,6,0,L|204:131,1,87.5,10|0,1:0|0:0,0:0:0:0:
360,224,146273,2,0,P|336:264|304:304,1,87.5,8|2,0:0|0:0,0:0:0:0:
152,336,146592,1,10,1:0:0:0:
88,144,146751,1,0,0:0:0:0:
32,328,146911,1,8,0:0:0:0:
88,144,147070,1,0,0:0:0:0:
310,296,147230,6,0,P|366:296|412:274,1,87.5,10|0,1:0|0:0,0:0:0:0:
192,136,147549,2,0,P|248:136|294:158,1,87.5,10|0,0:0|0:0,0:0:0:0:
40,256,147868,2,0,P|92:274|143:268,1,87.5,10|0,1:0|0:0,0:0:0:0:
232,240,148187,5,8,0:0:0:0:
336,120,148347,1,0,0:0:0:0:
320,320,148507,1,10,1:0:0:0:
416,168,148666,5,0,0:0:0:0:
232,240,148826,1,8,0:0:0:0:
176,80,148985,5,0,0:0:0:0:
336,240,149145,1,10,1:0:0:0:
80,328,149304,5,0,0:0:0:0:
336,240,149464,1,8,0:0:0:0:
80,112,149624,2,0,P|55:145|48:216,1,87.5,0|10,0:0|1:0,0:0:0:0:
80,328,149943,5,0,0:0:0:0:
104,352,150023,1,0,0:0:0:0:
136,360,150102,1,8,0:0:0:0:
328,288,150262,1,0,0:0:0:0:
248,208,150422,1,10,1:0:0:0:
376,216,150581,1,0,0:0:0:0:
200,280,150741,1,8,0:0:0:0:
424,144,150900,6,0,P|439:105|440:48,1,87.5,0|10,0:0|1:0,0:0:0:0:
440,48,151140,1,0,0:0:0:0:
440,48,151219,1,0,0:0:0:0:
268,224,151379,2,0,P|290:264|344:298,1,87.5,8|0,0:0|0:0,0:0:0:0:
480,232,151698,5,10,1:0:0:0:
336,88,151858,1,0,0:0:0:0:
480,232,152017,1,8,0:0:0:0:
268,224,152177,2,0,P|212:219|168:200,1,87.5,0|10,0:0|1:0,0:0:0:0:
168,200,152416,1,0,0:0:0:0:
168,200,152496,1,8,1:0:0:0:
280,200,152656,5,8,0:0:0:0:
325,48,152815,1,8,1:0:0:0:
280,200,152975,1,8,0:0:0:0:
432,245,153134,1,8,1:0:0:0:
208,112,153294,1,8,0:0:0:0:
182,147,153373,1,8,0:0:0:0:
172,189,153453,1,8,0:0:0:0:
179,232,153533,1,8,0:0:0:0:
200,272,153613,6,0,P|236:304|272:314,1,87.5,14|8,1:0|1:0,0:0:0:0:
480,168,153932,1,8,1:0:0:0:
273,314,154092,1,0,0:0:0:0:
480,168,154251,6,0,P|512:208|496:280,2,87.5,2|8|8,0:0|1:0|1:0,0:0:0:0:
245,171,154730,2,0,P|293:223|397:247,1,175,8|4,1:0|0:0,0:0:0:0:
191,328,155209,2,0,P|189:272|271:152,1,175,0|8,0:0|0:0,0:0:0:0:
384,160,155687,2,0,P|436:135|456:90,1,87.5,12|12,0:3|0:3,0:0:0:0:
280,48,156007,5,12,0:3:0:0:
294,238,156166,2,0,L|287:142,1,87.5,10|0,0:0|0:0,0:0:0:0:
224,325,156485,2,0,P|261:345|312:344,1,87.5,10|0,0:0|0:0,0:0:0:0:
416,240,156804,1,8,0:0:0:0:
216,176,156964,6,0,P|166:168|120:145,1,87.5,8|10,1:0|0:0,0:0:0:0:
97,141,157203,1,10,0:0:0:0:
64,136,157283,2,0,P|56:168|73:241,1,87.5,10|8,0:0|1:0,0:0:0:0:
264,224,157602,6,0,P|300:224|352:208,1,87.5,8|8,1:0|0:0,0:0:0:0:
368,192,157842,1,8,0:0:0:0:
384,160,157922,2,0,P|406:216|416:304,1,131.25,8|8,0:0|0:0,0:0:0:0:
416,304,158241,1,8,0:0:0:0:
264,224,158400,1,8,0:0:0:0:
400,128,158560,6,0,P|438:197|456:304,1,175,8|8,0:0|1:0,0:0:0:0:
296,336,159039,1,8,1:0:0:0:
144,232,159198,2,0,P|119:196|112:144,1,87.5,8|8,1:0|0:0,0:0:0:0:
448,232,159518,5,8,1:0:0:0:
304,104,159678,1,8,1:0:0:0:
144,232,159836,2,8,P|112:264|96:312,1,87.5,8|0,0:0|1:3,0:0:0:0:
384,328,160156,5,12,0:3:0:0:
189,310,160316,1,12,0:3:0:0:
456,352,160476,2,0,P|458:311|424:264,1,87.5,0|0,0:0|0:0,0:0:0:0:
240,176,160794,6,10,P|209:168|152:104,1,87.5,10|10,0:3|0:3,0:3:0:0:
368,40,161114,1,0,0:0:0:0:
360,280,161273,2,0,P|352:310|288:368,1,87.5,8|8,0:0|0:0,0:0:0:0:
128,200,161592,6,0,P|80:272|136:272,1,175,8|8,0:0|1:0,0:0:0:0:
248,248,162070,5,0,0:0:0:0:
320,152,162230,1,8,0:0:0:0:
400,32,162390,2,0,L|424:120,1,87.5,8|8,1:0|0:0,0:0:0:0:
432,128,162629,1,8,0:0:0:0:
432,128,162709,1,2,0:0:0:0:
256,128,162868,1,8,0:0:0:0:
256,288,163028,1,8,1:0:0:0:
336,208,163187,5,8,1:0:0:0:
160,208,163347,1,8,0:3:0:0:
160,368,163507,1,8,0:3:0:0:
336,368,163666,1,4,0:3:0:0:
160,208,163826,5,14,0:0:0:0:
160,208,163985,1,14,0:0:0:0:
432,128,164145,1,14,0:0:0:0:
432,128,164304,1,14,0:0:0:0:
183,97,164464,1,14,0:0:0:0:
408,260,164623,1,14,0:0:0:0:
160,208,164783,1,14,0:0:0:0:
512,208,164943,1,14,0:0:0:0:
80,128,165102,1,14,0:0:0:0:
256,192,169890,12,4,172084,0:0:0:0:
288,280,172762,5,8,0:0:0:0:
288,280,172841,1,8,0:0:0:0:
288,280,172922,1,8,0:0:0:0:
368,128,173081,5,8,0:0:0:0:
368,128,173160,1,8,0:0:0:0:
368,128,173241,1,8,0:0:0:0:
152,160,173400,6,0,P|154:215|168:240,1,70,8|8,0:0|0:0,0:0:0:0:
173,254,173640,1,8,0:0:0:0:
183,273,173719,1,8,0:0:0:0:
186,295,173799,1,8,0:0:0:0:
181,316,173879,1,8,0:0:0:0:
320,312,174039,6,0,P|388:294|408:277,2,70
205,204,174517,1,0,0:0:0:0:
237,292,174677,1,0,0:0:0:0:
269,140,174836,1,0,0:0:0:0:
269,140,175156,6,0,P|228:151|152:128,1,105.000004005432,6|14,0:0|1:0,0:0:0:0:
400,176,175475,1,0,0:0:0:0:
192,240,175634,2,0,P|136:231|89:187,1,105.000004005432,8|0,0:0|0:0,0:0:0:0:
212,92,175953,1,10,1:0:0:0:
336,272,176113,1,0,0:0:0:0:
352,120,176273,1,8,0:0:0:0:
228,300,176433,1,0,0:0:0:0:
112,96,176592,6,0,P|96:159|107:226,1,105.000004005432,10|0,1:0|0:0,0:0:0:0:
136,312,176911,1,8,0:0:0:0:
256,176,177070,1,0,0:0:0:0:
136,312,177230,1,10,1:0:0:0:
254,87,177390,2,0,P|295:96|342:159,1,105.000004005432,0|8,0:0|0:0,0:0:0:0:
96,96,177709,6,0,P|30:190|54:278,1,210.000008010865,14|8,1:0|1:0,0:0:0:0:
274,289,178187,2,0,P|291:231|262:156,1,105.000004005432,8|0,0:0|0:0,0:0:0:0:
176,64,178507,1,10,1:0:0:0:
208,236,178666,1,0,0:0:0:0:
336,16,178826,1,8,0:0:0:0:
144,192,178985,1,0,0:0:0:0:
256,40,179145,5,10,1:0:0:0:
274,289,179304,1,2,0:0:0:0:
336,16,179464,1,8,0:0:0:0:
72,120,179624,1,0,0:0:0:0:
274,289,179783,1,10,1:0:0:0:
0,80,179943,2,0,B|32:32|112:40,1,105.000004005432,0|8,0:0|0:0,0:0:0:0:
344,72,180262,6,0,B|400:128|384:184,1,105.000004005432,0|10,0:0|1:0,0:0:0:0:
344,344,180581,2,0,B|400:288|384:232,1,105.000004005432,0|8,0:0|0:0,0:0:0:0:
168,72,180900,2,0,B|112:128|128:184,1,105.000004005432,0|10,0:0|1:0,0:0:0:0:
456,136,181219,2,0,P|476:201|480:280,1,105.000004005432,0|8,0:0|0:0,0:0:0:0:
56,136,181539,2,0,P|35:201|32:280,1,105.000004005432,0|10,0:0|1:0,0:0:0:0:
376,336,181858,2,0,P|410:210|410:210,1,105.000004005432,0|8,0:0|0:0,0:0:0:0:
136,336,182177,2,0,P|102:210|102:210,1,105.000004005432,0|10,0:0|1:0,0:0:0:0:
416,160,182496,1,0,0:0:0:0:
88,160,182656,1,8,0:0:0:0:
416,160,182815,1,0,0:0:0:0:
21,117,182975,6,0,P|9:165|37:224,1,105.000004005432,10|8,1:0|0:0,0:0:0:0:
48,232,183214,1,8,0:0:0:0:
72,248,183294,2,0,B|116:288|180:304|180:304|188:296,1,105.000004005432,8|8,0:0|1:0,0:0:0:0:
440,136,183613,1,8,0:0:0:0:
440,136,183693,1,8,0:0:0:0:
440,136,183773,1,8,0:0:0:0:
168,200,183932,1,8,1:0:0:0:
456,48,184092,5,8,0:0:0:0:
456,48,184171,1,8,0:0:0:0:
456,48,184251,1,8,0:0:0:0:
120,80,184411,1,8,0:0:0:0:
120,80,184491,1,8,0:0:0:0:
120,80,184571,1,8,0:0:0:0:
440,136,184730,5,8,1:0:0:0:
216,144,184890,1,8,0:0:0:0:
175,159,184970,1,8,0:0:0:0:
132,164,185049,1,8,0:0:0:0:
91,154,185129,1,8,0:0:0:0:
49,133,185209,1,8,0:0:0:0:
60,175,185289,1,8,0:0:0:0:
70,216,185369,1,8,0:0:0:0:
80,258,185448,1,8,0:0:0:0:
91,299,185528,5,14,1:0:0:0:
184,344,185687,1,0,0:0:0:0:
280,328,185847,1,0,0:0:0:0:
320,240,186007,1,0,0:0:0:0:
392,304,186166,2,0,B|432:248|408:184|408:184|416:152,1,140
368,88,186645,5,0,0:0:0:0:
411,170,186804,1,0,0:0:0:0:
368,88,186964,1,0,0:0:0:0:
280,152,187124,2,0,B|256:160|256:160|240:152|240:152|200:192|152:160|152:160|127:163,1,140
56,128,187602,1,0,0:0:0:0:
152,160,187762,1,0,0:0:0:0:
352,216,187922,5,8,1:0:0:0:
272,248,188081,1,8,1:0:0:0:
448,336,188241,1,0,0:0:0:0:
504,272,188400,1,0,0:0:0:0:
512,192,188560,1,0,0:0:0:0:
472,96,188719,1,0,0:0:0:0:
360,40,188879,5,0,0:0:0:0:
224,64,189039,1,0,0:0:0:0:
144,200,189198,1,0,0:0:0:0:
192,368,189358,1,6,0:0:0:0:
496,272,189677,1,0,0:0:0:0:
256,124,189996,5,0,0:0:0:0:
239,236,190156,1,0,0:0:0:0:
183,169,190315,1,0,0:0:0:0:
295,304,190475,1,8,1:0:0:0:
328,79,190634,1,8,1:0:0:0:
328,79,191273,6,0,B|288:127|384:143|312:223,1,140
256,248,191751,6,0,P|228:193|232:136,1,105.000004005432
352,304,192230,6,0,P|308:347|252:352,1,105.000004005432
176,312,192709,1,2,0:0:0:0:
176,312,192868,1,0,0:0:0:0:
88,240,193028,1,2,0:0:0:0:
312,225,193187,6,0,P|384:225|464:193,1,140,8|8,0:0|0:0,0:0:0:0:
488,104,193666,5,8,1:0:0:0:
488,104,193826,1,8,0:0:0:0:
328,136,193985,1,8,1:0:0:0:
328,136,194145,1,8,0:0:0:0:
456,248,194304,2,0,P|419:264|360:264,1,80.5000015354157,8|10,1:0|0:0,0:0:0:0:
208,200,194624,5,8,1:0:0:0:
400,184,194784,1,10,0:0:0:0:
288,304,194943,2,0,P|251:324|184:336,1,90.9999958343508,8|10,1:0|0:0,0:0:0:0:
82,194,195262,1,8,1:0:0:0:
288,304,195422,1,8,0:0:0:0:
320,321,195502,1,8,0:0:0:0:
357,326,195582,1,8,0:0:0:0:
397,330,195661,1,8,0:0:0:0:
434,323,195741,5,14,1:0:0:0:
352,104,195900,1,0,0:0:0:0:
434,323,196060,1,10,0:0:0:0:
352,104,196219,1,0,0:0:0:0:
434,323,196379,2,0,B|320:384|222:268,1,210.000008010865,14|10,1:0|0:0,0:0:0:0:
168,96,196858,5,0,0:0:0:0:
432,32,197017,1,10,1:0:0:0:
168,96,197177,1,0,0:0:0:0:
243,290,197336,2,0,B|301:319|357:271,1,105.000004005432,14|0,0:0|0:0,0:0:0:0:
320,64,197655,5,10,1:0:0:0:
320,248,197815,1,0,0:0:0:0:
367,0,197975,2,0,B|311:-32|247:16,1,105.000004005432,14|0,0:0|0:0,0:0:0:0:
112,112,198294,5,14,1:0:0:0:
384,176,198453,1,0,0:0:0:0:
112,112,198613,1,10,0:0:0:0:
384,176,198772,1,0,0:0:0:0:
24,112,198932,2,0,P|77:31|181:55,1,210.000008010865,14|10,1:0|0:0,0:0:0:0:
248,312,199411,5,0,0:0:0:0:
360,104,199570,1,14,1:0:0:0:
248,312,199730,1,0,0:0:0:0:
112,104,199889,1,12,0:0:0:0:
328,208,200049,1,0,0:0:0:0:
176,208,200209,1,10,1:0:0:0:
248,24,200368,1,2,0:0:0:0:
360,312,200528,1,12,0:0:0:0:
112,312,200687,1,0,0:0:0:0:
360,312,200847,5,14,1:0:0:0:
112,312,201007,1,0,0:0:0:0:
354,234,201166,2,0,P|404:245|436:297,1,105.000004005432,10|0,0:0|0:0,0:0:0:0:
56,384,201485,2,0,P|24:320|136:232,1,210.000008010865,14|10,1:0|1:0,0:0:0:0:
354,234,201964,1,0,0:0:0:0:
112,312,202123,5,14,1:0:0:0:
80,56,202283,1,0,0:0:0:0:
112,312,202443,2,0,P|150:318|224:280,1,105.000004005432,14|0,0:0|0:0,0:0:0:0:
344,104,202762,5,14,1:0:0:0:
80,56,202922,1,0,1:0:0:0:
376,32,203082,2,0,P|421:102|408:144,1,105.000004005432,14|0,0:0|0:0,0:0:0:0:
200,312,203400,2,0,P|116:307|128:220,1,157.500006008148,14|0,1:0|0:0,0:0:0:0:
123,226,203719,5,8,1:0:0:0:
365,274,203879,1,8,0:0:0:0:
123,226,204039,1,8,1:0:0:0:
368,80,204198,5,8,0:0:0:0:
280,376,204357,1,8,1:0:0:0:
368,80,204517,1,8,0:0:0:0:
280,376,204677,1,8,1:0:0:0:
464,136,204836,5,8,0:0:0:0:
64,232,204996,1,8,1:0:0:0:
464,136,205156,1,8,0:0:0:0:
64,232,205315,1,8,1:0:0:0:
464,136,205475,1,8,0:0:0:0:
64,232,205634,1,8,0:0:0:0:
64,200,205714,1,8,0:0:0:0:
64,168,205794,1,8,0:0:0:0:
64,136,205874,1,8,0:0:0:0:
64,104,205953,6,0,P|80:40|128:16,1,90.9999958343508,14|0,1:0|0:0,0:0:0:0:
200,64,206273,2,0,P|256:72|288:64,1,83.9999974365235,10|0,1:0|0:0,0:0:0:0:
368,16,206592,2,0,P|397:49|385:166,1,154.000004699707,10|10,1:0|1:0,0:0:0:0:
288,200,207070,5,2,0:0:0:0:
184,160,207230,1,10,1:0:0:0:
208,272,207390,1,2,0:0:0:0:
184,160,207549,1,10,1:0:0:0:
184,160,207868,5,10,1:0:0:0:
228,368,208028,1,2,0:0:0:0:
184,160,208187,1,10,1:0:0:0:
184,160,208506,5,10,1:0:0:0:
88,224,208667,1,2,0:0:0:0:
184,160,208826,1,10,1:0:0:0:
88,224,208985,1,2,0:0:0:0:
184,160,209146,2,10,B|216:242|168:312,1,140,10|10,1:0|1:0,1:0:0:0:
8,280,209624,5,0,0:0:0:0:
184,160,209784,1,10,1:0:0:0:
8,280,209943,1,0,0:0:0:0:
184,160,210102,1,10,1:0:0:0:
8,280,210422,6,0,P|-1:227|16:187,1,70,10|0,1:0|0:0,0:0:0:0:
112,136,210740,1,4,0:3:0:0:
200,224,210900,2,0,P|200:272|208:304,2,70,0|10|0,0:0|1:0|0:0,0:0:0:0:
112,136,211379,6,0,L|96:56,1,70,8|0,0:0|0:0,0:0:0:0:
248,144,211698,2,0,P|285:177|302:226,1,70,10|0,1:0|0:0,0:0:0:0:
192,312,212017,1,8,0:0:0:0:
112,136,212177,6,0,P|125:89|128:48,1,70,0|10,0:0|1:0,0:0:0:0:
272,32,212496,1,0,0:0:0:0:
304,224,212656,2,0,B|320:272|360:288,1,70,10|2,0:0|0:0,0:0:0:0:
384,96,212975,5,10,1:0:0:0:
432,224,213134,1,0,0:0:0:0:
384,96,213294,1,10,0:0:0:0:
288,200,213453,1,0,0:0:0:0:
169,278,213613,1,8,0:0:0:0:
131,298,213692,5,8,1:0:0:0:
87,300,213772,1,8,0:0:0:0:
48,280,213852,1,8,1:0:0:0:
24,243,213932,1,8,0:0:0:0:
22,200,214011,1,8,1:0:0:0:
39,161,214091,1,8,0:0:0:0:
75,134,214171,1,8,1:0:0:0:
117,130,214251,5,12,0:0:0:0:
352,144,214411,1,12,0:0:0:0:
104,24,214570,1,14,0:0:0:0:
112,224,214730,2,0,P|136:280|168:312,1,90.9999958343508,8|14,0:0|1:0,0:0:0:0:
376,232,215049,5,8,0:0:0:0:
392,208,215129,1,8,0:0:0:0:
400,176,215209,1,8,0:0:0:0:
208,352,215368,6,0,B|120:424|32:336,1,181.999991668702,10|10,0:0|0:0,0:0:0:0:
256,32,215847,1,8,1:0:0:0:
424,352,216007,1,12,1:0:0:0:
