osu file format v14

[General]
AudioFilename: audio.mp3
AudioLeadIn: 0
PreviewTime: 112551
Countdown: 0
SampleSet: Soft
StackLeniency: 0.7
Mode: 0
LetterboxInBreaks: 0
WidescreenStoryboard: 1

[Editor]
Bookmarks: 5466,15679,25413,25891,36104,46317,56530,66742,76955,87168,92274,102487,112700,122913,133125,143338,153551,165040,175253,185466,195679,205891
DistanceSpacing: 1
BeatDivisor: 4
GridSize: 4
TimelineZoom: 1

[Metadata]
Title:Uso no Hibana
TitleUnicode:嘘の火花
Artist:96neko
ArtistUnicode:96猫
Creator:Yasaija 714
Version:Regraz's Normal
Source:クズの本懐
Tags:kuzu no honkai opening full size Akanya Regraz DreaM117er _kotachi_ SnowNiNo_
BeatmapID:1245721
BeatmapSetID:569503

[Difficulty]
HPDrainRate:3.5
CircleSize:3.9
OverallDifficulty:4.1
ApproachRate:5.3
SliderMultiplier:1
SliderTickRate:1

[Events]
//Background and Video events
0,0,"BG.jpg",0,0
//Break Periods
2,15969,23551
2,56819,63125
2,87458,91210
2,133416,137168
2,165330,171636
2,185756,189508
//Storyboard Layer 0 (Background)
//Storyboard Layer 1 (Fail)
//Storyboard Layer 2 (Pass)
//Storyboard Layer 3 (Foreground)
//Storyboard Sound Samples

[TimingPoints]
450,319.148936170213,4,2,1,40,1,0
450,-100,4,2,1,40,0,0
2524,-100,4,2,1,40,0,0
3003,-100,4,2,1,40,0,0
4279,-100,4,2,1,50,0,0
5556,-100,4,2,1,60,0,0
15769,-100,4,2,1,40,0,0
24705,-100,4,2,1,50,0,0
25981,-100,4,2,1,60,0,0
35077,-100,4,2,1,50,0,0
35556,-100,4,2,1,50,0,0
36194,-100,4,2,1,80,0,1
45130,-100,4,2,1,60,0,0
46407,-100,4,2,1,80,0,1
56620,-100,4,2,1,50,0,0
64279,-100,4,2,1,50,0,0
66832,-100,4,2,1,70,0,1
77045,-100,4,2,1,50,0,0
78003,-100,4,2,1,50,0,0
78322,-100,4,2,1,50,0,0
80556,-100,4,2,1,50,0,0
80875,-100,4,2,1,50,0,0
85822,-100,4,2,1,50,0,0
87258,-100,4,2,1,30,0,0
91088,-100,4,2,1,50,0,0
92364,-100,4,2,1,50,0,0
102577,-100,4,2,1,60,0,0
111513,-100,4,2,1,40,0,0
112152,-100,4,2,1,60,0,0
112790,-100,4,2,1,80,0,1
121726,-100,4,2,1,80,0,0
123003,-100,4,2,1,80,0,1
133215,-100,4,2,1,50,0,0
140875,-100,4,2,1,60,0,0
143428,-100,4,2,1,70,0,0
153641,-100,4,2,1,50,0,0
163854,-100,4,2,1,70,0,0
165130,-100,4,2,1,35,0,0
172152,-100,4,2,1,35,0,0
172790,-100,4,2,1,60,0,0
174067,-100,4,2,1,40,0,0
175343,-100,4,2,1,90,0,1
185556,-100,4,2,1,50,0,0
193215,-100,4,2,1,60,0,0
195769,-100,4,2,1,80,0,1
205981,-100,4,2,1,50,0,0

[Colours]
Combo1 : 255,255,121
Combo2 : 247,185,255
Combo3 : 255,185,185
Combo4 : 166,166,255

[HitObjects]
46,84,5556,6,0,P|111:80|147:105,1,100,4|8,0:0|0:0,0:0:0:0:
227,144,6194,2,0,L|327:140,1,100,2|8,0:0|0:0,0:0:0:0:
417,182,6832,2,0,P|424:239|416:284,2,100,2|8|2,0:0|0:0|0:0,0:0:0:0:
408,82,7790,1,8,0:0:0:0:
315,44,8109,6,0,P|263:57|215:51,1,100,2|8,0:0|0:0,0:0:0:0:
123,16,8747,2,0,L|15:30,1,100,2|8,0:0|0:0,0:0:0:0:
62,121,9386,2,0,P|72:171|63:225,1,100,2|8,0:0|0:0,0:0:0:0:
17,306,10024,2,0,L|84:303,1,50,2|2,0:0|0:0,0:0:0:0:
111,326,10343,2,0,L|178:323,1,50,10|0,0:0|0:0,0:0:0:0:
205,347,10662,6,0,L|323:335,1,100,2|8,0:0|0:0,0:0:0:0:
334,241,11301,2,0,L|433:251,1,100,2|8,0:0|0:0,0:0:0:0:
487,167,11939,2,0,P|429:98|314:102,1,200,2|2,0:0|0:0,0:0:0:0:
231,131,12896,1,8,0:0:0:0:
131,138,13215,6,0,L|142:29,1,100,2|8,0:0|0:0,0:0:0:0:
40,32,13854,2,0,L|29:131,1,100,0|8,0:0|0:0,0:0:0:0:
53,228,14492,2,0,L|124:216,1,50,2|0,0:0|0:0,0:0:0:0:
149,236,14811,2,0,L|221:227,1,50,2|8,0:0|0:0,0:0:0:0:
236,198,15130,2,0,L|231:137,2,50,8|8|8,0:3|0:3|0:3,0:0:0:0:
240,298,15769,5,4,0:0:0:0:
33,27,24705,6,0,L|132:19,1,100,12|0,0:0|0:0,0:0:0:0:
100,114,25343,2,0,L|199:106,1,100,0|2,0:0|0:0,0:0:0:0:
262,179,25981,6,0,P|249:236|268:285,1,100,6|10,0:0|0:0,0:0:0:0:
348,225,26620,2,0,P|360:177|347:129,1,100,2|10,0:0|0:0,0:0:0:0:
336,30,27258,2,0,L|455:43,2,100,2|8|2,0:0|0:0|0:0,0:0:0:0:
255,88,28215,1,8,0:0:0:0:
157,66,28535,6,0,P|92:53|44:74,1,100,2|10,0:0|0:0,0:0:0:0:
107,151,29173,2,0,P|97:224|120:262,1,100,2|10,0:0|0:0,0:0:0:0:
204,223,29811,1,2,0:0:0:0:
284,282,30130,1,8,0:0:0:0:
345,202,30450,2,0,L|446:218,1,100,2|8,0:0|0:0,0:0:0:0:
473,122,31088,6,0,P|488:50|477:19,2,100,2|8|0,0:0|0:0|0:0,0:0:0:0:
388,68,32045,1,8,0:0:0:0:
307,10,32364,2,0,L|194:20,1,100,0|8,0:0|0:0,0:0:0:0:
138,91,33003,2,0,P|82:111|28:102,1,100,0|8,0:0|0:0,0:0:0:0:
50,206,33641,6,0,P|32:267|139:324,1,200,6|2,0:0|0:0,0:0:0:0:
210,263,34598,1,8,0:0:0:0:
285,329,34918,2,0,P|373:301|368:208,1,200,0|8,0:0|0:3,0:0:0:0:
309,127,35875,1,2,0:0:0:0:
230,65,36194,6,0,L|110:77,2,100,4|8|2,0:0|0:0|0:0,0:0:0:0:
317,16,37152,1,8,0:0:0:0:
391,82,37471,2,0,P|431:94|462:91,1,50,2|0,0:0|0:0,0:0:0:0:
488,86,37790,2,0,L|479:147,1,50,8|0,0:0|0:0,0:0:0:0:
501,180,38109,2,0,L|490:285,1,100,2|8,0:0|0:0,0:0:0:0:
415,345,38747,6,0,B|355:322|355:322|305:365|215:346,1,200,4|2,0:0|0:0,0:0:0:0:
126,357,39705,1,8,0:0:0:0:
39,306,40024,2,0,L|34:243,1,50,2|0,0:0|0:0,0:0:0:0:
83,244,40343,2,0,L|79:176,1,50,8|0,0:0|0:0,0:0:0:0:
128,179,40662,2,0,L|123:77,1,100,2|8,0:0|0:0,0:0:0:0:
213,36,41301,6,0,P|279:28|323:42,1,100,0|8,0:0|0:0,0:0:0:0:
401,90,41939,2,0,P|390:151|408:197,1,100,0|8,0:0|0:0,0:0:0:0:
499,205,42577,2,0,L|488:317,1,100,0|8,0:0|0:0,0:0:0:0:
392,284,43215,1,0,0:0:0:0:
296,316,43535,1,8,0:0:0:0:
204,280,43854,6,0,L|96:276,1,100,4|8,0:0|0:0,0:0:0:0:
104,176,44492,2,0,L|203:179,1,100,2|8,0:0|0:0,0:0:0:0:
252,92,45130,2,0,P|336:72|436:140,1,200,4|0,0:3|0:2,0:0:0:0:
360,200,46088,1,12,0:3:0:0:
432,268,46407,6,0,P|350:322|255:304,1,200,6|2,0:0|0:0,0:0:0:0:
188,229,47364,1,10,0:0:0:0:
150,321,47684,2,0,P|110:324|84:315,1,50,2|0,0:0|0:0,0:0:0:0:
59,292,48003,2,0,L|64:228,1,50,10|0,0:0|0:0,0:0:0:0:
37,199,48322,2,0,P|21:144|33:91,1,100,2|10,0:0|0:0,0:0:0:0:
105,42,48960,6,0,B|163:60|163:60|237:38|237:38|312:59,1,200,6|2,0:0|0:0,0:0:0:0:
394,33,49918,1,10,0:0:0:0:
483,77,50237,2,0,L|475:144,1,50,2|0,0:0|0:0,0:0:0:0:
429,143,50556,2,0,L|423:210,1,50,10|0,0:0|0:0,0:0:0:0:
384,222,50875,2,0,L|273:205,1,100,2|8,0:0|0:0,0:0:0:0:
197,255,51513,6,0,P|194:316|215:359,1,100,0|8,0:0|0:0,0:0:0:0:
308,341,52152,1,2,0:0:0:0:
404,313,52471,1,10,0:0:0:0:
457,232,52790,2,0,L|468:128,1,100,0|8,0:0|0:0,0:0:0:0:
402,56,53428,2,0,P|348:48|297:66,1,100,0|10,0:0|0:0,0:0:0:0:
215,106,54067,6,0,P|155:106|114:80,2,100,4|8|4,0:3|0:3|0:3,0:0:0:0:
296,164,55024,1,12,0:3:0:0:
206,207,55343,2,0,P|201:278|213:307,1,100,4|8,0:3|0:3,0:0:0:0:
260,297,55822,1,4,0:3:0:0:
349,342,56142,1,4,0:3:0:0:
429,283,56460,2,0,L|486:291,1,50,2|4,0:0|0:0,0:0:0:0:
446,161,64279,6,0,P|459:92|398:20,2,150,4|4|8,0:3|0:3|0:3,0:0:0:0:
362,216,65556,2,0,L|251:201,1,100,4|8,0:3|0:3,0:0:0:0:
175,251,66194,2,0,L|57:262,1,100,8|10,0:3|2:0,0:0:0:0:
87,360,66832,6,0,L|204:350,1,100,6|10,0:0|0:0,0:0:0:0:
286,366,67470,1,2,0:0:0:0:
344,285,67789,1,10,0:0:0:0:
445,340,68109,2,0,L|448:284,1,50,2|0,0:0|0:0,0:0:0:0:
452,240,68427,1,10,0:0:0:0:
446,140,68747,2,0,P|407:141|385:132,1,50,2|0,0:0|0:0,0:0:0:0:
358,107,69066,1,10,0:0:0:0:
282,43,69385,6,0,P|261:113|278:157,1,100,6|10,0:0|0:0,0:0:0:0:
320,223,70023,2,0,L|313:344,1,100,2|10,0:0|0:0,0:0:0:0:
217,346,70662,2,0,L|149:336,1,50,2|2,0:0|0:0,0:0:0:0:
136,300,70981,2,0,L|68:290,1,50,10|2,0:0|0:0,0:0:0:0:
38,284,71300,2,0,P|48:215|38:183,1,100,2|10,0:0|0:0,0:0:0:0:
116,123,71938,6,0,P|185:106|220:122,1,100,6|10,0:0|0:0,0:0:0:0:
309,134,72576,2,0,L|417:120,1,100,2|10,0:0|0:0,0:0:0:0:
422,221,73215,2,0,P|379:239|357:234,1,50,2|0,0:0|0:0,0:0:0:0:
326,236,73535,1,10,0:0:0:0:
237,189,73854,2,0,L|234:259,1,50,2|0,0:0|0:0,0:0:0:0:
232,288,74172,1,10,0:0:0:0:
155,341,74491,6,0,P|92:340|52:316,1,100,6|10,0:0|0:0,0:0:0:0:
83,225,75130,2,0,P|92:167|69:118,1,100,2|10,0:0|0:0,0:0:0:0:
52,34,75768,2,0,L|114:46,1,50,14|0,0:0|0:0,0:0:0:0:
148,24,76087,2,0,L|216:41,1,50,10|0,0:0|0:0,0:0:0:0:
243,56,76406,1,10,0:0:0:0:
207,149,76725,1,10,0:0:0:0:
305,132,77045,6,0,L|420:122,2,100,6|2|2,0:0|0:0|0:0,0:0:0:0:
247,214,78003,2,0,L|132:204,2,100,2|2|2,0:0|0:0|0:0,0:0:0:0:
342,184,78960,1,2,0:0:0:0:
342,184,79279,1,0,0:0:0:0:
393,269,79598,6,0,P|407:318|395:371,2,100,2|2|2,0:0|0:0|0:0,0:0:0:0:
342,184,80556,2,0,L|359:72,2,100,2|2|2,0:0|0:0|0:0,0:0:0:0:
242,181,81513,2,0,P|190:199|129:192,1,100,2|0,0:0|0:3,0:0:0:0:
74,125,82152,6,0,P|42:202|103:295,1,200,2|2,0:0|0:0,0:0:0:0:
194,259,83109,1,0,0:0:0:0:
284,302,83428,2,0,P|341:224|310:133,1,200,2|2,0:0|0:0,0:0:0:0:
263,44,84386,1,2,0:0:0:0:
209,128,84705,6,0,L|9:109,1,200,2|10,0:0|0:0,0:0:0:0:
39,204,85662,1,8,0:0:0:0:
125,254,85981,2,0,P|120:323|139:353,1,100,0|4,0:0|0:0,0:0:0:0:
234,347,86620,2,0,P|253:301|243:253,1,100,8|10,0:0|0:3,0:0:0:0:
186,170,87258,5,4,0:0:0:0:
207,49,92364,5,4,0:0:0:0:
161,138,92684,2,0,L|51:120,2,100,8|2|8,0:0|0:0|0:0,0:0:0:0:
248,185,93641,2,0,P|241:258|266:295,1,100,0|8,0:0|0:0,0:0:0:0:
336,332,94279,2,0,P|351:285|340:237,1,100,2|8,0:0|0:0,0:0:0:0:
338,137,94918,6,0,L|128:158,1,200,2|2,0:0|0:0,0:0:0:0:
92,68,95875,1,8,0:0:0:0:
178,18,96194,2,0,P|240:32|272:64,2,100,0|8|0,0:0|0:0|0:0,0:0:0:0:
92,68,97152,1,8,0:0:0:0:
50,158,97471,6,0,B|28:254|28:254|71:360,1,200,2|2,0:0|0:0,0:0:0:0:
146,288,98428,1,8,0:0:0:0:
224,349,98747,2,0,L|334:347,1,100,0|8,0:0|0:0,0:0:0:0:
369,258,99386,2,0,L|479:256,1,100,0|8,0:0|0:0,0:0:0:0:
457,156,100024,6,0,P|473:91|462:56,2,100,2|8|2,0:0|0:0|0:0,0:0:0:0:
372,102,100981,1,8,0:0:0:0:
291,42,101301,2,0,L|187:32,2,100,2|2|8,0:1|0:0|0:0,0:0:0:0:
372,102,102258,1,2,0:0:0:0:
281,145,102577,6,0,L|182:134,1,100,6|10,0:0|0:0,0:0:0:0:
82,149,103216,2,0,P|70:197|83:245,1,100,2|10,0:0|0:0,0:0:0:0:
117,338,103854,2,0,L|-2:325,2,100,0|8|0,0:0|0:0|0:0,0:0:0:0:
210,302,104811,1,8,0:0:0:0:
303,337,105131,6,0,P|368:350|416:329,1,100,0|10,0:0|0:0,0:0:0:0:
413,241,105769,2,0,P|423:168|400:130,1,100,2|10,0:0|0:0,0:0:0:0:
330,89,106407,1,2,0:0:0:0:
228,102,106726,1,8,0:0:0:0:
167,182,107046,2,0,L|66:166,1,100,2|0,0:0|0:0,0:0:0:0:
39,262,107684,6,0,P|24:334|35:365,2,100,2|8|0,0:0|0:0|0:0,0:0:0:0:
118,324,108641,1,8,0:0:0:0:
205,374,108960,2,0,L|318:364,1,100,0|8,0:0|0:0,0:0:0:0:
374,293,109599,2,0,P|430:273|484:282,1,100,0|10,0:0|0:0,0:0:0:0:
462,178,110237,6,0,P|480:117|373:60,1,200,6|2,0:0|0:0,0:0:0:0:
302,121,111194,1,8,0:0:0:0:
227,55,111514,2,0,P|139:83|144:176,1,200,4|2,0:0|0:3,0:0:0:0:
203,257,112471,1,2,0:0:0:0:
282,319,112790,6,0,L|402:307,2,100,4|8|2,0:0|0:0|0:0,0:0:0:0:
195,368,113748,1,8,0:0:0:0:
121,302,114067,2,0,P|81:290|50:293,1,50,2|0,0:0|0:0,0:0:0:0:
24,299,114386,2,0,L|33:226,1,50,8|0,0:0|0:0,0:0:0:0:
11,204,114705,2,0,L|22:99,1,100,2|8,0:0|0:0,0:0:0:0:
97,39,115343,6,0,B|157:62|157:62|207:19|297:38,1,200,6|2,0:0|0:0,0:0:0:0:
386,27,116301,1,8,0:0:0:0:
473,78,116620,2,0,L|478:141,1,50,2|0,0:0|0:0,0:0:0:0:
429,140,116939,2,0,L|433:208,1,50,8|0,0:0|0:0,0:0:0:0:
384,205,117258,2,0,L|389:307,1,100,2|8,0:0|0:0,0:0:0:0:
299,348,117897,6,0,P|233:356|189:342,1,100,0|8,0:0|0:0,0:0:0:0:
111,294,118535,2,0,P|122:233|104:187,1,100,0|8,0:0|0:0,0:0:0:0:
13,179,119173,2,0,L|24:67,1,100,0|8,0:0|0:0,0:0:0:0:
120,100,119811,1,0,0:0:0:0:
216,68,120131,1,8,0:0:0:0:
308,104,120450,6,0,L|416:108,1,100,6|8,0:0|0:0,0:0:0:0:
408,208,121088,2,0,L|309:205,1,100,2|8,0:0|0:0,0:0:0:0:
260,292,121726,2,0,P|176:312|76:244,1,200,4|2,0:3|0:0,0:0:0:0:
152,184,122684,1,2,0:3:0:0:
80,116,123003,6,0,P|162:62|257:80,1,200,6|0,0:0|0:0,0:0:0:0:
324,155,123960,1,10,0:0:0:0:
362,63,124280,2,0,P|402:60|428:69,1,50,2|0,0:0|0:0,0:0:0:0:
453,92,124599,2,0,L|448:156,1,50,10|0,0:0|0:0,0:0:0:0:
475,185,124918,2,0,P|491:240|479:293,1,100,2|8,0:0|0:0,0:0:0:0:
407,342,125556,6,0,B|349:324|349:324|275:346|275:346|200:325,1,200,6|2,0:0|0:0,0:0:0:0:
118,351,126514,1,10,0:0:0:0:
29,307,126833,2,0,L|37:240,1,50,2|0,0:0|0:0,0:0:0:0:
83,241,127152,2,0,L|89:174,1,50,10|0,0:0|0:0,0:0:0:0:
128,162,127471,2,0,L|239:179,1,100,2|8,0:0|0:0,0:0:0:0:
315,129,128109,6,0,P|318:68|297:25,1,100,0|8,0:0|0:0,0:0:0:0:
204,43,128748,1,0,0:0:0:0:
108,71,129067,1,8,0:0:0:0:
55,152,129386,2,0,L|44:256,1,100,0|8,0:0|0:0,0:0:0:0:
110,328,130024,2,0,P|164:336|215:318,1,100,0|10,0:0|0:0,0:0:0:0:
297,278,130663,6,0,P|357:278|398:304,2,100,4|0|4,0:3|0:0|0:3,0:0:0:0:
216,220,131620,1,0,0:0:0:0:
306,177,131939,2,0,P|311:106|299:77,1,100,4|8,0:3|0:3,0:0:0:0:
206,111,132577,1,4,0:3:0:0:
117,66,132897,1,4,0:3:0:0:
24,101,133216,5,4,0:0:0:0:
258,125,138322,6,0,P|170:98|81:170,1,200,0|0,0:0|0:0,0:0:0:0:
182,340,139599,2,0,L|293:325,1,100,0|2,0:0|0:0,0:0:0:0:
381,323,140237,2,0,L|499:334,1,100,0|2,0:0|0:0,0:0:0:0:
457,236,140875,6,0,P|460:166|439:132,2,100,4|2|2,0:3|0:0|0:0,0:0:0:0:
366,197,141833,1,8,0:3:0:0:
282,250,142152,2,0,L|178:233,1,100,8|2,0:3|0:3,0:0:0:0:
124,154,142790,2,0,L|20:137,1,100,0|2,0:0|0:0,0:0:0:0:
48,41,143429,6,0,B|144:58|144:58|183:21|242:34,1,200,6|2,0:0|0:0,0:0:0:0:
294,118,144386,1,8,0:0:0:0:
351,36,144705,2,0,P|414:39|448:74,1,100,2|8,0:0|0:0,0:0:0:0:
439,162,145344,2,0,L|426:278,1,100,8|0,0:0|0:0,0:0:0:0:
456,358,145982,6,0,P|404:293|285:310,1,200,2|2,0:0|0:0,0:0:0:0:
209,350,146939,1,8,0:0:0:0:
118,309,147258,2,0,L|10:314,1,100,2|8,0:0|0:0,0:0:0:0:
37,216,147897,2,0,L|137:212,1,100,2|0,0:0|0:0,0:0:0:0:
225,164,148535,6,0,P|306:194|417:158,1,200,8|8,0:0|0:0,0:0:0:0:
362,76,149493,1,8,0:0:0:0:
461,61,149812,2,0,P|519:136|482:244,1,200,2|8,0:0|0:0,0:0:0:0:
410,283,150769,1,8,0:0:0:0:
312,302,151088,6,0,P|249:289|210:298,1,100,2|8,0:0|0:0,0:0:0:0:
127,344,151726,2,0,L|12:336,1,100,2|8,0:0|0:0,0:0:0:0:
67,245,152364,2,0,B|39:205|39:205|61:43,1,200,2|2,0:0|0:0,0:0:0:0:
150,14,153322,1,8,0:0:0:0:
230,73,153641,6,0,P|319:104|419:60,1,200,6|6,0:0|0:0,0:0:0:0:
483,198,154758,2,0,P|410:184|339:224,1,150,2|0,0:0|0:0,0:0:0:0:
264,277,155556,2,0,L|155:259,1,100,8|2,0:0|0:0,0:0:0:0:
72,296,156194,6,0,P|28:221|77:104,1,200,12|8,0:0|0:0,0:0:0:0:
194,51,157311,2,0,L|312:60,1,100,4|0,0:0|0:0,0:0:0:0:
393,47,157950,2,0,P|401:163|378:206,1,150,8|2,0:0|0:0,0:0:0:0:
326,268,158747,6,0,L|219:253,1,100,6|2,0:0|0:3,0:0:0:0:
132,220,159386,2,0,P|113:300|142:366,1,150,2|2,0:0|0:3,0:0:0:0:
283,323,160343,2,0,P|338:315|389:333,2,100,2|2|8,0:3|0:3|0:3,0:0:0:0:
249,233,161301,6,0,L|267:29,1,200,4|10,0:3|0:0,0:0:0:0:
166,37,162258,1,10,0:0:0:0:
97,110,162577,2,0,P|75:219|141:293,1,200,8|2,0:3|0:3,0:0:0:0:
219,249,163535,1,2,0:3:0:0:
311,287,163854,6,0,P|364:206|338:112,1,200,10|8,0:0|0:0,0:0:0:0:
251,63,164811,1,8,0:0:0:0:
161,107,165130,1,4,0:0:0:0:
125,64,172790,6,0,P|117:131|141:168,1,100,8|8,0:0|0:0,0:0:0:0:
226,187,173428,2,0,L|230:301,1,100,2|8,0:3|0:0,0:0:0:0:
323,322,174067,2,0,P|446:304|464:146,1,300,0|0,0:0|0:0,0:0:0:0:
393,83,175343,6,0,L|279:88,2,100,6|10|2,0:0|0:0|0:0,0:0:0:0:
465,152,176301,1,10,0:0:0:0:
407,233,176620,2,0,L|340:224,1,50,2|0,0:0|0:0,0:0:0:0:
315,198,176939,2,0,L|246:185,1,50,10|0,0:0|0:0,0:0:0:0:
227,153,177258,2,0,L|108:166,1,100,2|10,0:0|0:0,0:0:0:0:
51,99,177896,6,0,P|44:220|110:262,1,200,6|0,0:0|0:0,0:0:0:0:
199,247,178854,1,8,0:0:0:0:
295,272,179173,2,0,P|343:281|364:275,1,50,2|0,0:0|0:0,0:0:0:0:
381,248,179492,2,0,L|385:189,1,50,10|0,0:0|0:0,0:0:0:0:
393,148,179811,2,0,L|293:158,1,100,2|8,0:0|0:0,0:0:0:0:
205,110,180450,6,0,P|113:87|48:157,1,200,0|0,0:0|0:0,0:0:0:0:
119,227,181407,1,8,0:0:0:0:
123,326,181726,2,0,L|233:342,1,100,0|8,0:0|0:0,0:0:0:0:
312,303,182364,2,0,L|432:287,1,100,0|10,0:0|0:0,0:0:0:0:
488,352,183003,6,0,P|505:258|433:195,1,200,4|4,0:3|0:3,0:0:0:0:
398,102,183960,1,8,0:3:0:0:
366,7,184279,2,0,P|442:15|476:41,2,100,8|8|8,0:3|0:3|0:3,0:0:0:0:
279,57,185237,1,8,0:3:0:0:
187,17,185556,5,4,0:0:0:0:
434,128,190662,6,0,B|336:116|336:116|308:152|232:144,1,200,0|0,0:0|0:0,0:0:0:0:
179,9,191779,2,0,P|117:49|92:123,1,150,2|0,0:0|0:0,0:0:0:0:
163,183,192577,2,0,L|153:303,1,100
78,347,193215,6,0,P|163:319|261:372,1,200,4|0,0:3|0:0,0:0:0:0:
351,332,194173,1,4,0:3:0:0:
443,369,194492,2,0,L|456:254,1,100,4|4,0:3|0:3,0:0:0:0:
371,214,195130,2,0,L|384:99,1,100,4|2,0:3|0:0,0:0:0:0:
404,68,195609,1,0,0:0:0:0:
425,24,195769,6,0,L|308:34,1,100,4|10,0:0|0:0,0:0:0:0:
226,18,196407,1,2,0:0:0:0:
168,99,196726,1,10,0:0:0:0:
67,44,197045,2,0,L|64:100,1,50,2|0,0:0|0:0,0:0:0:0:
60,144,197364,1,10,0:0:0:0:
66,244,197684,2,0,P|105:243|127:252,1,50,2|0,0:0|0:0,0:0:0:0:
154,277,198003,1,8,0:0:0:0:
230,341,198322,6,0,P|251:271|234:227,1,100,6|10,0:0|0:0,0:0:0:0:
192,161,198960,2,0,L|199:40,1,100,2|10,0:0|0:0,0:0:0:0:
295,38,199598,2,0,L|363:48,1,50,6|0,0:0|0:0,0:0:0:0:
376,84,199918,2,0,L|444:94,1,50,10|0,0:0|0:0,0:0:0:0:
474,100,200237,2,0,P|464:169|474:201,1,100,2|10,0:0|0:0,0:0:0:0:
396,261,200875,6,0,P|327:278|292:262,1,100,6|10,0:0|0:0,0:0:0:0:
203,250,201513,2,0,L|95:264,1,100,2|10,0:0|0:0,0:0:0:0:
90,163,202152,2,0,L|189:150,1,100,2|10,0:0|0:0,0:0:0:0:
196,50,202790,1,2,0:0:0:0:
280,107,203109,1,10,0:0:0:0:
357,43,203428,6,0,P|420:44|460:68,1,100,6|8,0:0|0:0,0:0:0:0:
429,159,204067,2,0,P|420:217|443:266,1,100,2|10,0:0|0:0,0:0:0:0:
460,350,204705,2,0,L|398:338,1,50,2|0,0:0|0:0,0:0:0:0:
364,360,205024,2,0,L|296:343,1,50,10|0,0:0|0:0,0:0:0:0:
269,328,205343,1,8,0:0:0:0:
197,258,205662,1,10,0:0:0:0:
126,329,205981,6,0,P|64:312|20:324,2,100,6|2|2,0:0|0:0|0:0,0:0:0:0:
221,358,206939,2,0,P|277:367|322:344,2,100,2|2|2,0:0|0:0|0:0,0:0:0:0:
197,258,207896,1,2,0:0:0:0:
227,162,208215,1,2,0:0:0:0:
320,124,208535,6,0,L|333:20,2,100,2|2|2,0:0|0:0|0:0,0:0:0:0:
408,170,209492,2,0,L|420:269,2,100,2|2|2,0:0|0:0|0:0,0:0:0:0:
481,101,210450,1,2,0:0:0:0:
409,30,210769,1,2,0:0:0:0:
334,96,211088,6,0,P|267:80|224:90,1,100,2|2,0:0|0:0,0:0:0:0:
167,156,211726,2,0,L|173:262,1,100,2|2,0:0|0:0,0:0:0:0:
131,346,212364,2,0,P|68:355|19:328,2,100,2|2|2,0:0|0:0|0:0,0:0:0:0:
229,326,213322,1,2,0:0:0:0:
328,337,213641,6,0,L|435:349,1,100
472,259,214279,2,0,L|477:197,1,50,8|8,0:0|0:0,0:0:0:0:
450,165,214598,2,0,L|453:104,1,50,8|10,0:0|0:0,0:0:0:0:
474,69,214918,2,0,P|421:88|359:68,1,100,6|0,0:0|0:0,0:0:0:0:
340,48,215396,2,0,L|221:58,1,100,4|0,0:0|0:0,0:0:0:0:
194,35,215875,2,0,L|203:90,1,50,2|4,0:0|0:0,0:0:0:0:
