osu file format v14

[General]
AudioFilename: audio.mp3
AudioLeadIn: 0
PreviewTime: 112551
Countdown: 0
SampleSet: Soft
StackLeniency: 0.7
Mode: 0
LetterboxInBreaks: 0
WidescreenStoryboard: 0

[Editor]
DistanceSpacing: 0.9
BeatDivisor: 2
GridSize: 4
TimelineZoom: 1.4

[Metadata]
Title:Uso no Hibana
TitleUnicode:嘘の火花
Artist:96neko
ArtistUnicode:96猫
Creator:Yasaija 714
Version:Akanya's Easy
Source:クズの本懐
Tags:kuzu no honkai opening full size Akanya Regraz DreaM117er _kotachi_ SnowNiNo_
BeatmapID:1242829
BeatmapSetID:569503

[Difficulty]
HPDrainRate:2
CircleSize:3
OverallDifficulty:2
ApproachRate:3
SliderMultiplier:0.999999999999999
SliderTickRate:1

[Events]
//Background and Video events
0,0,"BG.jpg",0,0
//Break Periods
2,56819,62839
2,87458,89648
2,133415,141988
2,165330,171350
2,185755,194173
//Storyboard Layer 0 (Background)
//Storyboard Layer 1 (Fail)
//Storyboard Layer 2 (Pass)
//Storyboard Layer 3 (Foreground)
//Storyboard Sound Samples

[TimingPoints]
450,319.148936170213,4,2,1,60,1,0
450,-100,4,2,1,60,0,0
2524,-100,4,2,1,60,0,0
3003,-100,4,2,1,60,0,0
4279,-100,4,2,1,60,0,0
5556,-100,4,2,1,60,0,0
15769,-100,4,2,1,50,0,0
25981,-100,4,2,1,60,0,0
35077,-100,4,2,1,60,0,0
35556,-100,4,2,1,60,0,0
36194,-100,4,2,1,80,0,1
45130,-100,4,2,1,80,0,0
46407,-100,4,2,1,80,0,1
56620,-100,4,2,1,60,0,0
64279,-100,4,2,1,60,0,0
66832,-100,4,2,1,80,0,1
77045,-100,4,2,1,50,0,0
87258,-100,4,2,1,60,0,0
91088,-100,4,2,1,70,0,0
92364,-100,4,2,1,60,0,0
102577,-100,4,2,1,60,0,0
111513,-100,4,2,1,60,0,0
112152,-100,4,2,1,60,0,0
112790,-100,4,2,1,80,0,1
121726,-100,4,2,1,80,0,0
123003,-100,4,2,1,80,0,1
133215,-100,4,2,1,60,0,0
140875,-100,4,2,1,60,0,0
143428,-100,4,2,1,60,0,0
153641,-100,4,2,1,65,0,0
163854,-100,4,2,1,70,0,0
165130,-100,4,2,1,80,0,0
172152,-100,4,2,1,60,0,0
172790,-100,4,2,1,60,0,0
174067,-100,4,2,1,60,0,0
175343,-100,4,2,1,80,0,1
185556,-100,4,2,1,80,0,0
193215,-100,4,2,1,80,0,0
195769,-100,4,2,1,80,0,1
205981,-100,4,2,1,60,0,0
211088,-100,4,2,1,60,0,0
215396,-100,4,2,1,70,0,0
216035,-100,4,2,1,80,0,0
216513,-100,4,2,1,80,0,0

[Colours]
Combo1 : 255,255,121
Combo2 : 247,185,255
Combo3 : 255,185,185
Combo4 : 166,166,255

[HitObjects]
78,99,5556,6,0,P|99:155|226:149,1,200,6|2,0:0|0:0,0:0:0:0:
289,95,6513,1,8,0:0:0:0:
333,176,6832,2,0,L|331:288,1,99.9999999999999,2|8,0:0|0:0,0:0:0:0:
418,251,7471,2,0,L|419:151,1,99.9999999999999,2|8,0:0|0:0,0:0:0:0:
333,176,8109,6,0,P|251:202|174:116,1,200,2|2,0:0|0:0,0:0:0:0:
204,44,9067,1,8,0:0:0:0:
290,66,9386,2,0,L|394:61,1,99.9999999999999,2|8,0:0|0:0,0:0:0:0:
460,117,10024,2,0,P|470:171|460:221,1,99.9999999999999,2|8,0:0|0:0,0:0:0:0:
393,273,10662,6,0,L|280:271,1,99.9999999999999,2|8,0:0|0:0,0:0:0:0:
240,197,11301,2,0,L|29:206,2,200,2|2|2,0:0|0:0|0:0,0:0:0:0:
293,271,12896,1,8,0:0:0:0:
342,195,13215,6,0,P|364:139|280:35,1,200,2|2,0:0|0:0,0:0:0:0:
276,126,14173,1,8,0:0:0:0:
189,152,14492,2,0,L|86:149,1,99.9999999999999,10|2,0:0|0:0,0:0:0:0:
109,61,15130,2,0,L|233:65,1,99.9999999999999,10|2,0:0|0:0,0:0:0:0:
276,126,15769,6,0,L|444:118,1,150,6|2,0:0|0:0,0:0:0:0:
474,244,16726,1,2,0:0:0:0:
387,267,17045,2,0,L|224:264,2,150,2|2|2,0:0|0:0|0:0,0:0:0:0:
474,244,18322,6,0,P|493:189|475:93,1,150,2|2,0:0|0:0,0:0:0:0:
351,55,19279,1,2,0:0:0:0:
314,137,19598,2,0,L|323:299,2,150,2|2|2,0:0|0:0|0:0,0:0:0:0:
351,55,20875,5,2,0:0:0:0:
224,102,21354,2,0,L|54:97,1,150,2|2,0:0|0:0,0:0:0:0:
37,180,22152,2,0,L|186:184,1,150,2|2,0:0|0:0,0:0:0:0:
314,137,23109,1,2,0:0:0:0:
356,216,23428,6,0,P|367:271|355:368,2,150,2|2|2,0:0|0:0|0:0,0:0:0:0:
314,137,24705,2,0,P|259:121|148:126,1,150,10|10,0:0|0:0,0:0:0:0:
86,230,25662,1,2,0:0:0:0:
158,282,25981,6,0,B|201:306|201:306|362:292,1,200,6|2,0:0|0:0,0:0:0:0:
433,256,26939,1,8,0:0:0:0:
357,206,27258,2,0,L|250:216,1,99.9999999999999,2|8,0:0|0:0,0:0:0:0:
196,148,27896,2,0,L|88:141,1,99.9999999999999,2|8,0:0|0:0,0:0:0:0:
35,207,28535,5,2,0:0:0:0:
119,236,28854,2,0,P|129:289|122:346,1,99.9999999999999,8|2,0:0|0:0,0:0:0:0:
213,319,29492,1,8,0:0:0:0:
301,300,29811,2,0,L|506:309,1,200,2|2,0:0|0:0,0:0:0:0:
474,222,30769,1,8,0:0:0:0:
390,188,31088,6,0,P|328:177|276:181,2,99.9999999999999,2|8|2,0:0|0:0|0:0,0:0:0:0:
474,222,32045,1,8,0:0:0:0:
466,131,32364,2,0,L|469:21,1,99.9999999999999,2|8,0:0|0:0,0:0:0:0:
384,63,33003,2,0,L|381:162,1,99.9999999999999,2|8,0:0|0:0,0:0:0:0:
452,217,33641,6,0,P|357:248|294:166,1,200,2|2,0:0|0:0,0:0:0:0:
380,162,34598,1,10,0:0:0:0:
342,80,34918,2,0,P|260:61|136:91,1,200,2|10,0:0|0:0,0:0:0:0:
246,235,36194,6,0,B|366:274|326:193|473:259,1,200,6|2,0:0|0:0,0:0:0:0:
382,314,37152,1,8,0:0:0:0:
294,333,37471,2,0,L|161:323,1,99.9999999999999,2|8,0:0|0:0,0:0:0:0:
151,246,38109,2,0,L|39:252,1,99.9999999999999,2|8,0:0|0:0,0:0:0:0:
79,165,38747,6,0,L|307:153,1,200,2|2,0:0|0:0,0:0:0:0:
361,117,39705,1,8,0:0:0:0:
411,191,40024,2,0,P|422:246|417:292,2,99.9999999999999,2|8|2,0:0|0:0|0:0,0:0:0:0:
319,91,41141,6,0,L|94:97,2,200,2|2|2,0:0|0:0|0:0,0:0:0:0:
391,37,42736,1,2,0:0:0:0:
457,98,43056,2,0,P|483:173|446:259,1,150,2|8,0:0|0:0,0:0:0:0:
398,175,43854,6,0,L|283:182,1,99.9999999999999,2|8,0:0|0:0,0:0:0:0:
246,107,44492,2,0,L|136:103,1,99.9999999999999,2|8,0:0|0:0,0:0:0:0:
77,160,45130,1,14,0:0:0:0:
77,160,46407,6,0,P|83:226|95:291,1,99.9999999999999,6|8,0:0|0:0,0:0:0:0:
150,324,47045,2,0,L|258:320,1,99.9999999999999,2|8,0:0|0:0,0:0:0:0:
317,260,47684,2,0,L|442:264,2,99.9999999999999,2|8|2,0:0|0:0|0:0,0:0:0:0:
249,320,48641,1,8,0:0:0:0:
172,272,48960,6,0,L|170:65,1,200,2|2,0:0|0:0,0:0:0:0:
238,13,49918,1,8,0:0:0:0:
292,84,50237,2,0,P|299:135|291:184,2,99.9999999999999,2|8|2,0:0|0:0|0:0,0:0:0:0:
166,133,51354,5,2,0:0:0:0:
229,301,51992,2,0,B|280:317|280:317|437:307,2,200,2|2|2,0:0|0:0|0:0,0:0:0:0:
291,182,53747,1,10,0:0:0:0:
360,123,54067,6,0,P|243:106|198:182,2,200,2|2|2,0:0|0:0|0:0,0:0:0:0:
291,182,55662,1,8,0:0:0:0:
374,214,55981,2,0,B|455:227|523:215|523:215|479:272,1,200,2|6,0:0|0:0,0:0:0:0:
190,147,64279,6,0,P|122:136|36:149,2,150,10|8|8,0:0|0:0|0:0,0:0:0:0:
258,205,65556,2,0,L|259:326,1,99.9999999999999,2|8,0:0|0:0,0:0:0:0:
346,285,66194,2,0,L|345:185,1,99.9999999999999,8|10,0:0|0:0,0:0:0:0:
278,124,66832,6,0,B|155:83|188:166|47:101,1,200,6|2,0:0|0:0,0:0:0:0:
16,176,67790,1,8,0:0:0:0:
93,222,68109,2,0,L|209:217,1,99.9999999999999,2|8,0:0|0:0,0:0:0:0:
263,273,68747,2,0,L|383:278,1,99.9999999999999,2|8,0:0|0:0,0:0:0:0:
428,214,69386,5,2,0:0:0:0:
376,136,69705,2,0,P|312:123|271:124,1,99.9999999999999,8|2,0:0|0:0,0:0:0:0:
188,134,70343,1,8,0:0:0:0:
157,218,70662,2,0,L|162:332,1,99.9999999999999,2|8,0:0|0:0,0:0:0:0:
75,342,71301,2,0,L|70:242,1,99.9999999999999,2|8,0:0|0:0,0:0:0:0:
89,154,71939,6,0,P|188:132|248:218,1,200,2|2,0:0|0:0,0:0:0:0:
157,218,72896,1,8,0:0:0:0:
70,242,73215,2,0,P|60:299|70:343,1,99.9999999999999,2|8,0:0|0:0,0:0:0:0:
157,357,73854,2,0,L|261:354,1,99.9999999999999,2|8,0:0|0:0,0:0:0:0:
311,282,74492,6,0,L|412:286,2,99.9999999999999,2|8|2,0:0|0:0|0:0,0:0:0:0:
256,354,75450,1,10,0:0:0:0:
196,286,75769,2,0,P|188:237|197:180,1,99.9999999999999,2|8,0:0|0:0,0:0:0:0:
256,122,76407,2,0,P|291:117|363:130,1,99.9999999999999,8|8,0:0|0:0,0:0:0:0:
386,211,77045,6,0,P|285:220|193:186,1,200,6|2,0:0|0:0,0:0:0:0:
109,154,78003,1,10,0:0:0:0:
57,228,78322,2,0,P|49:284|59:329,1,99.9999999999999,2|8,0:0|0:0,0:0:0:0:
145,344,78960,2,0,L|253:342,1,99.9999999999999,2|8,0:0|0:0,0:0:0:0:
291,265,79598,6,0,L|402:267,2,99.9999999999999,2|2|2,0:0|0:0|0:0,0:0:0:0:
244,342,80556,1,8,0:0:0:0:
189,270,80875,2,0,P|148:226|18:290,1,200,2|2,0:0|0:0,0:0:0:0:
107,305,81832,1,8,0:0:0:0:
184,351,82152,6,0,L|294:349,1,99.9999999999999,2|8,0:0|0:0,0:0:0:0:
324,268,82790,2,0,P|331:219|321:165,1,99.9999999999999,2|8,0:0|0:0,0:0:0:0:
275,92,83428,1,2,0:0:0:0:
203,146,83747,2,0,L|100:145,2,99.9999999999999,8|2|10,0:0|0:0|0:0,0:0:0:0:
275,92,84705,6,0,P|292:144|283:200,1,99.9999999999999,2|8,0:0|0:0,0:0:0:0:
226,254,85343,2,0,L|32:256,1,150,8|10,0:0|0:0,0:0:0:0:
21,183,86141,2,0,P|10:130|13:81,2,99.9999999999999,2|2|2,0:0|0:0|0:0,0:0:0:0:
141,121,87258,5,6,0:0:0:0:
382,53,91088,6,0,L|380:154,1,99.9999999999999,14|2,0:0|0:0,0:0:0:0:
458,197,91726,2,0,L|469:300,1,99.9999999999999,14|2,0:0|0:0,0:0:0:0:
410,365,92364,5,6,0:0:0:0:
331,320,92684,2,0,P|275:314|210:327,1,99.9999999999999,8|2,0:0|0:0,0:0:0:0:
146,349,93322,1,8,0:0:0:0:
102,270,93641,2,0,L|105:84,2,150,2|2|8,0:0|0:0|0:0,0:0:0:0:
146,349,94918,1,2,0:0:0:0:
204,280,95237,6,0,L|200:175,1,99.9999999999999,8|2,0:0|0:0,0:0:0:0:
268,121,95875,1,8,0:0:0:0:
338,176,96194,2,0,P|402:184|489:168,2,150,2|2|8,0:0|0:0|0:0,0:0:0:0:
268,121,97471,1,2,0:0:0:0:
194,68,97790,6,0,P|140:61|77:80,1,99.9999999999999,8|2,0:0|0:0,0:0:0:0:
63,154,98428,1,8,0:0:0:0:
111,229,98747,2,0,P|122:284|105:380,2,150,2|2|8,0:0|0:0|0:0,0:0:0:0:
63,154,100024,5,2,0:0:0:0:
145,118,100343,2,0,L|349:123,1,200,8|8,0:0|0:0,0:0:0:0:
412,183,101301,2,0,P|433:243|410:333,2,150,2|10|10,0:0|0:0|0:0,0:0:0:0:
344,122,102577,6,0,L|136:128,1,200,6|2,0:0|0:0,0:0:0:0:
96,204,103535,1,8,0:0:0:0:
179,237,103854,2,0,P|240:241|285:228,1,99.9999999999999,2|8,0:0|0:0,0:0:0:0:
336,163,104492,2,0,P|390:159|461:181,1,99.9999999999999,2|8,0:0|0:0,0:0:0:0:
496,234,105130,5,2,0:0:0:0:
434,300,105449,2,0,L|310:299,1,99.9999999999999,8|2,0:0|0:0,0:0:0:0:
277,231,106087,1,8,0:0:0:0:
220,160,106407,2,0,P|103:143|58:219,1,200,2|2,0:0|0:0,0:0:0:0:
150,219,107364,1,8,0:0:0:0:
237,239,107684,6,0,L|348:234,2,99.9999999999999,2|8|2,0:0|0:0|0:0,0:0:0:0:
184,312,108641,2,0,L|54:307,1,99.9999999999999,8|2,0:0|0:0,0:0:0:0:
40,229,109279,2,0,P|34:176|45:121,1,99.9999999999999,8|2,0:0|0:0,0:0:0:0:
109,70,109918,1,8,0:0:0:0:
197,87,110237,6,0,B|272:101|272:101|318:87|318:87|409:100,2,200,2|2|2,0:0|0:0|0:0,0:0:0:0:
43,181,112152,1,10,0:0:0:0:
169,309,112790,6,0,B|204:314|204:314|249:303|249:303|298:335|365:306,1,200,6|2,0:0|0:0,0:0:0:0:
399,225,113747,1,8,0:0:0:0:
345,153,114067,2,0,L|344:49,1,99.9999999999999,2|8,0:0|0:0,0:0:0:0:
253,43,114705,2,0,L|255:169,1,99.9999999999999,2|8,0:0|0:0,0:0:0:0:
299,221,115343,6,0,P|208:223|166:132,1,200,2|2,0:0|0:0,0:0:0:0:
255,143,116301,1,8,0:0:0:0:
214,62,116620,2,0,P|162:52|103:69,1,99.9999999999999,2|8,0:0|0:0,0:0:0:0:
55,128,117258,1,2,0:0:0:0:
176,187,117737,6,0,L|401:181,2,200,2|2|2,0:0|0:0|0:0,0:0:0:0:
104,132,119332,1,2,0:0:0:0:
187,96,119652,2,0,L|349:98,1,150,2|8,0:0|0:0,0:0:0:0:
375,181,120450,6,0,P|384:240|373:305,1,99.9999999999999,2|8,0:0|0:0,0:0:0:0:
291,297,121088,2,0,P|283:248|294:181,1,99.9999999999999,2|8,0:0|0:0,0:0:0:0:
223,139,121726,1,10,0:0:0:0:
223,139,123003,6,0,B|214:238|214:238|241:354,2,200,6|2|2,0:0|0:0|0:0,0:0:0:0:
163,71,124598,1,8,0:0:0:0:
109,143,124918,2,0,L|6:140,1,99.9999999999999,2|8,0:0|0:0,0:0:0:0:
15,229,125556,6,0,L|214:234,1,200,2|2,0:0|0:0,0:0:0:0:
283,175,126513,1,8,0:0:0:0:
353,231,126832,2,0,P|362:281|354:344,2,99.9999999999999,2|8|2,0:0|0:0|0:0,0:0:0:0:
307,103,127950,6,0,B|260:88|260:88|208:98,1,99.9999999999999,2|2,0:0|0:0,0:0:0:0:
137,150,128588,2,0,B|127:221|127:221|142:277|142:277|130:355,1,200,2|2,0:0|0:0,0:0:0:0:
301,288,129864,2,0,L|472:294,1,150,2|8,0:0|0:0,0:0:0:0:
439,203,130662,6,0,L|239:195,1,200,0|2,0:0|0:0,0:0:0:0:
163,243,131620,2,0,L|168:354,1,99.9999999999999,10|10,0:0|0:0,0:0:0:0:
248,304,132258,2,0,B|239:195|239:195|190:145|139:146|102:169|77:214,1,300,10|6,0:0|0:0,0:0:0:0:
238,196,143428,6,0,B|277:180|310:193|310:193|353:179|353:179|397:197|447:187,2,200,6|2|2,0:0|0:0|0:0,0:0:0:0:
283,273,145024,1,8,0:0:0:0:
198,304,145343,2,0,L|72:301,1,99.9999999999999,2|8,0:0|0:0,0:0:0:0:
19,257,145981,6,0,B|73:222|73:222|254:224,1,200,2|2,0:0|0:0,0:0:0:0:
283,273,146939,1,8,0:0:0:0:
358,224,147258,2,0,P|364:171|348:123,1,99.9999999999999,2|8,0:0|0:0,0:0:0:0:
274,78,147896,2,0,L|175:82,1,99.9999999999999,2|8,0:0|0:0,0:0:0:0:
97,129,148535,5,2,0:0:0:0:
174,174,148854,2,0,L|276:178,2,99.9999999999999,8|2|8,0:0|0:0|0:0,0:0:0:0:
97,129,149811,2,0,P|87:80|93:24,1,99.9999999999999,2|8,0:0|0:0,0:0:0:0:
180,16,150450,2,0,L|295:20,1,99.9999999999999,2|8,0:0|0:0,0:0:0:0:
354,72,151088,6,0,B|423:169|321:169|399:299,1,200,2|2,0:0|0:0,0:0:0:0:
344,345,152045,1,8,0:0:0:0:
264,303,152364,2,0,P|203:297|162:308,1,99.9999999999999,2|8,0:0|0:0,0:0:0:0:
80,334,153003,1,8,0:0:0:0:
61,245,153322,2,0,L|63:126,1,99.9999999999999,8|6,0:0|0:0,0:0:0:0:
107,67,153960,5,2,0:0:0:0:
180,118,154279,2,0,P|232:127|290:109,1,99.9999999999999,8|2,0:0|0:0,0:0:0:0:
314,33,154918,2,0,B|298:83|298:83|316:244,1,200,2|8,0:0|0:0,0:0:0:0:
362,305,155875,1,2,0:0:0:0:
413,231,156194,6,0,B|423:182|423:182|416:130,2,99.9999999999999,10|10|10,0:0|0:0|0:0,0:0:0:0:
306,314,157311,2,0,P|250:321|203:311,1,99.9999999999999,10|2,0:0|0:0,0:0:0:0:
178,227,157950,2,0,P|127:222|71:235,1,99.9999999999999,8|10,0:0|0:0,0:0:0:0:
49,363,158747,6,0,L|38:144,1,200,10|10,0:0|0:0,0:0:0:0:
143,78,159864,2,0,B|187:48|187:48|339:59,1,200,10|2,0:0|0:0,0:0:0:0:
390,128,160822,1,2,0:0:0:0:
301,229,161301,6,0,L|185:221,1,99.9999999999999,2|2,0:0|0:0,0:0:0:0:
162,303,161939,2,0,L|62:306,1,99.9999999999999,2|2,0:0|0:0,0:0:0:0:
15,229,162577,2,0,P|3:164|19:80,1,150,10|2,0:0|0:0,0:0:0:0:
237,135,163854,6,0,B|289:138|329:106|329:106|340:160|383:186|383:186|336:215|327:265|327:265|282:230|282:230|232:239,1,400,2|6,0:0|0:0,0:0:0:0:
6,240,172790,5,10,0:0:0:0:
31,153,173109,2,0,P|83:137|159:142,1,99.9999999999999,10|10,0:0|0:0,0:0:0:0:
216,145,173747,1,8,0:0:0:0:
287,200,174067,6,0,P|364:217|292:113,1,300,2|0,0:0|0:0,0:0:0:0:
216,145,175343,6,0,B|93:186|126:103|-15:168,1,200,6|2,0:0|0:0,0:0:0:0:
71,227,176301,1,8,0:0:0:0:
154,260,176620,2,0,L|264:258,1,99.9999999999999,2|8,0:0|0:0,0:0:0:0:
335,221,177258,2,0,P|339:165|327:120,1,99.9999999999999,2|8,0:0|0:0,0:0:0:0:
245,88,177896,6,0,B|184:81|184:81|110:104|110:104|32:91,2,200,2|2|2,0:0|0:0|0:0,0:0:0:0:
328,122,179492,2,0,P|339:170|334:220,1,99.9999999999999,8|2,0:0|0:0,0:0:0:0:
225,300,180290,6,0,B|105:339|145:258|-2:324,1,200,2|2,0:0|0:0,0:0:0:0:
10,223,181247,1,2,0:0:0:0:
76,162,181567,2,0,P|128:147|197:172,1,99.9999999999999,2|2,0:0|0:0,0:0:0:0:
257,182,182205,2,0,L|253:23,1,150,2|8,0:0|0:0,0:0:0:0:
168,56,183003,6,0,L|172:164,1,99.9999999999999,2|8,0:0|0:0,0:0:0:0:
127,241,183641,2,0,P|70:251|21:238,1,99.9999999999999,2|8,0:0|0:0,0:0:0:0:
77,165,184279,6,0,B|173:129|258:183|258:183|324:191|414:147|414:147|469:190,1,400,2|6,0:0|0:0,0:0:0:0:
384,150,195769,6,0,L|390:264,2,99.9999999999999,6|8|2,0:0|0:0|0:0,0:0:0:0:
314,93,196726,1,8,0:0:0:0:
235,136,197045,2,0,L|118:133,1,99.9999999999999,2|8,0:0|0:0,0:0:0:0:
65,190,197684,2,0,P|55:240|63:292,1,99.9999999999999,2|8,0:0|0:0,0:0:0:0:
145,319,198322,6,0,L|391:308,1,200,2|2,0:0|0:0,0:0:0:0:
406,244,199279,1,8,0:0:0:0:
342,180,199598,2,0,P|287:175|239:183,1,99.9999999999999,2|8,0:0|0:0,0:0:0:0:
166,229,200237,2,0,P|105:236|61:227,1,99.9999999999999,8|2,0:0|0:0,0:0:0:0:
40,143,200875,6,0,L|49:354,2,200,2|2|2,0:0|0:0|0:0,0:0:0:0:
98,74,202471,1,8,0:0:0:0:
169,128,202790,2,0,P|226:133|274:120,1,99.9999999999999,2|8,0:0|0:0,0:0:0:0:
321,51,203428,6,0,B|305:108|305:108|324:258,1,200,2|2,0:0|0:0,0:0:0:0:
371,323,204386,1,8,0:0:0:0:
286,352,204705,2,0,P|231:358|175:349,1,99.9999999999999,2|8,0:0|0:0,0:0:0:0:
143,273,205343,2,0,P|165:214|94:107,1,200,6|6,0:0|0:0,0:0:0:0:
27,166,206301,6,0,L|32:279,2,99.9999999999999,2|2|10,0:0|0:0|0:0,0:0:0:0:
95,107,207258,2,0,P|146:100|204:106,1,99.9999999999999,2|2,0:0|0:0,0:0:0:0:
261,163,207896,2,0,P|316:168|367:159,1,99.9999999999999,2|10,0:0|0:0,0:0:0:0:
435,113,208535,6,0,L|428:8,2,99.9999999999999,2|2|2,0:0|0:0|0:0,0:0:0:0:
359,162,209492,1,10,0:0:0:0:
292,101,209811,2,0,L|188:99,1,99.9999999999999,2|2,0:0|0:0,0:0:0:0:
114,145,210450,2,0,P|104:193|112:250,1,99.9999999999999,2|10,0:0|0:0,0:0:0:0:
176,303,211088,6,0,B|211:308|211:308|256:297|256:297|309:323|372:300,1,200,6|2,0:0|0:0,0:0:0:0:
318,175,212205,2,0,P|261:158|167:187,1,150,2|2,0:0|0:0,0:0:0:0:
110,118,213003,2,0,L|107:16,1,99.9999999999999,2|8,0:0|0:0,0:0:0:0:
21,44,213641,6,0,L|26:253,1,200,2|10,0:0|0:0,0:0:0:0:
150,294,214758,2,0,B|202:306|202:306|249:294,1,99.9999999999999,8|10,0:0|0:0,0:0:0:0:
318,239,215396,2,0,B|365:221|365:221|422:237,1,99.9999999999999,6|2,0:0|0:0,0:0:0:0:
476,298,216035,5,6,0:0:0:0:
