osu file format v14

[General]
AudioFilename: audio.mp3
AudioLeadIn: 0
PreviewTime: 112551
Countdown: 0
SampleSet: None
StackLeniency: 0.5
Mode: 0
LetterboxInBreaks: 0
WidescreenStoryboard: 0

[Editor]
DistanceSpacing: 1.2
BeatDivisor: 4
GridSize: 4
TimelineZoom: 1.4

[Metadata]
Title:Uso no Hibana
TitleUnicode:嘘の火花
Artist:96neko
ArtistUnicode:96猫
Creator:Yasaija 714
Version:117's Hard
Source:クズの本懐
Tags:kuzu no honkai opening full size Akanya Regraz DreaM117er _kotachi_ SnowNiNo_
BeatmapID:1240054
BeatmapSetID:569503

[Difficulty]
HPDrainRate:5
CircleSize:4
OverallDifficulty:6
ApproachRate:8
SliderMultiplier:1.5
SliderTickRate:1

[Events]
//Background and Video events
0,0,"BG.jpg",0,0
//Break Periods
2,59373,63529
2,87458,91614
2,135969,140125
2,165330,172040
2,188309,192465
//Storyboard Layer 0 (Background)
//Storyboard Layer 1 (Fail)
//Storyboard Layer 2 (Pass)
//Storyboard Layer 3 (Foreground)
//Storyboard Sound Samples

[TimingPoints]
450,319.148936170213,4,3,17,50,1,0
450,-133.333333333333,4,3,17,50,0,0
4120,-100,4,3,17,60,0,0
5556,-100,4,3,17,70,0,0
15769,-133.333333333333,4,3,17,40,0,0
24705,-111.111111111111,4,3,17,50,0,0
25981,-100,4,3,17,60,0,0
36194,-100,4,3,17,70,0,1
45130,-100,4,3,17,70,0,0
46407,-100,4,3,17,70,0,1
56620,-100,4,3,17,70,0,0
56700,-100,4,3,17,40,0,0
64279,-100,4,3,17,50,0,0
66832,-100,4,3,17,60,0,0
75769,-100,4,3,17,50,0,0
87258,-100,4,3,17,40,0,0
92364,-100,4,3,17,50,0,0
102577,-100,4,3,17,60,0,0
112790,-100,4,3,17,70,0,1
121726,-100,4,3,17,70,0,0
123003,-100,4,3,17,70,0,1
133215,-100,4,3,17,70,0,0
133295,-100,4,3,17,40,0,0
140875,-100,4,3,17,50,0,0
143428,-100,4,3,17,70,0,0
172790,-100,4,3,17,50,0,0
174067,-200,4,3,17,50,0,0
175343,-100,4,3,17,70,0,1
185556,-100,4,3,17,70,0,0
185636,-100,4,3,17,40,0,0
193215,-100,4,3,17,50,0,0
195769,-100,4,3,17,70,0,0
205981,-100,4,3,17,50,0,0
215396,-100,4,2,1,50,0,0
215875,-100,4,2,17,50,0,0

[Colours]
Combo1 : 255,255,121
Combo2 : 247,185,255
Combo3 : 255,185,185
Combo4 : 166,166,255

[HitObjects]
82,264,450,5,4,0:2:0:0:
84,157,2524,6,0,L|74:80,2,56.2500021457673,8|8|8,0:0|0:0|0:0,0:0:0:0:
97,246,3003,1,4,0:1:0:0:
113,227,4120,6,0,L|120:181,2,37.5,0|0|0,2:0|2:0|2:0,0:0:0:0:
98,316,4439,2,0,P|142:305|191:298,1,75,2|0,0:0|2:0,0:0:0:0:
254,264,4758,1,0,2:0:0:0:
254,264,4838,1,0,2:0:0:0:
254,264,4918,1,0,2:0:0:0:
329,312,5077,2,0,L|336:350,2,37.5,2|2|2,2:0|2:0|2:0,0:0:0:0:
392,248,5396,1,2,2:0:0:0:
392,248,5476,1,2,2:0:0:0:
392,248,5556,6,0,P|381:194|375:155,1,75,4|0,0:1|0:0,0:0:0:0:
412,91,5875,1,0,2:0:0:0:
412,91,6035,1,0,0:0:0:0:
352,158,6194,2,0,P|290:171|216:113,1,150,0|0,0:0|2:0,0:0:0:0:
191,39,6673,1,0,0:0:0:0:
134,108,6832,6,0,P|96:113|60:121,1,75
60,121,7152,1,0,2:0:0:0:
208,223,7471,2,0,P|170:228|134:236,1,75
134,236,7790,1,0,2:0:0:0:
280,340,8109,6,0,P|242:345|206:353,2,75,0|0|0,0:0|0:0|2:0,0:0:0:0:
351,284,8588,1,0,0:0:0:0:
351,284,8747,2,0,P|409:292|476:225,1,150,0|0,0:0|2:0,0:0:0:0:
441,150,9226,1,0,0:0:0:0:
354,123,9386,6,0,P|355:179|369:206,1,75
268,93,9705,2,0,P|267:37|253:10,1,75,0|0,2:0|0:0,0:0:0:0:
211,191,10024,2,0,P|212:247|226:274,2,75,0|0|0,0:0|0:0|2:0,0:0:0:0:
178,106,10503,1,0,0:0:0:0:
121,175,10662,6,0,P|82:170|21:157,1,75
1,85,10981,1,0,2:0:0:0:
1,85,11141,1,0,0:0:0:0:
26,170,11301,2,0,P|39:222|54:324,1,150,0|0,0:0|2:0,0:0:0:0:
132,358,11779,1,0,0:0:0:0:
215,324,11939,6,0,P|255:319|304:302,1,75
288,308,12258,1,0,2:0:0:0:
439,211,12577,2,0,P|399:206|350:189,1,75
366,196,12896,1,0,2:0:0:0:
222,87,13215,6,0,P|267:139|260:230,1,150,0|0,0:0|2:0,0:0:0:0:
203,281,13694,1,0,0:0:0:0:
203,281,13854,2,0,P|136:272|30:258,1,150,0|0,0:0|2:0,0:0:0:0:
12,183,14332,1,0,0:0:0:0:
68,112,14492,6,0,B|91:95|114:87|114:87|171:95|220:134,1,150,0|0,0:0|2:0,0:0:0:0:
262,190,14971,1,2,0:0:0:0:
293,105,15130,1,0,2:0:0:0:
203,122,15290,1,2,0:0:0:0:
174,207,15450,2,0,L|182:257,3,37.5,2|2|2|2,2:0|2:0|2:0|2:0,0:0:0:0:
186,288,15769,6,0,P|234:273|328:359,1,168.750006437302,4|4,0:0|0:0,0:0:0:0:
493,68,17045,2,0,L|364:90,1,112.500004291535,4|0,0:0|0:0,0:0:0:0:
382,86,17524,1,4,0:0:0:0:
55,207,18322,6,0,B|88:233|134:243|134:243|166:230|211:193,1,168.750006437302,4|4,0:0|0:0,0:0:0:0:
308,24,19598,2,0,L|294:154,1,112.500004291535,4|0,0:0|0:0,0:0:0:0:
295,135,20077,1,4,0:0:0:0:
342,337,20396,2,0,L|401:326,2,56.2500021457673
257,304,20875,6,0,P|207:359|104:323,1,168.750006437302,4|4,0:0|0:0,0:0:0:0:
21,82,22152,2,0,L|151:100,1,112.500004291535,4|0,0:0|0:0,0:0:0:0:
132,97,22630,1,4,0:0:0:0:
458,158,23428,6,0,P|402:157|357:189,1,112.500004291535,4|0,0:0|0:0,0:0:0:0:
315,269,23907,1,4,0:0:0:0:
315,269,24226,2,0,L|329:347,2,56.2500021457673
218,219,24705,5,0,2:0:0:0:
218,219,24785,1,0,2:0:0:0:
218,219,24864,2,0,L|231:295,1,67.4999979400635,0|0,2:0|0:0,0:0:0:0:
155,374,25184,1,0,2:0:0:0:
155,374,25263,1,0,2:0:0:0:
155,374,25343,2,0,L|141:297,1,67.4999979400635,0|0,2:0|0:0,0:0:0:0:
81,244,25662,2,0,L|74:203,3,33.7499989700318,0|0|4|0,2:0|2:0|2:1|2:0,0:0:0:0:
67,166,25981,6,0,P|145:175|198:111,1,150,4|0,0:3|2:0,0:0:0:0:
220,42,26460,1,0,0:0:0:0:
290,98,26620,2,0,P|281:167|271:263,1,150,0|0,0:0|2:0,0:0:0:0:
260,335,27098,1,0,0:0:0:0:
188,280,27258,6,0,P|179:231|178:186,2,75,0|0|0,0:0|0:0|2:0,0:0:0:0:
155,364,27737,1,0,0:0:0:0:
155,364,27896,2,0,P|105:348|72:348,1,75
5,300,28215,2,0,P|12:260|19:221,1,75,0|0,2:0|0:0,0:0:0:0:
0,131,28535,6,0,P|36:126|85:116,1,75
152,167,28854,1,0,2:0:0:0:
152,167,29013,2,0,P|220:179|313:190,1,150
386,214,29492,1,0,2:0:0:0:
373,125,29652,6,0,P|426:120|461:113,1,75
357,38,29971,2,0,P|304:33|269:26,1,75,0|0,0:0|2:0,0:0:0:0:
248,112,30290,2,0,P|184:157|87:131,1,150
41,98,30769,1,0,2:0:0:0:
41,98,30928,1,0,0:0:0:0:
10,183,31088,6,0,P|21:255|37:351,1,150,0|0,0:0|2:0,0:0:0:0:
122,351,31567,2,0,P|158:329|268:320,1,150
332,261,32045,2,0,P|375:279|411:282,1,75,0|0,2:0|0:0,0:0:0:0:
463,179,32364,6,0,P|426:185|390:192,1,75
301,173,32684,1,0,2:0:0:0:
284,84,32843,2,0,P|289:43|307:2,1,75
301,173,33162,2,0,P|236:162|200:153,2,75,0|0|0,0:0|2:0|0:0,0:0:0:0:
326,264,33641,6,0,P|381:244|488:238,2,150,0|0|0,0:0|2:0|0:0,0:0:0:0:
241,296,34439,1,0,0:0:0:0:
241,296,34598,2,0,P|202:290|166:281,1,75,0|0,2:0|0:0,0:0:0:0:
91,230,34918,5,4,0:3:0:0:
91,230,36194,6,0,P|53:180|78:81,1,150,4|0,0:1|2:0,0:0:0:0:
133,40,36673,1,0,0:0:0:0:
214,78,36832,2,0,P|252:70|303:62,2,75,0|0|0,0:0|0:0|2:0,0:0:0:0:
174,178,37311,1,0,0:0:0:0:
174,178,37471,6,0,P|247:164|321:150,2,150,0|0|0,0:0|2:0|0:0,0:0:0:0:
94,221,38269,1,0,0:0:0:0:
34,288,38428,2,0,P|83:310|121:304,1,75,0|0,2:0|0:0,0:0:0:0:
180,353,38747,6,0,P|241:320|346:335,1,150,0|0,0:0|2:0,0:0:0:0:
393,271,39226,1,0,0:0:0:0:
477,301,39386,2,0,P|483:346|487:382,2,75,0|0|0,0:0|0:0|2:0,0:0:0:0:
457,213,39864,1,0,0:0:0:0:
398,144,40024,6,0,P|446:124|481:127,2,75,0|0|0,0:0|0:0|2:0,0:0:0:0:
343,215,40503,1,0,0:0:0:0:
299,136,40662,1,0,0:0:0:0:
299,136,40822,2,0,P|287:81|282:48,1,75,0|0,0:0|2:0,0:0:0:0:
181,86,41141,6,0,L|216:262,1,150,2|0,0:0|0:0,0:0:0:0:
223,322,41620,1,0,2:0:0:0:
189,238,41779,6,0,L|158:91,1,150,2|0,0:0|0:0,0:0:0:0:
120,9,42258,1,0,2:0:0:0:
134,99,42418,6,0,L|169:275,1,150,2|0,0:0|0:0,0:0:0:0:
180,334,42896,1,0,2:0:0:0:
138,257,43056,6,0,P|124:183|107:110,1,150,2|2,0:0|0:0,0:0:0:0:
80,23,43535,1,0,2:0:0:0:
20,90,43694,1,2,0:0:0:0:
46,176,43854,6,0,P|100:199|126:197,1,75,2|0,0:0|0:0,0:0:0:0:
194,134,44173,2,0,P|231:127|269:122,1,75,2|0,2:0|0:0,0:0:0:0:
357,106,44492,2,0,P|338:158|325:273,1,150,0|2,0:0|2:0,0:0:0:0:
363,332,44971,1,0,0:0:0:0:
282,370,45130,6,0,L|189:359,1,75,4|0,0:3|2:0,0:0:0:0:
207,361,45370,1,0,2:0:0:0:
207,361,45450,1,0,2:0:0:0:
130,273,45609,2,0,P|185:277|233:249,1,112.5,0|0,2:0|2:0,0:0:0:0:
258,212,45928,1,0,2:0:0:0:
237,124,46088,2,0,L|187:115,2,37.5,0|0|0,2:0|2:0|2:0,0:0:0:0:
341,59,46407,6,0,P|400:51|496:35,1,150,4|0,0:1|2:0,0:0:0:0:
509,124,46886,1,0,0:0:0:0:
509,124,47045,2,0,P|499:175|494:217,1,75
407,181,47364,2,0,P|412:218|426:262,1,75,0|0,2:0|0:0,0:0:0:0:
390,341,47684,6,0,P|450:351|484:359,2,75,0|0|0,0:0|0:0|2:0,0:0:0:0:
310,300,48162,1,0,0:0:0:0:
310,300,48322,2,0,P|266:345|181:340,1,150,0|0,0:0|2:0,0:0:0:0:
114,283,48801,1,0,0:0:0:0:
29,313,48960,6,0,L|13:220,1,75
93,191,49279,2,0,L|77:98,1,75,0|0,2:0|0:0,0:0:0:0:
190,211,49598,2,0,L|174:118,2,75,0|0|0,0:0|0:0|2:0,0:0:0:0:
206,299,50077,1,0,0:0:0:0:
288,263,50237,6,0,P|296:193|316:89,1,150,0|0,0:0|2:0,0:0:0:0:
281,29,50715,1,0,0:0:0:0:
336,100,50875,2,0,P|392:84|419:81,1,75
488,124,51194,1,0,2:0:0:0:
452,208,51354,6,0,P|418:247|319:245,1,150,2|0,0:0|0:0,0:0:0:0:
255,192,51832,1,0,2:0:0:0:
339,160,51992,6,0,L|316:323,1,150,2|0,0:0|0:0,0:0:0:0:
256,376,52471,1,0,2:0:0:0:
193,308,52630,6,0,L|173:160,1,150,2|0,0:0|0:0,0:0:0:0:
209,76,53109,1,0,2:0:0:0:
209,76,53269,6,0,P|185:113|74:118,1,150,2|2,0:0|0:0,0:0:0:0:
11,174,53747,2,0,P|2:123|-1:90,1,75,0|2,2:0|0:0,0:0:0:0:
87,126,54067,5,4,0:3:0:0:
94,216,54226,1,0,2:0:0:0:
94,216,54306,1,0,2:0:0:0:
94,216,54386,2,0,L|81:308,1,75,0|0,2:0|0:0,0:0:0:0:
168,378,54705,1,0,2:0:0:0:
168,378,54785,1,0,2:0:0:0:
168,378,54864,2,0,L|181:286,1,75,0|0,2:0|0:0,0:0:0:0:
283,239,55184,1,0,2:0:0:0:
283,239,55263,1,0,2:0:0:0:
283,239,55343,6,0,L|270:331,1,75,0|8,2:0|0:0,0:0:0:0:
361,375,55662,2,0,L|367:326,3,37.5,0|0|0|0,2:0|2:0|2:0|2:0,0:0:0:0:
403,312,55981,2,0,L|392:254,3,37.5,0|0|0|0,2:0|2:0|2:0|2:0,0:0:0:0:
434,250,56301,2,0,L|441:203,3,37.5,0|0|0|0,2:0|2:0|2:0|2:0,0:0:0:0:
446,168,56620,5,4,0:1:0:0:
256,192,56700,12,4,59173,0:0:0:0:
322,295,64279,6,0,P|357:333|470:326,1,150,4|0,0:0|0:0,0:0:0:0:
491,225,64758,2,0,P|456:187|343:194,1,150,4|0,0:0|0:0,0:0:0:0:
237,242,65237,2,0,P|274:248|311:256,1,75,4|0,0:0|0:0,0:0:0:0:
246,150,65556,5,4,0:0:0:0:
163,184,65715,2,0,P|126:191|89:197,2,75,4|4|4,0:0|0:0|0:0,0:0:0:0:
303,90,66194,2,0,P|270:72|233:70,1,75,4|0,0:0|0:0,0:0:0:0:
149,36,66513,2,0,L|92:46,3,37.5,2|2|2|2,2:0|2:0|2:0|2:0,0:0:0:0:
69,56,66832,6,0,P|59:102|54:143,1,75,4|0,0:1|0:0,0:0:0:0:
5,211,67152,2,0,P|15:257|20:298,1,75,0|0,2:0|0:0,0:0:0:0:
25,374,67471,2,0,P|85:333|160:338,1,150,0|0,0:0|2:0,0:0:0:0:
216,268,67950,1,0,0:0:0:0:
323,359,68109,6,0,P|285:358|249:351,1,75
248,350,68428,1,0,2:0:0:0:
73,195,68747,2,0,P|110:195|147:203,1,75
147,203,69067,1,0,2:0:0:0:
329,133,69386,6,0,P|322:79|315:51,1,75
224,25,69705,2,0,P|228:62|236:99,1,75,0|0,2:0|0:0,0:0:0:0:
197,180,70024,2,0,P|191:246|176:353,1,150,0|0,0:0|2:0,0:0:0:0:
179,328,70503,1,0,0:0:0:0:
103,376,70662,6,0,L|20:364,1,75
97,281,70981,2,0,L|14:269,1,75,0|0,2:0|0:0,0:0:0:0:
179,328,71301,2,0,L|262:316,1,75
185,233,71620,2,0,L|268:221,1,75,0|0,2:0|0:0,0:0:0:0:
343,273,71939,5,0,0:0:0:0:
343,273,72098,1,0,0:0:0:0:
425,235,72258,2,0,P|441:183|437:152,1,75,0|0,2:0|0:0,0:0:0:0:
339,118,72577,2,0,P|305:183|319:255,1,150,0|0,0:0|2:0,0:0:0:0:
372,328,73056,1,0,0:0:0:0:
372,328,73215,6,0,L|463:312,1,75
319,255,73535,1,0,2:0:0:0:
137,216,73854,2,0,L|46:200,1,75
185,291,74173,1,0,2:0:0:0:
371,27,74492,6,0,P|299:26|246:77,1,150,0|0,0:0|2:0,0:0:0:0:
217,163,74971,1,0,0:0:0:0:
217,163,75130,2,0,P|228:218|239:255,1,75
186,338,75450,2,0,P|223:328|260:322,1,75,0|0,2:0|0:0,0:0:0:0:
362,369,75769,2,0,P|355:332|346:296,1,75
322,208,76088,5,0,2:0:0:0:
322,208,76247,1,0,0:0:0:0:
420,156,76407,2,0,P|420:193|409:229,1,75,0|0,2:0|0:0,0:0:0:0:
251,192,76726,2,0,P|288:191|322:208,1,75,0|0,2:0|0:0,0:0:0:0:
433,314,77045,5,4,0:1:0:0:
340,121,77364,1,2,0:0:0:0:
345,295,77684,1,0,0:0:0:0:
431,146,78003,1,4,0:0:0:0:
261,222,78322,5,0,0:0:0:0:
206,50,78641,1,2,0:0:0:0:
347,202,78960,1,0,0:0:0:0:
157,323,79279,1,4,0:0:0:0:
157,323,79598,6,0,P|100:331|0:349,2,150,0|2|0,0:0|0:0|0:0,0:0:0:0:
157,323,80556,1,4,0:0:0:0:
355,243,80875,2,0,P|280:232|206:218,1,150,0|2,0:0|0:0,0:0:0:0:
69,66,81513,2,0,P|104:102|111:205,1,150,0|4,0:0|0:0,0:0:0:0:
285,351,82152,6,0,L|275:277,1,75
370,306,82471,2,0,L|359:231,1,75,2|0,0:0|0:0,0:0:0:0:
458,265,82790,2,0,L|447:190,1,75
432,86,83109,1,4,0:0:0:0:
432,86,83428,6,0,P|371:96|351:102,1,75
298,200,83747,2,0,P|237:190|217:184,1,75,2|0,0:0|0:0,0:0:0:0:
191,73,84067,2,0,P|130:83|110:89,1,75
18,133,84386,1,4,0:0:0:0:
18,133,84705,6,0,P|35:190|52:295,1,150,0|4,0:0|0:0,0:0:0:0:
56,369,85184,1,0,0:0:0:0:
141,341,85343,2,0,P|148:298|156:252,1,75,4|4,0:0|0:0,0:0:0:0:
185,182,85662,1,4,0:0:0:0:
185,182,85822,6,0,P|243:237|323:217,1,150,4|0,0:0|0:0,0:0:0:0:
385,183,86301,1,0,2:0:0:0:
371,94,86460,1,0,2:0:0:0:
371,94,86540,1,0,2:0:0:0:
371,94,86620,2,0,L|356:-7,2,75,0|8|4,2:0|0:0|0:0,0:0:0:0:
385,183,87098,1,4,0:0:0:0:
403,271,87258,5,4,0:2:0:0:
60,131,92364,5,4,0:2:0:0:
60,131,92684,2,0,P|119:143|211:157,1,150,0|0,2:0|0:0,0:0:0:0:
270,220,93162,1,0,0:0:0:0:
270,220,93322,1,0,2:0:0:0:
335,281,93481,6,0,B|390:276|444:265|444:265|462:246|484:207,1,150,2|2,0:0|0:0,0:0:0:0:
499,148,93960,2,0,P|458:128|413:133,1,75,0|0,2:0|0:0,0:0:0:0:
346,162,94279,2,0,P|336:123|330:70,2,75,0|0|0,0:0|0:0|2:0,0:0:0:0:
377,246,94758,1,0,0:0:0:0:
286,309,94918,6,0,P|272:235|253:162,1,150,2|0,0:0|2:0,0:0:0:0:
224,77,95396,1,0,0:0:0:0:
146,123,95556,2,0,P|93:133|13:66,1,150,0|0,0:0|2:0,0:0:0:0:
101,45,96035,6,0,P|92:124|82:213,1,150,2|2,0:0|0:0,0:0:0:0:
32,267,96513,2,0,P|69:272|104:283,1,75,0|0,2:0|0:0,0:0:0:0:
162,352,96832,2,0,P|126:363|89:368,2,75,2|0|0,0:0|0:0|2:0,0:0:0:0:
242,312,97311,1,2,0:0:0:0:
241,311,97471,6,0,P|296:359|370:351,1,150,0|0,0:0|2:0,0:0:0:0:
437,292,97950,1,0,0:0:0:0:
389,215,98109,2,0,L|298:232,2,75,0|0|0,0:0|0:0|2:0,0:0:0:0:
427,133,98588,6,0,P|381:128|270:109,1,150,2|2,0:0|0:0,0:0:0:0:
209,52,99067,2,0,P|191:91|191:136,1,75,0|0,2:0|0:0,0:0:0:0:
226,204,99386,1,0,0:0:0:0:
226,204,99545,1,0,0:0:0:0:
149,252,99705,2,0,P|112:259|75:265,1,75,0|0,2:0|0:0,0:0:0:0:
37,363,100024,6,0,P|117:348|201:332,1,150,2|0,0:0|2:0,0:0:0:0:
272,313,100503,2,0,P|304:328|347:323,1,75,2|0,0:0|0:0,0:0:0:0:
429,301,100822,1,0,0:0:0:0:
365,237,100981,2,0,P|357:199|350:155,1,75,2|0,2:0|0:0,0:0:0:0:
258,179,101301,6,0,P|264:144|273:97,1,75,4|0,0:0|0:0,0:0:0:0:
246,19,101620,1,4,0:0:0:0:
166,60,101779,2,0,L|174:113,2,37.5,0|0|0,2:0|2:0|2:0,0:0:0:0:
85,18,102098,1,0,0:0:0:0:
52,102,102258,2,0,L|63:158,3,37.5,0|0|0|0,2:0|2:0|2:0|2:0,0:0:0:0:
67,183,102577,6,0,P|146:177|209:239,1,150,4|0,0:1|2:0,0:0:0:0:
237,300,103056,1,0,0:0:0:0:
237,300,103215,2,0,P|279:293|324:287,2,75,0|0|0,0:0|0:0|2:0,0:0:0:0:
155,339,103694,1,0,0:0:0:0:
117,256,103854,6,0,P|123:194|135:94,1,150,0|0,0:0|2:0,0:0:0:0:
148,18,104332,1,0,0:0:0:0:
148,18,104492,2,0,P|186:39|230:34,1,75
293,85,104811,1,0,2:0:0:0:
293,85,104971,1,0,0:0:0:0:
369,131,105130,6,0,P|400:111|437:110,1,75
500,176,105450,2,0,P|468:195|431:196,1,75,0|0,2:0|0:0,0:0:0:0:
343,218,105769,2,0,P|305:212|268:205,2,75,0|0|0,0:0|0:0|2:0,0:0:0:0:
405,281,106247,1,0,0:0:0:0:
346,350,106407,5,2,0:0:0:0:
346,350,106567,2,0,P|281:339|191:324,1,150,2|2,0:0|0:0,0:0:0:0:
111,350,107045,2,0,P|113:294|123:273,1,75
184,214,107364,1,2,2:0:0:0:
184,214,107524,1,0,0:0:0:0:
124,146,107684,6,0,B|82:163|49:164|49:164|19:143|-7:95,1,150,2|0,0:0|2:0,0:0:0:0:
11,20,108162,2,0,P|48:14|85:9,1,75,2|0,0:0|0:0,0:0:0:0:
157,64,108481,1,0,0:0:0:0:
157,64,108641,2,0,P|194:58|231:53,1,75,0|0,2:0|0:0,0:0:0:0:
320,42,108960,6,0,P|306:117|295:189,1,150,0|0,0:0|2:0,0:0:0:0:
275,277,109439,1,0,0:0:0:0:
259,365,109598,2,0,P|199:322|125:327,1,150,0|0,0:0|2:0,0:0:0:0:
51,378,110077,1,0,0:0:0:0:
19,293,110237,6,0,P|10:229|-2:137,2,150,0|0|0,0:0|2:0|0:0,0:0:0:0:
125,327,111035,1,0,0:0:0:0:
125,327,111194,2,0,L|114:244,1,75,0|0,2:0|0:0,0:0:0:0:
102,154,111513,5,4,0:0:0:0:
102,154,112790,6,0,P|150:197|243:180,2,150,4|0|0,0:1|2:0|0:0,0:0:0:0:
44,84,113588,1,0,0:0:0:0:
44,84,113747,2,0,P|91:64|127:67,1,75,0|0,2:0|0:0,0:0:0:0:
186,9,114067,6,0,P|206:56|203:92,1,75
281,169,114386,2,0,P|286:132|294:96,1,75,0|0,2:0|0:0,0:0:0:0:
399,45,114705,1,0,0:0:0:0:
399,45,114864,2,0,P|394:82|386:118,1,75,0|0,0:0|2:0,0:0:0:0:
367,208,115184,1,0,0:0:0:0:
367,208,115343,6,0,P|415:167|512:183,2,150,0|0|0,0:0|2:0|0:0,0:0:0:0:
334,292,116141,1,0,0:0:0:0:
334,292,116301,2,0,P|287:285|258:280,1,75,0|0,2:0|0:0,0:0:0:0:
174,308,116620,6,0,P|186:237|198:156,1,150,0|0,0:0|2:0,0:0:0:0:
163,76,117098,1,0,0:0:0:0:
77,103,117258,2,0,P|33:149|41:242,1,150,0|0,0:0|2:0,0:0:0:0:
97,296,117737,6,0,L|256:275,1,150,2|0,0:0|0:0,0:0:0:0:
333,257,118215,1,0,2:0:0:0:
242,252,118375,6,0,L|93:271,1,150,2|0,0:0|0:0,0:0:0:0:
3,271,118854,1,0,2:0:0:0:
91,245,119013,6,0,L|250:224,1,150,2|0,0:0|0:0,0:0:0:0:
328,210,119492,1,0,2:0:0:0:
237,202,119652,6,0,L|88:221,1,150,2|2,0:0|0:0,0:0:0:0:
10,176,120130,1,0,2:0:0:0:
10,176,120290,1,2,0:0:0:0:
47,93,120450,6,0,P|81:71|125:69,1,75,2|0,0:0|0:0,2:0:0:0:
204,74,120769,2,0,P|239:84|266:109,1,75,0|0,2:0|0:0,2:0:0:0:
309,189,121088,2,0,L|456:157,1,150,0|0,0:0|2:0,0:0:0:0:
475,245,121567,1,0,0:0:0:0:
475,245,121726,6,0,L|325:276,1,150,4|0,0:0|2:0,0:0:0:0:
218,210,122205,2,0,P|175:179|109:183,1,112.5,0|0,2:0|2:0,0:0:0:0:
78,201,122524,1,0,2:0:0:0:
36,280,122684,2,0,L|44:324,3,37.5,0|0|0|0,2:0|2:0|2:0|2:0,0:0:0:0:
53,360,123003,6,0,B|91:374|109:376|109:376|154:363|217:334,1,150,4|0,0:1|2:0,0:0:0:0:
284,345,123481,1,0,0:0:0:0:
241,265,123641,2,0,P|230:234|215:167,2,75,0|0|0,0:0|0:0|2:0,0:0:0:0:
284,345,124120,1,0,0:0:0:0:
349,283,124279,6,0,P|404:254|490:259,2,150,0|0|0,0:0|2:0|0:0,0:0:0:0:
274,232,125077,2,0,P|255:181|262:140,1,75,0|0,0:0|2:0,0:0:0:0:
278,73,125396,1,0,0:0:0:0:
353,22,125556,6,0,L|467:40,1,112.5
503,57,125875,2,0,P|499:100|492:144,1,75,0|0,2:0|0:0,0:0:0:0:
430,197,126194,1,0,0:0:0:0:
430,197,126354,1,0,0:0:0:0:
347,161,126513,1,0,2:0:0:0:
347,161,126673,1,0,0:0:0:0:
270,207,126832,6,0,P|226:215|143:138,1,150,0|0,0:0|2:0,0:0:0:0:
129,66,127311,1,0,0:0:0:0:
129,66,127471,2,0,L|33:80,2,75,0|0|0,0:0|0:0|2:0,0:0:0:0:
205,18,127950,6,0,P|239:55|351:54,1,150,2|0,0:0|0:0,0:0:0:0:
417,30,128428,1,0,2:0:0:0:
348,85,128588,6,0,P|311:119|312:231,1,150,2|0,0:0|0:0,0:0:0:0:
336,297,129067,1,0,2:0:0:0:
281,228,129226,6,0,P|247:191|135:192,1,150,2|0,0:0|0:0,0:0:0:0:
76,229,129705,1,0,2:0:0:0:
76,229,129864,6,0,P|65:150|54:67,1,150,2|2,0:0|0:0,0:0:0:0:
175,19,130343,2,0,P|170:56|164:93,1,75,0|2,2:0|0:0,0:0:0:0:
152,182,130662,5,4,0:0:0:0:
236,150,130822,1,0,2:0:0:0:
236,150,130902,1,0,2:0:0:0:
236,150,130981,2,0,P|285:142|320:134,1,75,0|0,2:0|0:0,0:0:0:0:
398,207,131301,2,0,L|382:266,2,37.5,0|0|0,2:0|2:0|2:0,0:0:0:0:
488,162,131620,2,0,L|470:49,1,112.5,0|0,2:0|0:0,0:0:0:0:
464,6,131939,6,0,P|415:14|380:22,1,75,4|4,0:0|0:0,0:0:0:0:
329,110,132258,2,0,L|337:146,2,37.5,4|4|4,0:0|0:0|0:0,0:0:0:0:
244,44,132577,2,0,L|187:33,3,37.5,0|0|0|0,2:0|2:0|2:0|2:0,0:0:0:0:
209,81,132896,2,0,L|159:91,3,37.5,0|0|0|0,2:0|2:0|2:0|2:0,0:0:0:0:
132,66,133215,5,4,0:1:0:0:
256,192,133295,12,4,135769,0:0:0:0:
58,348,140875,6,0,P|133:338|230:318,1,150,4|0,0:0|0:0,0:0:0:0:
232,179,141354,2,0,P|186:223|197:313,1,150,4|0,0:0|0:0,0:0:0:0:
307,374,141832,2,0,P|353:330|342:240,1,150,4|4,0:0|0:0,0:0:0:0:
263,173,142311,6,0,P|272:123|277:92,1,75,4|4,0:0|0:0,0:0:0:0:
385,58,142630,1,4,0:0:0:0:
385,58,142790,2,0,P|376:108|371:139,1,75,4|0,0:0|0:0,0:0:0:0:
348,248,143109,2,0,L|309:241,3,37.5,2|2|2|2,2:0|2:0|2:0|2:0,0:0:0:0:
292,282,143428,6,0,P|231:290|127:311,2,150,4|0|0,0:1|2:0|0:0,0:0:0:0:
368,332,144226,1,2,0:0:0:0:
448,291,144386,2,0,P|466:238|459:208,1,75,0|2,2:0|0:0,0:0:0:0:
407,149,144705,6,0,P|370:143|323:136,2,75,0|0|0,0:0|0:0|2:0,0:0:0:0:
364,234,145184,1,0,0:0:0:0:
280,207,145343,2,0,P|290:143|304:32,1,150,2|2,0:0|2:0,0:0:0:0:
218,21,145822,1,0,0:0:0:0:
166,94,145981,5,0,0:0:0:0:
80,66,146141,1,0,0:0:0:0:
156,114,146301,2,0,P|162:148|171:203,1,75,0|0,2:0|0:0,0:0:0:0:
128,268,146620,2,0,P|61:268|7:341,1,150,2|2,0:0|2:0,0:0:0:0:
96,350,147098,1,0,0:0:0:0:
185,342,147258,6,0,P|221:335|287:322,1,75
338,284,147577,2,0,B|400:299|439:303|439:303|466:287|486:263,2,150,2|2|2,2:0|0:0|2:0,0:0:0:0:
259,239,148375,1,0,0:0:0:0:
259,239,148455,1,0,0:0:0:0:
259,239,148535,6,0,L|271:153,1,75
189,87,148854,2,0,L|178:161,1,75,0|0,2:0|0:0,0:0:0:0:
98,293,149173,6,0,L|108:218,1,75
28,132,149492,2,0,L|17:206,1,75,0|0,2:0|0:0,0:0:0:0:
11,296,149811,5,2,0:0:0:0:
73,372,149971,1,0,0:0:0:0:
73,372,150051,1,0,0:0:0:0:
73,372,150130,2,0,P|114:373|155:353,1,75,0|2,2:0|0:0,0:0:0:0:
187,280,150450,2,0,L|178:229,2,37.5,2|2|2,0:0|0:0|0:0,0:0:0:0:
254,367,150769,2,0,L|267:292,1,75,2|0,0:0|0:0,0:0:0:0:
340,241,151088,6,0,P|389:231|463:298,2,150,0|0|0,0:0|2:0|0:0,0:0:0:0:
266,293,151886,1,2,0:0:0:0:
179,316,152045,2,0,P|165:292|173:234,1,75,0|2,2:0|0:0,0:0:0:0:
206,165,152364,6,0,P|153:215|81:211,1,150,2|0,0:0|2:0,0:0:0:0:
11,151,152843,1,0,0:0:0:0:
43,66,153003,2,0,P|82:69|137:77,1,75,2|0,0:0|0:0,0:0:0:0:
198,34,153322,2,0,L|247:27,3,37.5,2|0|0|0,2:0|2:0|2:0|2:0,0:0:0:0:
279,22,153641,6,0,L|265:112,1,75,4|0,0:1|0:0,0:0:0:0:
253,185,153960,1,0,2:0:0:0:
253,185,154120,1,0,0:0:0:0:
245,274,154279,2,0,L|163:256,2,75,0|0|0,2:0|2:0|2:0,0:0:0:0:
329,232,154758,6,0,P|372:186|466:189,2,150,0|0|0,2:0|0:0|0:0,0:0:0:0:
308,319,155556,1,0,2:0:0:0:
308,319,155715,1,0,2:0:0:0:
221,344,155875,1,0,2:0:0:0:
221,344,156035,1,0,2:0:0:0:
151,287,156194,6,0,P|73:277|-5:265,2,150,0|0|0,2:0|2:0|2:0,0:0:0:0:
232,229,156992,1,0,2:0:0:0:
232,229,157311,6,0,P|230:184|214:156,1,75
136,83,157630,2,0,P|173:77|210:68,1,75
210,68,157870,1,0,2:0:0:0:
210,68,157950,1,0,2:0:0:0:
304,22,158109,2,0,P|297:65|293:116,1,75,0|0,0:0|2:0,0:0:0:0:
316,183,158428,1,0,2:0:0:0:
401,211,158588,1,0,2:0:0:0:
484,177,158747,6,0,P|480:139|474:102,2,75,0|0|0,2:0|0:0|0:0,0:0:0:0:
501,265,159226,1,0,0:0:0:0:
449,338,159386,2,0,P|401:336|364:316,1,75,0|0,2:0|2:0,0:0:0:0:
306,269,159705,1,0,0:0:0:0:
306,269,159864,6,0,P|268:283|226:287,1,75,0|0,2:0|0:0,0:0:0:0:
149,253,160184,2,0,L|138:203,2,37.5,8|8|8,0:0|0:0|0:0,0:0:0:0:
101,330,160503,1,0,0:0:0:0:
101,330,160662,1,8,0:0:0:0:
17,296,160822,2,0,P|9:343|7:383,2,75,8|8|8,0:0|0:0|0:0,0:0:0:0:
56,214,161301,6,0,B|88:230|106:236|106:236|151:222|210:199,2,150,0|0|0,2:0|2:0|2:0,0:0:0:0:
1,142,162098,1,0,0:0:0:0:
50,66,162258,2,0,P|87:70|123:79,1,75,0|0,2:0|0:0,0:0:0:0:
206,114,162577,5,0,2:0:0:0:
256,192,162657,12,4,165130,0:1:0:0:
442,287,172790,6,0,L|452:339,2,37.5,0|0|0,2:0|2:0|2:0,0:0:0:0:
373,201,173109,2,0,L|380:164,2,37.5,0|0|0,2:0|2:0|2:0,0:0:0:0:
350,288,173428,1,0,2:0:0:0:
275,338,173588,1,0,2:0:0:0:
275,338,173668,1,0,2:0:0:0:
275,338,173747,2,0,L|226:328,3,37.5,0|0|0|0,2:0|2:0|2:0|2:0,0:0:0:0:
207,322,174067,5,0,0:0:0:0:
41,190,175343,6,0,B|101:176|139:168|139:168|168:180|194:193,1,150,4|0,0:1|2:0,0:0:0:0:
265,228,175822,1,0,0:0:0:0:
331,167,175981,2,0,P|337:122|344:92,2,75,0|0|0,0:0|0:0|2:0,0:0:0:0:
350,255,176460,1,0,0:0:0:0:
350,255,176620,6,0,P|412:242|476:321,2,150,0|0|0,0:0|2:0|0:0,0:0:0:0:
284,316,177418,1,0,0:0:0:0:
198,288,177577,2,0,P|146:278|121:274,1,75,0|0,2:0|0:0,0:0:0:0:
35,256,177896,6,0,P|83:198|72:122,1,150,0|0,0:0|2:0,0:0:0:0:
20,56,178375,1,0,0:0:0:0:
92,109,178535,2,0,P|148:124|172:126,1,75
246,86,178854,2,0,L|259:12,1,75,0|0,2:0|0:0,0:0:0:0:
356,18,179173,6,0,L|325:196,1,150,0|0,0:0|2:0,0:0:0:0:
315,254,179652,1,0,0:0:0:0:
301,342,179811,2,0,P|262:331|166:391,1,150,0|0,0:0|2:0,0:0:0:0:
105,298,180290,6,0,P|112:225|66:168,1,150,2|0,0:0|0:0,0:0:0:0:
10,97,180769,1,0,2:0:0:0:
86,162,180928,6,0,P|131:219|124:291,1,150,2|0,0:0|0:0,0:0:0:0:
83,372,181407,1,0,2:0:0:0:
143,284,181567,6,0,P|150:212|105:155,1,150,2|0,0:0|0:0,0:0:0:0:
30,89,182045,1,0,2:0:0:0:
123,147,182205,6,0,P|169:204|162:277,1,150,2|2,0:0|0:0,0:0:0:0:
115,354,182684,1,0,2:0:0:0:
115,354,182843,1,2,0:0:0:0:
181,292,183003,5,4,0:0:0:0:
254,343,183162,1,0,2:0:0:0:
254,343,183242,1,0,2:0:0:0:
254,343,183322,2,0,P|290:329|331:327,1,75,0|0,2:0|0:0,0:0:0:0:
418,342,183641,1,0,2:0:0:0:
418,342,183721,1,0,2:0:0:0:
418,342,183801,2,0,P|404:305|402:264,1,75,0|0,2:0|0:0,0:0:0:0:
417,180,184120,6,0,L|469:165,2,37.5,0|0|0,2:0|2:0|2:0,0:0:0:0:
332,211,184439,1,0,2:0:0:0:
292,130,184598,2,0,L|247:123,2,37.5,0|0|0,2:0|2:0|2:0,0:0:0:0:
352,62,184918,2,0,L|404:47,3,37.5,0|0|0|0,2:0|2:0|2:0|2:0,0:0:0:0:
430,37,185237,2,0,L|482:22,3,37.5,0|0|0|0,2:0|2:0|2:0|2:0,0:0:0:0:
509,15,185556,5,4,0:1:0:0:
256,192,185636,12,4,188109,0:0:0:0:
221,321,193215,6,0,P|145:308|54:298,1,150,4|0,0:0|0:0,0:0:0:0:
33,170,193694,2,0,P|108:182|200:193,1,150,4|0,0:0|0:0,0:0:0:0:
315,283,194173,2,0,P|307:319|302:356,1,75,4|0,0:0|0:0,0:0:0:0:
404,298,194492,5,4,0:0:0:0:
404,298,194652,1,0,2:0:0:0:
374,213,194811,1,0,2:0:0:0:
374,213,194971,1,0,2:0:0:0:
285,196,195130,2,0,P|232:205|197:218,1,75,0|0,2:0|0:0,0:0:0:0:
150,145,195450,2,0,L|106:138,3,37.5,2|2|2|2,2:0|2:0|2:0|2:0,0:0:0:0:
68,133,195769,6,0,P|76:84|84:41,2,75,0|0|0,0:0|0:0|2:0,0:0:0:0:
3,196,196247,1,0,0:0:0:0:
3,196,196407,2,0,P|18:271|34:358,1,150,0|0,0:0|2:0,0:0:0:0:
118,366,196886,1,0,0:0:0:0:
191,315,197045,6,0,P|183:266|175:223,1,75
157,153,197364,1,0,2:0:0:0:
220,321,197684,2,0,P|212:272|204:229,1,75
186,159,198003,1,0,2:0:0:0:
250,326,198322,6,0,P|242:277|234:234,1,75
314,174,198641,2,0,P|320:211|327:248,1,75,0|0,2:0|0:0,0:0:0:0:
349,335,198960,2,0,P|386:301|488:298,1,150,0|0,0:0|2:0,0:0:0:0:
481,295,199439,1,0,0:0:0:0:
502,208,199598,6,0,P|452:203|419:190,1,75
319,96,199918,2,0,P|357:98|393:110,1,75,0|0,2:0|0:0,0:0:0:0:
324,258,200237,2,0,P|326:220|338:185,1,75
228,90,200556,2,0,P|239:125|241:163,1,75,0|0,2:0|0:0,0:0:0:0:
204,277,200875,6,0,P|163:282|114:301,1,75
55,342,201194,1,0,2:0:0:0:
55,342,201354,1,0,0:0:0:0:
114,274,201513,2,0,P|104:222|84:117,1,150,0|0,0:0|2:0,0:0:0:0:
66,38,201992,1,0,0:0:0:0:
184,20,202152,6,0,L|169:122,1,75
159,183,202471,1,0,2:0:0:0:
216,12,202790,2,0,L|201:114,1,75
191,175,203109,1,0,2:0:0:0:
249,4,203428,6,0,L|221:178,1,150,0|0,0:0|2:0,0:0:0:0:
258,235,203907,1,0,0:0:0:0:
342,202,204067,2,0,P|389:194|423:188,2,75,0|0|0,0:0|0:0|2:0,0:0:0:0:
258,235,204545,1,0,0:0:0:0:
179,279,204705,6,0,P|135:252|28:252,2,150,0|0|0,0:0|2:0|2:0,0:0:0:0:
247,337,205503,1,0,2:0:0:0:
339,236,205662,2,0,P|302:239|266:249,1,75
159,364,205981,5,4,0:1:0:0:
339,236,206301,1,2,0:0:0:0:
179,279,206620,1,4,0:0:0:0:
342,346,206939,1,0,0:0:0:0:
342,346,207258,5,0,0:0:0:0:
375,138,207577,1,2,0:0:0:0:
410,286,207896,1,0,0:0:0:0:
410,286,208215,1,4,0:0:0:0:
220,195,208535,6,0,P|158:225|75:235,2,150,0|2|0,0:0|0:0|0:0,0:0:0:0:
220,195,209492,1,4,0:0:0:0:
391,30,209811,6,0,P|385:74|378:123,1,75
262,177,210130,2,0,P|267:140|273:103,1,75,2|0,0:0|0:0,0:0:0:0:
368,52,210450,2,0,P|362:96|355:145,1,75
332,239,210769,1,4,0:0:0:0:
332,239,211088,6,0,P|381:226|496:207,1,150,0|2,0:0|0:0,0:0:0:0:
266,336,211726,2,0,P|217:323|102:304,1,150,0|4,0:0|0:0,0:0:0:0:
45,151,212364,6,0,P|95:160|171:89,1,150,0|2,0:0|0:0,0:0:0:0:
191,14,212843,1,0,0:0:0:0:
84,71,213003,2,0,P|93:123|111:225,1,150,0|4,0:0|0:0,0:0:0:0:
268,343,213641,6,0,P|311:333|351:324,1,75
428,346,213960,2,0,P|435:299|454:186,1,150,4|0,0:0|2:0,0:0:0:0:
430,110,214439,1,0,2:0:0:0:
353,62,214598,1,0,2:0:0:0:
353,62,214758,6,0,P|316:70|279:78,1,75,0|0,2:0|2:0,0:0:0:0:
207,132,215077,2,0,L|164:125,2,37.5,0|0|0,2:0|2:0|2:0,0:0:0:0:
300,187,215396,2,0,P|226:180|168:225,1,150,4|4,0:2|0:2,0:0:0:0:
129,306,215875,1,0,0:0:0:0:
93,177,216035,5,4,0:0:0:0:
