osu file format v14

[General]
AudioFilename: audio.mp3
AudioLeadIn: 0
PreviewTime: 112551
Countdown: 0
SampleSet: Soft
StackLeniency: 0.7
Mode: 0
LetterboxInBreaks: 0
WidescreenStoryboard: 0

[Editor]
DistanceSpacing: 0.9
BeatDivisor: 4
GridSize: 4
TimelineZoom: 1.9

[Metadata]
Title:Uso no Hibana
TitleUnicode:嘘の火花
Artist:96neko
ArtistUnicode:96猫
Creator:Yasaija 714
Version:Extra
Source:クズの本懐
Tags:kuzu no honkai opening full size Akanya Regraz DreaM117er _kotachi_ SnowNiNo_
BeatmapID:1207223
BeatmapSetID:569503

[Difficulty]
HPDrainRate:6
CircleSize:4
OverallDifficulty:8.5
ApproachRate:9.3
SliderMultiplier:1.7
SliderTickRate:1

[Events]
//Background and Video events
0,0,"BG.jpg",0,0
//Break Periods
//Storyboard Layer 0 (Background)
//Storyboard Layer 1 (Fail)
//Storyboard Layer 2 (Pass)
//Storyboard Layer 3 (Foreground)
//Storyboard Sound Samples

[TimingPoints]
450,319.148936170213,4,2,1,40,1,0
450,-200,4,2,1,40,0,0
2524,-133.333333333333,4,2,1,40,0,0
3003,-200,4,2,1,40,0,0
4279,-133.333333333333,4,2,1,50,0,0
5556,-100,4,2,1,60,0,0
6434,-100,4,2,1,10,0,0
6513,-100,4,2,1,60,0,0
8029,-100,4,2,1,10,0,0
8109,-100,4,2,1,60,0,0
11540,-100,4,2,1,10,0,0
11620,-100,4,2,1,60,0,0
13455,-100,4,2,1,10,0,0
13535,-100,4,2,1,60,0,0
15769,-133.333333333333,4,2,1,40,0,0
25981,-100,4,2,1,50,0,0
35077,-200,4,2,1,50,0,0
35556,-100,4,2,1,50,0,0
36194,-90.9090909090909,4,2,1,80,0,1
45130,-100,4,2,1,80,0,0
46407,-83.3333333333333,4,2,1,80,0,1
56620,-125,4,2,1,50,0,0
64279,-100,4,2,1,50,0,0
65795,-100,4,2,1,5,0,0
65875,-100,4,2,1,50,0,0
66114,-100,4,2,1,5,0,0
66194,-100,4,2,1,50,0,0
66832,-90.9090909090909,4,2,1,70,0,1
77045,-125,4,2,1,50,0,0
87258,-125,4,2,1,30,0,0
91088,-100,4,2,1,50,0,0
92364,-111.111111111111,4,2,1,50,0,0
102577,-100,4,2,1,60,0,0
111513,-200,4,2,1,40,0,0
112152,-100,4,2,1,60,0,0
112790,-83.3333333333333,4,2,1,80,0,1
121726,-100,4,2,1,80,0,0
123003,-83.3333333333333,4,2,1,80,0,1
133215,-125,4,2,1,50,0,0
140875,-100,4,2,1,60,0,0
143428,-100,4,2,1,70,0,0
153641,-111.111111111111,4,2,1,50,0,0
163854,-83.3333333333333,4,2,1,70,0,0
165130,-166.666666666667,4,2,1,35,0,0
172152,-200,4,2,1,35,0,0
172790,-100,4,2,1,60,0,0
174067,-133.333333333333,4,2,1,40,0,0
175343,-80,4,2,1,90,0,1
185556,-125,4,2,1,50,0,0
193215,-100,4,2,1,70,0,0
194811,-100,4,2,1,60,0,0
195130,-100,4,2,1,50,0,0
195450,-100,4,2,1,40,0,0
195769,-90.9090909090909,4,2,1,80,0,1
205981,-125,4,2,1,50,0,0
211088,-111.111111111111,4,2,1,50,0,0
215396,-100,4,2,1,50,0,0
216035,-133.333333333333,4,2,1,50,0,0
216513,-133.333333333333,4,2,1,10,0,0

[Colours]
Combo1 : 255,255,121
Combo2 : 247,185,255
Combo3 : 255,185,185
Combo4 : 166,166,255

[HitObjects]
88,116,450,6,0,L|96:216,1,85,4|0,0:0|0:0,0:0:0:0:
188,172,928,2,0,L|180:272,1,85
144,352,1407,2,0,P|188:356|232:348,1,85
300,272,1886,2,0,P|344:268|388:276,1,85
472,304,2364,1,0,0:0:0:0:
512,160,2524,6,0,L|500:224,2,63.7500024318696,8|4|4,0:3|0:3|0:3,0:0:0:0:
456,80,3003,6,0,P|408:76|368:88,1,85,4|0,0:0|0:0,0:0:0:0:
300,152,3481,2,0,P|252:156|212:144,1,85
84,112,3960,1,0,0:0:0:0:
72,124,4040,1,0,0:0:0:0:
60,136,4120,1,0,0:0:0:0:
48,148,4200,1,0,0:0:0:0:
40,160,4279,6,0,L|48:228,1,63.7500024318696,4|2,0:0|0:0,0:0:0:0:
47,223,4519,1,0,0:0:0:0:
47,223,4598,1,0,0:0:0:0:
136,304,4758,2,0,L|140:264,1,31.8750012159348,2|2,0:3|0:3,0:0:0:0:
144,184,4918,1,4,0:0:0:0:
220,312,5077,1,2,0:3:0:0:
224,324,5157,1,2,0:3:0:0:
228,336,5237,5,2,0:0:0:0:
252,348,5317,1,2,0:0:0:0:
276,352,5396,1,2,0:0:0:0:
300,348,5476,1,2,0:0:0:0:
320,336,5556,6,0,P|368:336|408:352,1,85,4|0,0:0|0:0,0:0:0:0:
508,228,5875,2,0,P|467:241|425:240,1,85,8|0,0:0|0:0,0:0:0:0:
272,152,6194,2,0,P|260:232|288:288,1,127.5,2|0,0:0|0:0,0:0:0:0:
353,210,6513,2,0,P|361:158|345:114,1,85,8|0,0:0|0:0,0:0:0:0:
216,64,6832,6,0,L|128:76,1,85,2|0,0:0|0:0,0:0:0:0:
52,176,7152,1,8,0:0:0:0:
64,28,7311,1,0,0:0:0:0:
92,236,7471,2,0,L|80:148,1,85,2|0,0:0|0:0,0:0:0:0:
158,282,7790,2,0,P|216:256|276:272,1,127.5,8|0,0:0|0:0,0:0:0:0:
376,304,8109,6,0,L|384:216,1,85,2|0,0:0|0:0,0:0:0:0:
444,108,8428,1,8,0:0:0:0:
460,280,8588,1,0,0:0:0:0:
448,152,8747,2,0,L|456:240,1,85,2|0,0:0|0:0,0:0:0:0:
308,344,9067,2,0,P|264:348|208:312,1,85,8|0,0:0|0:0,0:0:0:0:
120,200,9386,5,2,0:0:0:0:
96,336,9545,1,2,0:0:0:0:
232,220,9705,1,8,0:0:0:0:
60,144,9864,1,0,0:0:0:0:
96,336,10024,1,2,0:0:0:0:
164,136,10184,1,0,0:0:0:0:
0,260,10343,1,8,0:0:0:0:
220,300,10503,1,2,0:0:0:0:
268,68,10662,6,0,P|308:52|352:56,1,85,2|0,0:0|0:0,0:0:0:0:
348,264,10981,1,8,0:0:0:0:
320,128,11141,1,0,0:0:0:0:
476,212,11301,2,0,P|408:232|344:216,1,127.5,2|0,0:0|0:0,0:0:0:0:
236,200,11620,2,0,L|276:276,1,85,8|0,0:0|0:0,0:0:0:0:
388,340,11939,5,2,0:0:0:0:
384,204,12098,1,2,0:0:0:0:
300,352,12258,2,0,P|252:352|212:320,1,85,8|0,0:0|0:0,0:0:0:0:
320,152,12577,1,2,0:0:0:0:
275,275,12737,1,2,0:0:0:0:
396,128,12896,2,0,L|384:40,1,85,8|0,0:0|0:0,0:0:0:0:
240,36,13215,6,0,P|177:32|126:68,1,127.5,2|2,0:0|0:0,0:0:0:0:
80,152,13535,1,8,0:0:0:0:
204,128,13694,1,2,0:0:0:0:
52,236,13854,2,0,L|136:248,2,85,0|2|8,0:0|0:0|0:0,0:0:0:0:
28,72,14332,1,0,0:0:0:0:
208,160,14492,6,0,L|292:148,1,85,6|0,0:0|0:0,0:0:0:0:
400,188,14811,1,8,0:0:0:0:
300,40,14971,1,0,0:0:0:0:
480,40,15130,2,8,L|476:96,1,42.5,8|8,0:3|0:3,0:3:0:0:
400,188,15290,2,8,L|404:244,1,42.5,8|8,0:3|0:3,0:3:0:0:
480,336,15450,2,0,L|396:348,1,85,8|0,0:3|0:3,0:0:0:0:
300,296,15769,6,0,P|236:304|172:256,1,127.500004863739,4|0,0:0|0:0,0:0:0:0:
152,184,16247,1,2,0:3:0:0:
216,112,16407,2,0,P|208:52|152:0,1,127.500004863739,2|2,0:0|0:0,0:0:0:0:
120,92,16886,1,0,0:0:0:0:
276,188,17045,6,0,L|348:180,1,63.7500024318696,2|0,0:3|0:0,0:0:0:0:
420,132,17364,1,0,0:0:0:0:
500,184,17524,2,0,P|500:220|492:260,1,63.7500024318696,2|0,0:3|0:0,0:0:0:0:
412,292,17843,2,0,P|412:256|420:216,2,63.7500024318696,0|0|0,0:3|0:3|0:3,0:3:0:0:
308,356,18322,6,0,P|312:284|296:224,1,127.500004863739,2|2,0:3|0:0,0:0:0:0:
248,152,18801,1,0,0:0:0:0:
196,72,18960,2,0,P|272:72|352:56,1,127.500004863739,2|0,0:3|0:0,0:0:0:0:
412,32,19439,1,0,0:0:0:0:
496,144,19598,6,0,L|480:220,1,63.7500024318696,2|0,0:3|0:0,0:0:0:0:
396,164,19918,1,0,0:0:0:0:
320,224,20077,2,0,P|244:224|164:208,1,127.500004863739,2|0,0:3|0:3,0:0:0:0:
120,156,20556,1,0,0:3:0:0:
100,248,20715,1,0,0:0:0:0:
212,124,20875,6,0,L|288:136,1,63.7500024318696,2|0,0:3|0:0,0:0:0:0:
368,108,21194,1,2,0:0:0:0:
404,196,21354,1,0,0:0:0:0:
368,108,21513,2,0,P|424:80|492:88,1,127.500004863739,2|0,0:3|0:0,0:0:0:0:
448,272,22152,6,0,B|440:336|440:336|396:392,1,127.500004863739,2|0,0:3|0:0,0:0:0:0:
324,332,22630,2,0,L|256:332,1,63.7500024318696,2|0,0:3|0:0,0:0:0:0:
176,380,22950,1,0,0:3:0:0:
176,284,23109,1,0,0:3:0:0:
260,236,23269,1,2,0:0:0:0:
88,244,23428,5,6,0:0:0:0:
103,148,23588,2,0,P|115:118|114:86,2,63.7500024318696,2|2|2,0:0|0:0|0:0,0:0:0:0:
20,104,24067,1,0,0:0:0:0:
114,86,24226,2,0,P|143:97|175:96,2,63.7500024318696,2|2|2,0:0|0:0|0:0,0:0:0:0:
272,32,24705,6,0,L|264:72,2,31.8750012159348,12|0|0,0:0|0:0|0:0,0:0:0:0:
244,148,25024,1,0,0:0:0:0:
376,96,25184,2,0,L|368:136,2,31.8750012159348,8|0|0,0:0|0:0|0:0,0:0:0:0:
348,212,25503,1,0,0:0:0:0:
212,288,25662,5,2,0:0:0:0:
264,300,25742,1,2,0:0:0:0:
316,312,25822,1,2,0:0:0:0:
368,324,25902,1,2,0:0:0:0:
420,336,25981,5,6,0:0:0:0:
348,212,26141,2,0,L|256:228,1,85,0|10,0:0|0:0,0:0:0:0:
224,376,26460,1,0,0:0:0:0:
80,312,26620,1,2,0:0:0:0:
264,300,26779,1,0,0:0:0:0:
64,288,26939,1,10,0:0:0:0:
264,226,27098,1,0,0:0:0:0:
52,64,27258,6,0,P|108:56|172:96,1,127.5
208,164,27577,2,0,L|188:264,1,85,8|0,0:0|0:0,0:0:0:0:
92,152,27896,1,0,0:0:0:0:
268,80,28056,1,0,0:0:0:0:
292,252,28216,2,0,L|308:335,1,85,0|8,0:0|0:0,0:0:0:0:
392,216,28535,6,0,P|444:208|476:184,1,85,2|0,0:0|0:0,0:0:0:0:
340,112,28854,1,10,0:0:0:0:
292,252,29013,1,0,0:0:0:0:
488,168,29173,2,0,L|484:268,1,85,2|0,0:0|0:0,0:0:0:0:
416,344,29492,1,10,0:0:0:0:
462,218,29652,1,2,0:0:0:0:
292,252,29811,6,0,P|228:252|184:272,1,85,2|0,0:0|0:0,0:0:0:0:
96,348,30130,1,8,0:0:0:0:
48,192,30290,1,0,0:0:0:0:
148,296,30450,1,2,0:0:0:0:
176,136,30609,1,0,0:0:0:0:
16,88,30769,1,8,0:0:0:0:
132,216,30928,1,2,0:0:0:0:
240,44,31088,6,0,L|332:56,1,85,2|0,0:0|0:0,0:0:0:0:
428,132,31407,1,8,0:0:0:0:
328,213,31567,2,0,P|300:133|328:49,1,170,2|2,0:0|0:0,0:0:0:0:
496,52,32045,1,8,0:0:0:0:
412,223,32205,2,0,L|320:211,1,85,2|0,0:0|0:0,0:0:0:0:
180,160,32524,5,2,0:0:0:0:
232,312,32684,1,8,0:0:0:0:
180,160,32843,2,0,P|192:104|192:72,1,85,2|0,0:0|0:0,0:0:0:0:
80,32,33162,1,0,0:0:0:0:
48,248,33322,1,8,0:0:0:0:
256,184,33481,1,0,0:0:0:0:
208,364,33641,6,0,P|208:316|256:376,1,170,6|8,0:0|0:0,0:0:0:0:
124,340,34120,1,0,0:0:0:0:
164,260,34279,2,0,P|240:228|328:276,1,170,2|8,0:0|0:0,0:0:0:0:
112,188,34758,2,0,L|104:104,1,85,2|0,0:0|0:0,0:0:0:0:
168,36,35077,6,0,P|216:48|256:40,1,85,2|0,0:1|0:0,0:0:0:0:
352,16,35556,5,8,0:3:0:0:
188,236,35715,1,8,0:3:0:0:
168,36,35875,5,2,0:0:0:0:
332,256,36034,1,2,0:0:0:0:
332,256,36114,1,2,0:0:0:0:
332,256,36194,6,0,B|384:252|432:276|432:276|424:252|424:224,1,140.25000428009,4|0,0:0|0:0,0:0:0:0:
328,176,36513,2,0,P|272:180|216:160,1,93.5000028533936,8|0,0:0|0:0,0:0:0:0:
112,112,36832,1,2,0:0:0:0:
184,264,36992,1,0,0:0:0:0:
204,78,37152,1,8,0:0:0:0:
92,298,37312,1,0,0:0:0:0:
328,348,37471,6,0,P|336:300|332:248,1,93.5000028533936,2|0,0:0|0:0,0:0:0:0:
204,78,37790,2,0,P|196:126|200:178,1,93.5000028533936,8|0,0:0|0:0,0:0:0:0:
364,52,38109,1,2,0:0:0:0:
124,92,38269,1,0,0:0:0:0:
292,240,38428,1,8,0:0:0:0:
216,32,38588,1,0,0:0:0:0:
216,32,38668,1,0,0:0:0:0:
216,32,38747,6,0,P|200:100|198:172,1,140.25000428009,4|0,0:0|0:0,0:0:0:0:
292,240,39067,2,0,P|348:240|392:252,1,93.5000028533936,8|0,0:0|0:0,0:0:0:0:
484,360,39386,1,2,0:0:0:0:
432,160,39545,1,0,0:0:0:0:
328,340,39705,1,8,0:0:0:0:
500,264,39864,1,0,0:0:0:0:
292,240,40024,6,0,P|236:240|192:228,1,93.5000028533936,2|0,0:0|0:0,0:0:0:0:
136,64,40343,2,0,P|125:109|126:156,1,93.5000028533936,8|0,0:0|0:0,0:0:0:0:
152,324,40662,1,2,0:0:0:0:
256,124,40822,2,0,L|352:144,1,93.5000028533936,2|8,0:0|0:0,0:0:0:0:
488,272,41141,6,0,P|480:176|504:84,1,187.000005706787,2|0,0:0|0:0,0:0:0:0:
404,208,41620,1,8,0:0:0:0:
348,36,41779,2,0,P|296:36|248:48,1,93.5000028533936,2|0,0:0|0:0,0:0:0:0:
200,184,42098,2,0,P|148:184|100:172,1,93.5000028533936,2|8,0:0|0:0,0:0:0:0:
256,124,42418,6,0,P|280:204|176:264,1,187.000005706787,2|2,0:0|0:0,0:0:0:0:
160,112,42896,1,8,0:0:0:0:
48,248,43056,2,0,B|64:284|48:320|48:320|112:296|112:352|184:320,1,187.000005706787,2|2,0:0|0:0,0:0:0:0:
272,320,43535,2,0,P|324:312|376:320,1,93.5000028533936,8|0,0:0|0:0,0:0:0:0:
496,352,43854,6,0,P|480:264|496:204,1,140.25000428009,4|0,0:0|0:0,0:0:0:0:
512,172,44173,2,0,L|416:188,1,93.5000028533936,8|0,0:0|0:0,0:0:0:0:
287,151,44492,1,2,0:0:0:0:
364,316,44652,1,0,0:0:0:0:
419,187,44811,1,10,0:0:0:0:
496,352,44971,1,0,0:0:0:0:
252,212,45130,6,0,L|156:232,1,85,4|0,0:3|0:2,0:0:0:0:
88,180,45370,1,2,0:3:0:0:
88,180,45450,2,0,L|148:163,1,42.5,8|0,0:3|0:2,0:0:0:0:
176,84,45609,2,0,L|116:101,1,42.5,8|2,0:3|0:3,0:0:0:0:
240,140,45769,5,0,0:2:0:0:
281,131,45848,1,8,0:3:0:0:
323,122,45928,1,8,0:3:0:0:
365,113,46008,1,2,0:3:0:0:
405,101,46088,6,0,L|340:80,1,42.5,12|8,0:3|0:3,0:0:0:0:
170,41,46247,2,0,L|178:105,1,42.5,4|8,0:3|0:3,0:0:0:0:
372,200,46407,6,0,L|360:316,1,101.999996887207,6|0,0:0|0:0,0:0:0:0:
148,324,46726,1,8,0:0:0:0:
252,212,46886,1,0,0:0:0:0:
16,248,47045,2,0,P|12:192|20:136,1,101.999996887207,2|0,0:0|0:0,0:0:0:0:
197,50,47364,2,0,P|201:106|193:162,1,101.999996887207,10|0,0:0|0:0,0:0:0:0:
72,20,47684,5,2,0:0:0:0:
288,48,47843,1,0,0:0:0:0:
136,200,48003,1,10,0:0:0:0:
352,172,48162,1,0,0:0:0:0:
197,50,48322,1,2,0:0:0:0:
136,200,48481,2,0,P|132:256|140:312,1,101.999996887207,0|10,0:0|0:0,0:0:0:0:
272,360,48801,1,2,0:0:0:0:
272,360,48880,1,2,0:0:0:0:
272,360,48960,6,0,P|332:360|376:348,1,101.999996887207,6|0,0:0|0:0,0:0:0:0:
452,161,49279,2,0,P|392:161|348:173,1,101.999996887207,10|0,0:0|0:0,0:0:0:0:
492,272,49598,1,2,0:0:0:0:
452,60,49758,1,0,0:0:0:0:
492,272,49918,1,10,0:0:0:0:
351,171,50077,1,0,0:0:0:0:
272,360,50237,6,0,L|252:256,1,101.999996887207,2|0,0:0|0:0,0:0:0:0:
68,144,50556,2,0,L|48:244,1,101.999996887207,10|0,0:0|0:0,0:0:0:0:
144,336,50875,1,2,0:0:0:0:
196,172,51035,2,0,P|256:156|304:168,1,101.999996887207,2|10,0:0|0:0,0:0:0:0:
424,312,51354,6,0,B|472:208|376:208|424:96,1,203.999993774414,2|2,0:0|0:0,0:0:0:0:
484,40,51832,1,8,0:0:0:0:
294,163,51992,2,0,P|294:215|282:271,1,101.999996887207,2|0,0:0|0:0,0:0:0:0:
148,336,52311,2,0,P|96:336|40:324,1,101.999996887207,2|8,0:0|0:0,0:0:0:0:
40,142,52630,6,0,P|148:134|200:218,1,203.999993774414,2|2,0:0|0:0,0:0:0:0:
96,232,53109,1,8,0:0:0:0:
100,40,53269,2,0,P|156:44|208:76,1,101.999996887207,2|0,0:0|0:0,0:0:0:0:
304,188,53588,1,2,0:0:0:0:
340,28,53747,1,10,0:0:0:0:
198,204,53907,1,2,0:0:0:0:
420,168,54067,6,0,L|356:260,1,101.999996887207,4|0,0:3|0:2,0:0:0:0:
361,251,54306,1,6,0:3:0:0:
361,251,54386,1,8,0:3:0:0:
198,204,54545,1,6,0:3:0:0:
76,336,54705,2,0,L|96:388,2,50.9999984436036,6|8|8,0:3|0:3|0:3,0:0:0:0:
24,232,55024,1,12,0:3:0:0:
176,328,55184,2,0,L|219:363,1,50.9999984436036,2|8,0:3|0:3,0:0:0:0:
324,364,55343,5,6,0:3:0:0:
360,100,55503,1,2,0:3:0:0:
135,222,55662,1,8,0:3:0:0:
440,228,55822,1,10,0:3:0:0:
268,36,55981,5,8,0:0:0:0:
264,48,56061,1,8,0:3:0:0:
260,60,56141,2,0,L|236:124,1,50.9999984436036,8|8,0:3|0:3,0:3:0:0:
106,138,56301,5,8,0:0:0:0:
112,156,56381,1,8,0:3:0:0:
117,174,56461,2,0,L|141:238,1,50.9999984436036,8|8,0:3|0:3,0:3:0:0:
240,332,56620,6,0,P|328:332|384:300,1,136,4|0,0:0|0:0,0:0:0:0:
369,311,57098,1,0,0:0:0:0:
369,311,57258,1,2,0:0:0:0:
336,188,57577,2,0,P|332:152|336:120,1,68,0|2,0:0|0:0,0:0:0:0:
360,44,57896,6,0,L|428:44,2,68
228,140,58535,2,0,L|160:140,2,68,0|2|0,0:0|0:0|0:0,0:0:0:0:
260,216,59013,1,8,0:0:0:0:
228,292,59173,6,0,L|228:360,2,68
260,216,59652,1,0,0:0:0:0:
332,256,59811,2,0,P|400:260|448:216,1,136,2|0,0:0|0:0,0:0:0:0:
372,184,60290,1,2,0:0:0:0:
436,132,60450,6,0,L|412:64,1,68
332,68,60769,2,0,L|309:132,1,68
280,208,61088,1,2,0:0:0:0:
212,248,61247,2,0,P|200:208|212:172,2,68
284,288,61726,6,0,L|364:288,1,68,4|0,0:0|0:0,0:0:0:0:
472,224,62045,2,0,L|392:224,1,68
352,160,62364,2,0,P|344:88|368:28,1,136,2|0,0:0|0:0,0:0:0:0:
448,104,62843,1,2,0:0:0:0:
264,88,63003,6,0,P|220:88|184:80,2,68
56,80,63641,2,0,P|56:124|64:160,2,68,2|0|2,0:0|0:0|0:0,0:0:0:0:
80,244,64120,1,8,0:0:0:0:
256,192,64279,6,0,L|392:204,1,127.5,4|0,0:3|0:0,0:0:0:0:
448,244,64598,1,8,0:3:0:0:
408,104,64758,1,4,0:3:0:0:
360,292,64918,1,2,0:3:0:0:
320,56,65077,1,2,0:3:0:0:
264,264,65237,1,8,0:3:0:0:
232,8,65396,1,2,0:3:0:0:
383,203,65556,1,4,0:3:0:0:
32,292,65715,6,0,L|32:216,1,42.5,2|0,0:3|0:3,0:3:0:0:
220,224,65875,1,8,0:3:0:0:
92,116,66035,2,0,L|92:176,1,42.5,2|0,0:3|0:0,0:0:0:0:
216,312,66194,1,8,0:3:0:0:
383,203,66354,1,0,0:0:0:0:
128,91,66513,6,0,L|128:151,1,42.5,10|2,2:0|2:0,0:0:0:0:
68,320,66673,2,0,L|68:260,1,42.5,2|2,2:0|2:0,0:0:0:0:
16,116,66832,5,6,0:0:0:0:
224,72,66992,1,0,0:0:0:0:
140,228,67152,1,10,0:0:0:0:
152,16,67311,1,0,0:0:0:0:
364,44,67471,2,0,P|428:48|484:80,1,93.5000028533936,2|0,0:0|0:0,0:0:0:0:
408,236,67790,2,0,P|392:191|393:145,1,93.5000028533936,10|0,0:0|0:0,0:0:0:0:
508,248,68109,5,2,0:0:0:0:
454,59,68269,1,0,0:0:0:0:
312,196,68428,2,0,L|220:213,1,93.5000028533936,10|0,0:0|0:0,0:0:0:0:
72,208,68747,1,2,0:0:0:0:
200,368,68907,1,0,0:0:0:0:
208,144,69067,2,0,P|220:96|220:44,1,93.5000028533936,10|0,0:0|0:0,0:0:0:0:
32,117,69386,6,0,P|80:105|132:105,1,93.5000028533936,6|0,0:0|0:0,0:0:0:0:
296,160,69705,1,10,0:0:0:0:
196,253,69864,1,0,0:0:0:0:
220,52,70024,2,0,L|328:72,1,93.5000028533936,2|0,0:0|0:0,0:0:0:0:
480,188,70343,2,0,L|372:208,1,93.5000028533936,10|0,0:0|0:0,0:0:0:0:
168,132,70662,5,2,0:0:0:0:
284,264,70822,1,2,0:0:0:0:
96,223,70981,1,10,0:0:0:0:
356,172,71141,1,2,0:0:0:0:
112,64,71301,2,0,P|192:68|236:60,1,93.5000028533936,2|0,0:0|0:0,0:0:0:0:
256,196,71620,1,10,0:0:0:0:
176,328,71779,1,2,0:0:0:0:
24,144,71939,6,0,P|104:140|148:148,1,93.5000028533936,6|0,0:0|0:0,0:0:0:0:
24,260,72258,1,10,0:0:0:0:
112,64,72418,1,0,0:0:0:0:
188,264,72577,2,0,B|236:260|236:260|276:236,1,93.5000028533936,2|0,0:0|0:0,0:0:0:0:
376,112,72896,2,0,L|384:216,1,93.5000028533936,10|0,0:0|0:0,0:0:0:0:
376,344,73215,5,2,0:0:0:0:
274,236,73375,1,0,0:0:0:0:
487,225,73535,2,0,L|480:132,1,93.5000028533936,10|0,0:0|0:0,0:0:0:0:
288,128,73854,2,0,P|244:128|184:144,1,93.5000028533936,2|0,0:0|0:0,0:0:0:0:
56,276,74173,2,0,P|56:232|40:172,1,93.5000028533936,10|0,0:0|0:0,0:0:0:0:
8,372,74492,6,0,P|104:352|148:364,1,140.25000428009,6|0,0:0|0:0,0:0:0:0:
296,324,74811,2,0,P|248:324|196:304,1,93.5000028533936,10|0,0:0|0:0,0:0:0:0:
196,139,75130,1,2,0:0:0:0:
372,212,75290,1,2,0:0:0:0:
172,225,75450,1,10,0:0:0:0:
380,176,75609,1,2,0:0:0:0:
205,309,75769,6,0,P|249:323|295:323,1,93.5000028533936,14|0,0:0|0:0,0:0:0:0:
172,225,76088,1,10,0:0:0:0:
60,360,76247,1,0,0:0:0:0:
264,228,76407,2,0,P|272:168|269:132,1,93.5000028533936,10|0,0:0|0:0,0:0:0:0:
100,60,76726,1,10,0:0:0:0:
96,84,76806,1,2,0:0:0:0:
92,108,76886,1,2,0:0:0:0:
88,132,76965,1,2,0:0:0:0:
84,156,77045,6,0,L|96:236,1,68,6|0,0:0|0:0,0:0:0:0:
196,224,77364,2,0,L|206:156,1,68,2|0,0:0|0:0,0:0:0:0:
284,88,77684,2,0,P|348:88|400:156,1,136,2|2,0:0|0:0,0:0:0:0:
404,224,78162,1,2,0:0:0:0:
480,120,78322,6,0,P|480:76|476:48,2,68,2|0|2,0:0|0:0|0:0,0:0:0:0:
460,320,78960,2,0,P|420:320|388:336,1,68,2|0,0:0|0:0,0:0:0:0:
316,264,79279,2,0,P|276:264|244:248,1,68
184,168,79598,6,0,P|184:128|168:92,2,68,2|0|2,0:0|0:0|0:0,0:0:0:0:
120,228,80077,1,0,0:0:0:0:
72,136,80237,2,0,P|80:60|132:0,1,136,2|2,0:0|0:0,0:0:0:0:
216,24,80715,1,0,0:0:0:0:
250,172,80875,6,0,P|216:164|170:172,1,68,2|0,0:0|0:0,0:0:0:0:
264,248,81194,2,0,P|308:224|316:136,1,136,2|2,0:0|0:0,0:0:0:0:
264,76,81673,1,0,0:0:0:0:
324,12,81832,2,0,P|380:12|412:20,1,68,0|0,0:3|0:0,0:0:0:0:
440,120,82152,6,0,L|448:196,1,68,2|0,0:0|0:0,0:0:0:0:
368,252,82471,2,0,L|360:328,1,68,2|0,0:0|0:0,0:0:0:0:
268,360,82790,2,0,P|196:368|136:328,1,136,2|0,0:0|0:0,0:0:0:0:
88,264,83269,1,0,0:0:0:0:
220,272,83428,6,0,P|228:236|220:188,1,68,2|0,0:0|0:0,0:0:0:0:
152,144,83747,2,0,P|136:72|156:0,1,136,2|2,0:0|0:0,0:0:0:0:
236,36,84226,1,2,0:0:0:0:
108,76,84386,2,0,L|36:96,1,68,2|0,0:0|0:0,0:0:0:0:
16,192,84705,6,0,L|81:173,1,68,2|0,0:0|0:0,0:0:0:0:
184,148,85024,2,0,P|248:160|272:240,1,136,2|10,0:0|0:0,0:0:0:0:
216,292,85503,1,8,0:0:0:0:
340,288,85662,1,8,0:0:0:0:
204,320,85822,6,0,P|140:308|116:228,1,136,2|0,0:0|0:0,0:0:0:0:
184,148,86301,1,4,0:0:0:0:
340,228,86460,2,0,L|340:280,2,34,2|0|8,0:3|0:0|0:3,0:0:0:0:
352,128,86779,1,2,0:3:0:0:
248,264,86939,1,10,0:3:0:0:
416,212,87098,1,2,0:3:0:0:
284,64,87258,6,0,P|210:80|140:64,1,136,4|0,0:0|0:0,0:0:0:0:
48,16,87737,2,0,B|8:114|82:115|53:214,1,204,2|0,0:0|0:0,0:0:0:0:
72,360,88535,6,0,B|112:344|112:344|216:360,1,136,2|0,0:0|0:0,0:0:0:0:
312,312,89013,1,2,0:0:0:0:
280,56,89332,1,8,0:3:0:0:
216,140,89492,2,0,L|238:208,1,68,12|4,0:3|0:3,0:0:0:0:
364,116,89811,6,0,P|440:108|500:136,1,136,4|0,0:0|0:0,0:0:0:0:
496,276,90290,2,0,B|392:328|392:232|288:296,1,204,2|0,0:0|0:0,0:0:0:0:
192,360,90928,1,8,0:0:0:0:
184,352,91008,1,8,0:0:0:0:
176,344,91088,6,0,P|180:288|176:248,1,85,8|0,0:0|0:0,0:0:0:0:
12,224,91407,1,10,0:0:0:0:
84,336,91567,1,2,0:0:0:0:
136,160,91726,1,8,0:0:0:0:
264,224,91886,1,8,0:0:0:0:
272,248,91965,1,8,0:0:0:0:
280,272,92045,2,0,L|296:320,1,42.5,10|0,0:0|0:0,0:0:0:0:
416,224,92205,2,0,L|432:176,1,42.5,10|0,0:0|0:0,0:0:0:0:
336,92,92364,6,0,P|284:92|232:112,1,76.4999976654053,4|0,0:0|0:0,0:0:0:0:
136,160,92684,1,8,0:0:0:0:
152,64,92843,1,0,0:0:0:0:
200,200,93003,2,0,P|200:248|192:288,1,76.4999976654053,2|0,0:0|0:0,0:0:0:0:
56,352,93322,2,0,P|56:304|64:264,1,76.4999976654053,8|0,0:0|0:0,0:0:0:0:
136,160,93641,5,0,0:0:0:0:
188,308,93801,2,0,P|236:308|276:316,1,76.4999976654053,2|8,0:0|0:0,0:0:0:0:
360,356,94120,1,0,0:0:0:0:
348,184,94279,2,0,L|260:200,1,76.4999976654053,2|0,0:0|0:0,0:0:0:0:
263,312,94598,1,8,0:0:0:0:
432,260,94758,1,0,0:0:0:0:
328,112,94918,6,0,L|240:128,1,76.4999976654053,2|0,0:0|0:0,0:0:0:0:
160,220,95237,1,8,0:0:0:0:
180,52,95396,1,0,0:0:0:0:
240,248,95556,2,0,P|196:296|168:304,1,76.4999976654053,2|0,0:0|0:0,0:0:0:0:
56,228,95875,1,8,0:0:0:0:
84,376,96035,1,0,0:0:0:0:
64,208,96194,6,0,P|68:164|64:108,1,76.4999976654053
16,48,96513,1,8,0:0:0:0:
148,152,96673,2,0,P|240:152|300:92,1,152.999995330811,2|0,0:0|0:0,0:0:0:0:
160,4,97152,2,0,P|180:52|220:72,1,76.4999976654053,8|0,0:0|0:0,0:0:0:0:
368,32,97471,6,0,B|356:112|356:112|372:172,1,114.749996498108,2|0,0:0|0:0,0:0:0:0:
432,192,97790,2,0,B|440:232|440:232|428:272,1,76.4999976654053,8|0,0:0|0:0,0:0:0:0:
320,360,98109,1,2,0:0:0:0:
320,360,98269,1,0,0:0:0:0:
312,208,98428,1,8,0:0:0:0:
420,352,98588,1,0,0:0:0:0:
264,284,98747,6,0,P|220:284|180:292,1,76.4999976654053
92,356,99067,1,8,0:0:0:0:
28,192,99226,2,0,P|120:180|176:228,1,152.999995330811,2|0,0:0|0:0,0:0:0:0:
36,280,99705,1,8,0:0:0:0:
24,104,99864,1,0,0:0:0:0:
176,244,100024,5,2,0:0:0:0:
276,128,100184,2,0,P|284:88|284:40,2,76.4999976654053,0|8|0,0:0|0:0|0:0,0:0:0:0:
165,212,100662,1,2,0:0:0:0:
332,208,100822,2,0,P|372:200|420:200,2,76.4999976654053,0|8|4,0:0|0:0|0:0,0:0:0:0:
244,308,101301,5,2,0:1:0:0:
165,212,101460,1,2,0:0:0:0:
136,352,101620,1,2,0:0:0:0:
324,288,101779,1,8,0:0:0:0:
328,308,101859,1,8,0:0:0:0:
332,328,101939,1,8,0:0:0:0:
424,360,102098,1,0,0:0:0:0:
420,188,102258,5,2,0:0:0:0:
376,196,102338,1,2,0:0:0:0:
332,204,102418,1,2,0:0:0:0:
288,212,102497,1,2,0:0:0:0:
244,220,102577,5,6,0:0:0:0:
184,80,102737,2,0,L|288:104,1,85,0|10,0:0|0:0,0:0:0:0:
364,16,103056,1,0,0:0:0:0:
420,188,103215,1,2,0:0:0:0:
476,32,103375,1,0,0:0:0:0:
412,208,103535,2,0,L|392:120,1,85,10|0,0:0|0:0,0:0:0:0:
252,192,103854,5,0,0:0:0:0:
376,288,104013,1,0,0:0:0:0:
192,252,104173,1,8,0:0:0:0:
312,128,104332,1,0,0:0:0:0:
284,280,104492,2,0,L|264:368,1,85
92,300,104811,2,0,L|112:212,1,85,8|0,0:0|0:0,0:0:0:0:
284,156,105130,5,0,0:0:0:0:
192,252,105290,1,0,0:0:0:0:
148,92,105450,1,10,0:0:0:0:
312,168,105609,1,0,0:0:0:0:
92,300,105769,2,0,L|73:382,1,85,2|0,0:0|0:0,0:0:0:0:
16,112,106088,1,10,0:0:0:0:
110,217,106247,1,0,0:0:0:0:
76,32,106407,6,0,P|128:20|188:40,1,85,2|0,0:0|0:0,0:0:0:0:
297,111,106726,2,0,L|316:28,1,85,8|0,0:0|0:0,0:0:0:0:
196,192,107045,1,2,0:0:0:0:
376,200,107205,1,0,0:0:0:0:
224,56,107364,1,10,0:0:0:0:
268,288,107524,1,2,0:0:0:0:
472,168,107684,5,2,0:0:0:0:
348,296,107843,2,0,P|340:352|328:384,1,85,2|8,0:0|0:0,0:0:0:0:
112,266,108162,2,0,P|196:306|280:278,1,170,2|0,0:0|0:0,0:0:0:0:
280,140,108641,1,8,0:0:0:0:
97,182,108801,2,0,L|113:274,1,85,2|0,0:0|0:0,0:0:0:0:
168,88,109120,5,2,0:0:0:0:
16,28,109279,1,8,0:0:0:0:
168,88,109439,2,0,P|212:88|256:68,1,85
372,28,109758,1,2,0:0:0:0:
256,192,109918,1,10,0:0:0:0:
444,252,110077,1,10,0:0:0:0:
440,96,110237,6,0,P|372:100|308:156,1,127.5,6|0,0:0|0:0,0:0:0:0:
256,192,110556,2,0,L|264:288,1,85,8|0,0:0|0:0,0:0:0:0:
372,356,110875,1,2,0:0:0:0:
188,328,111035,2,0,L|180:243,1,85,0|8,0:0|0:0,0:0:0:0:
88,124,111354,1,0,0:0:0:0:
266,64,111513,6,0,L|254:208,1,127.5,4|0,0:0|0:0,0:0:0:0:
144,164,112152,6,0,L|196:172,1,42.5,10|0,0:3|0:0,0:0:0:0:
368,220,112311,2,0,L|316:212,1,42.5,10|0,0:3|0:0,0:0:0:0:
116,208,112471,6,0,L|184:192,1,42.5,2|2,0:0|0:0,0:0:0:0:
396,176,112630,2,0,L|328:192,1,42.5,2|2,0:0|0:0,0:0:0:0:
216,272,112790,6,0,B|248:308|248:308|308:316|308:316|348:348,1,152.999995330811,4|0,0:0|0:0,0:0:0:0:
464,364,113109,2,0,P|476:292|464:256,1,101.999996887207,8|0,0:0|0:0,0:0:0:0:
388,100,113428,1,2,0:0:0:0:
288,232,113588,1,0,0:0:0:0:
488,184,113747,1,8,0:0:0:0:
288,84,113907,1,0,0:0:0:0:
156,280,114067,6,0,L|168:392,1,101.999996887207,2|0,0:0|0:0,0:0:0:0:
384,276,114386,2,0,P|390:228|372:164,1,101.999996887207,8|0,0:0|0:0,0:0:0:0:
184,44,114705,1,2,0:0:0:0:
48,208,114864,1,0,0:0:0:0:
264,200,115024,1,8,0:0:0:0:
76,120,115184,1,0,0:0:0:0:
76,120,115263,1,0,0:0:0:0:
76,120,115343,6,0,P|140:120|188:140,1,101.999996887207,6|0,0:0|0:0,0:0:0:0:
224,296,115662,1,8,0:0:0:0:
48,208,115822,1,0,0:0:0:0:
287,130,115981,2,0,B|291:186|291:186|287:238,2,101.999996887207,2|0|8,0:0|0:0|0:0,0:0:0:0:
168,28,116460,1,0,0:0:0:0:
108,264,116620,6,0,L|228:248,1,101.999996887207,2|0,0:0|0:0,0:0:0:0:
260,52,116939,2,0,L|380:68,1,101.999996887207,8|0,0:0|0:0,0:0:0:0:
496,216,117258,1,2,0:0:0:0:
252,275,117418,2,0,P|243:224|253:175,1,101.999996887207,2|8,0:0|0:0,0:0:0:0:
452,280,117737,6,0,B|384:280|336:296|336:296|284:272|232:276,1,203.999993774414,2|0,0:0|0:0,0:0:0:0:
156,376,118215,1,8,0:0:0:0:
24,252,118375,2,0,P|24:192|40:140,1,101.999996887207,2|0,0:0|0:0,0:0:0:0:
168,204,118694,2,0,P|198:152|237:115,1,101.999996887207,2|8,0:0|0:0,0:0:0:0:
390,201,119013,6,0,P|424:252|360:368,1,203.999993774414,2|2,0:0|0:0,0:0:0:0:
296,160,119492,1,8,0:0:0:0:
387,2,119652,2,0,B|344:100|415:102|387:210,1,203.999993774414,2|2,0:0|0:0,0:0:0:0:
168,204,120130,2,0,P|156:256|160:304,1,101.999996887207,8|0,0:0|0:0,0:0:0:0:
364,366,120450,6,0,P|424:304|412:224,1,152.999995330811,6|0,0:0|0:0,0:0:0:0:
389,200,120769,2,0,P|353:164|357:108,1,101.999996887207,10|0,0:0|0:0,0:0:0:0:
480,40,121088,2,0,B|376:24|376:24|296:40,1,152.999995330811,2|0,0:0|0:0,0:0:0:0:
280,56,121407,2,0,B|232:72|232:72|172:60,1,101.999996887207,10|0,0:0|0:0,0:0:0:0:
36,24,121726,6,0,B|32:48|40:72|40:72|36:92|36:92|48:116|44:152,1,127.5,4|2,0:3|0:0,0:0:0:0:
16,228,122045,6,0,L|24:280,1,42.5,2|0,0:3|0:0,0:0:0:0:
100,356,122205,1,12,0:3:0:0:
136,176,122364,6,0,L|144:124,1,42.5,2|2,0:0|0:3,0:0:0:0:
240,296,122524,1,2,0:3:0:0:
280,48,122684,6,0,L|288:100,1,42.5,2|2,0:3|0:3,0:0:0:0:
380,236,122843,2,0,L|388:184,1,42.5,8|8,0:3|0:3,0:0:0:0:
392,20,123003,6,0,P|444:16|492:28,1,101.999996887207,6|0,0:0|0:0,0:0:0:0:
386,193,123322,2,0,P|334:189|286:201,1,101.999996887207,10|0,0:0|0:0,0:0:0:0:
388,328,123641,1,0,0:0:0:0:
436,128,123801,1,2,0:0:0:0:
220,248,123960,1,10,0:0:0:0:
176,48,124120,1,0,0:0:0:0:
36,264,124279,6,0,P|108:276|160:264,1,101.999996887207,2|0,0:0|0:0,0:0:0:0:
296,44,124598,2,0,P|308:116|296:168,1,101.999996887207,10|0,0:0|0:0,0:0:0:0:
92,188,124918,1,2,0:0:0:0:
344,230,125077,1,2,0:0:0:0:
204,100,125237,1,10,0:0:0:0:
316,316,125396,1,2,0:0:0:0:
316,316,125476,1,2,0:0:0:0:
316,316,125556,6,0,B|368:320|368:320|416:288,1,101.999996887207,6|0,0:0|0:0,0:0:0:0:
448,96,125875,1,10,0:0:0:0:
488,236,126035,1,0,0:0:0:0:
352,48,126194,1,2,0:0:0:0:
312,188,126354,1,0,0:0:0:0:
128,48,126513,1,10,0:0:0:0:
168,188,126673,1,0,0:0:0:0:
20,344,126832,6,0,B|56:336|56:336|84:344|84:344|128:336,1,101.999996887207,2|0,0:0|0:0,0:0:0:0:
264,272,127152,2,0,B|300:280|300:280|328:272|328:272|363:278,1,101.999996887207,10|0,0:0|0:0,0:0:0:0:
488,368,127471,1,2,0:0:0:0:
464,160,127630,1,2,0:0:0:0:
488,368,127790,1,10,0:0:0:0:
260,372,127950,6,0,B|272:320|272:320|252:220|252:220|264:156,1,203.999993774414,2|2,0:0|0:0,0:0:0:0:
296,52,128428,1,8,0:0:0:0:
159,236,128588,2,0,L|180:336,1,101.999996887207,2|0,0:0|0:0,0:0:0:0:
368,308,128907,2,0,L|347:208,1,101.999996887207,2|8,0:0|0:0,0:0:0:0:
196,100,129226,6,0,P|96:112|44:0,1,203.999993774414,2|2,0:0|0:0,0:0:0:0:
136,24,129705,1,8,0:0:0:0:
28,167,129864,2,0,P|29:218|41:268,1,101.999996887207,2|0,0:0|0:0,0:0:0:0:
216,172,130184,1,2,0:0:0:0:
41,35,130343,1,10,0:0:0:0:
112,208,130503,1,2,0:0:0:0:
300,88,130662,6,0,L|404:116,1,101.999996887207,4|0,0:3|0:0,0:0:0:0:
398,114,130902,1,2,0:3:0:0:
398,114,130981,1,8,0:0:0:0:
464,228,131141,1,2,0:3:0:0:
312,344,131301,1,4,0:3:0:0:
316,308,131380,1,8,0:3:0:0:
320,272,131460,1,8,0:3:0:0:
464,228,131620,1,4,0:3:0:0:
448,352,131779,1,2,0:0:0:0:
316,184,131939,6,0,P|256:184|208:208,1,101.999996887207,4|2,0:3|0:0,0:0:0:0:
160,264,132178,1,0,0:0:0:0:
160,264,132258,2,0,L|173:313,1,50.9999984436036,12|0,0:3|0:0,0:0:0:0:
44,256,132418,2,0,L|30:206,1,50.9999984436036,2|0,0:3|0:0,0:0:0:0:
44,64,132578,5,12,0:3:0:0:
80,68,132657,1,8,0:3:0:0:
116,76,132737,2,0,L|184:84,1,50.9999984436036,8|8,0:3|0:3,0:0:0:0:
240,216,132897,5,12,0:3:0:0:
276,212,132976,1,8,0:3:0:0:
312,204,133056,2,0,L|380:196,1,50.9999984436036,8|8,0:3|0:3,0:0:0:0:
464,40,133215,6,0,P|480:104|460:196,1,136,4|0,0:0|0:0,0:0:0:0:
424,248,133694,1,0,0:0:0:0:
468,324,133854,1,2,0:0:0:0:
292,352,134173,2,0,L|216:344,1,68,0|2,0:0|0:0,0:0:0:0:
180,268,134492,6,0,P|149:281|120:304,2,68
344,200,135130,2,0,P|374:213|404:236,2,68,0|2|0,0:0|0:0|0:0,0:0:0:0:
272,248,135609,1,8,0:0:0:0:
200,196,135769,6,0,P|196:132|192:100,2,68
192,96,136247,1,0,0:0:0:0:
116,144,136407,1,2,0:0:0:0:
192,96,136567,2,0,L|260:108,1,68,2|0,0:1|0:0,0:0:0:0:
284,192,136886,1,2,0:0:0:0:
392,80,137045,6,2,B|424:180|355:181|392:288,1,204,2|2,0:1|0:1,0:1:0:0:
460,336,137684,2,0,P|336:328|264:364,1,204,2|8,0:0|0:0,0:0:0:0:
208,296,138322,6,0,L|216:208,2,68
160,372,138801,1,2,0:0:0:0:
80,336,138960,2,0,P|92:264|68:200,1,136,0|2,0:0|0:0,0:0:0:0:
8,144,139439,1,0,0:0:0:0:
40,60,139598,6,0,L|112:72,1,68
160,144,139918,2,0,B|224:120|224:120|304:136,1,136,2|0,0:0|0:0,0:0:0:0:
324,216,140396,1,2,0:0:0:0:
368,140,140556,2,0,L|368:60,1,68,2|8,0:0|0:0,0:0:0:0:
480,40,140875,5,4,0:3:0:0:
440,196,141035,1,0,0:0:0:0:
368,72,141194,1,2,0:0:0:0:
420,296,141354,1,4,0:3:0:0:
452,156,141513,1,2,0:0:0:0:
500,352,141673,1,2,0:0:0:0:
360,220,141832,1,4,0:3:0:0:
320,376,141992,1,2,0:3:0:0:
220,160,142152,5,8,0:3:0:0:
452,84,142311,1,2,0:3:0:0:
424,328,142471,1,2,0:3:0:0:
328,104,142630,5,2,0:3:0:0:
132,156,142790,1,0,0:0:0:0:
272,296,142950,1,0,0:0:0:0:
84,360,143110,5,2,0:0:0:0:
76,312,143190,1,2,0:0:0:0:
68,268,143269,1,2,0:0:0:0:
60,220,143349,1,2,0:0:0:0:
52,172,143428,6,0,B|48:132|72:104|72:104|64:80|64:80|80:48|76:0,1,170,6|8,0:0|0:0,0:0:0:0:
76,10,143907,1,0,0:0:0:0:
132,156,144067,2,0,P|180:152|224:136,1,85,2|0,0:0|0:0,0:0:0:0:
308,56,144386,2,0,P|356:60|400:76,1,85,8|0,0:0|0:0,0:0:0:0:
488,192,144705,6,0,B|492:236|476:272|476:272|492:312|488:368,1,170,2|8,0:0|0:0,0:0:0:0:
368,252,145184,1,2,0:0:0:0:
356,256,145263,1,2,0:0:0:0:
344,260,145343,2,0,P|304:276|276:316,1,85,2|0,0:0|0:0,0:0:0:0:
103,335,145662,2,0,P|129:302|168:286,1,85,8|0,0:0|0:0,0:0:0:0:
356,344,145981,5,2,0:0:0:0:
248,200,146141,1,0,0:0:0:0:
103,238,146301,2,0,P|142:254|169:287,1,85,8|0,0:0|0:0,0:0:0:0:
24,280,146620,2,0,B|-4:196|60:194|24:92,1,170,2|8,0:0|0:0,0:0:0:0:
4,20,147098,1,0,0:0:0:0:
120,136,147258,6,0,P|176:136|220:120,1,85,2|0,0:0|0:0,0:0:0:0:
308,24,147577,2,0,B|296:112|296:112|308:152,1,127.5,8|0,0:0|0:0,0:0:0:0:
344,172,147896,2,0,L|332:260,1,85,2|0,0:0|0:0,0:0:0:0:
480,136,148215,1,8,0:0:0:0:
484,328,148375,1,0,0:0:0:0:
484,328,148455,1,0,0:0:0:0:
484,328,148535,5,0,0:0:0:0:
268,216,148694,1,2,0:0:0:0:
408,104,148854,5,8,0:0:0:0:
400,364,149013,1,2,0:0:0:0:
196,312,149173,5,0,0:0:0:0:
456,240,149332,1,2,0:0:0:0:
184,172,149492,5,8,0:0:0:0:
484,328,149651,1,2,0:0:0:0:
484,48,149811,6,0,P|408:32|376:40,1,85,2|2,0:0|0:0,0:0:0:0:
332,88,150051,1,2,0:0:0:0:
332,88,150130,1,8,0:0:0:0:
500,188,150290,1,0,0:0:0:0:
252,100,150450,5,8,0:0:0:0:
204,288,150609,1,2,0:0:0:0:
320,180,150769,1,8,0:0:0:0:
368,368,150928,1,0,0:0:0:0:
112,348,151088,6,0,B|120:316|112:292|112:292|120:276|120:276|112:252|120:220,1,127.5,2|0,0:0|0:0,0:0:0:0:
203,179,151407,2,0,P|216:220|208:261,1,85,8|0,0:0|0:0,0:0:0:0:
24,204,151726,1,2,0:0:0:0:
80,72,151886,1,2,0:0:0:0:
119,223,152045,1,8,0:0:0:0:
164,32,152205,1,0,0:0:0:0:
208,261,152364,6,0,P|268:261|340:301,1,127.5,2|0,0:0|0:0,0:0:0:0:
364,364,152684,1,8,0:0:0:0:
152,324,152843,1,2,0:0:0:0:
232,184,153003,1,2,0:0:0:0:
249,352,153162,1,2,0:0:0:0:
56,292,153322,1,8,0:0:0:0:
36,256,153402,1,0,0:0:0:0:
32,216,153481,1,2,0:0:0:0:
36,176,153561,1,2,0:0:0:0:
56,136,153641,5,6,0:0:0:0:
148,76,153801,2,0,L|228:100,1,76.4999976654053,0|8,0:0|0:0,0:0:0:0:
404,268,154279,5,6,0:0:0:0:
312,208,154439,2,0,L|232:232,1,76.4999976654053,0|8,0:0|0:0,0:0:0:0:
238,229,154758,1,2,0:0:0:0:
404,268,154918,6,0,P|424:200|380:124,1,152.999995330811,2|0,0:0|0:0,0:0:0:0:
320,64,155396,1,0,0:0:0:0:
312,208,155556,2,0,L|320:296,1,76.4999976654053,8|0,0:0|0:0,0:0:0:0:
244,360,155875,1,2,0:0:0:0:
412,352,156035,1,2,0:0:0:0:
244,360,156194,6,0,P|216:288|228:220,1,114.749996498108,12|0,0:0|0:0,0:0:0:0:
116,97,156513,2,0,P|192:109|245:153,1,114.749996498108,8|0,0:0|0:0,0:0:0:0:
407,118,156832,2,0,P|359:178|294:202,1,114.749996498108,8|0,0:0|0:0,0:0:0:0:
217,251,157152,2,0,L|220:204,1,38.2499988327027,2|0,0:3|0:0,0:0:0:0:
223,129,157311,1,4,0:0:0:0:
472,192,157630,5,0,0:0:0:0:
326,195,157790,2,0,L|323:242,1,38.2499988327027,0|2,0:0|0:3,0:0:0:0:
320,317,157949,1,2,0:0:0:0:
400,292,158109,1,8,0:0:0:0:
219,212,158269,5,10,0:0:0:0:
248,380,158428,1,2,0:0:0:0:
217,251,158588,1,8,0:0:0:0:
400,292,158747,6,0,P|412:236|412:192,1,76.4999976654053,6|0,0:0|0:0,0:0:0:0:
332,140,159067,1,2,0:3:0:0:
400,56,159226,1,2,0:3:0:0:
224,64,159386,2,0,L|240:152,2,76.4999976654053,2|0|0,0:0|0:0|0:0,0:0:0:0:
224,64,159864,1,2,0:3:0:0:
256,240,160024,6,0,P|196:264|128:232,1,114.749996498108,2|2,0:3|0:3,0:0:0:0:
64,232,160343,2,0,L|72:304,1,38.2499988327027,2|8,0:3|0:3,0:0:0:0:
128,348,160503,1,2,0:3:0:0:
196,184,160662,1,2,0:3:0:0:
288,360,160822,5,8,0:3:0:0:
340,272,160981,1,8,0:3:0:0:
392,360,161141,1,8,0:3:0:0:
340,240,161301,6,0,P|336:188|352:120,1,114.749996498108,4|0,0:3|0:0,0:0:0:0:
408,72,161620,2,0,P|356:76|288:60,1,114.749996498108,4|0,0:3|0:0,0:0:0:0:
224,24,161939,1,10,0:0:0:0:
224,168,162098,1,2,0:0:0:0:
156,86,162258,1,10,0:0:0:0:
349,127,162418,1,0,0:0:0:0:
156,200,162577,6,0,L|168:256,2,38.2499988327027,8|8|8,0:3|0:3|0:3,0:0:0:0:
156,86,162896,1,0,0:0:0:0:
24,260,163056,1,2,0:3:0:0:
40,252,163136,1,2,0:3:0:0:
56,244,163215,1,2,0:3:0:0:
156,200,163375,1,2,0:3:0:0:
124,304,163535,1,2,0:3:0:0:
96,144,163694,1,2,0:3:0:0:
232,288,163854,6,0,L|332:264,1,101.999996887207,10|0,0:0|0:0,0:0:0:0:
232,96,164173,2,0,L|332:120,1,101.999996887207,10|0,0:0|0:0,0:0:0:0:
404,284,164492,5,8,0:0:0:0:
404,100,164652,1,0,0:0:0:0:
476,308,164811,5,8,0:0:0:0:
476,76,164971,1,0,0:0:0:0:
256,189,165130,6,0,P|248:245|224:301,1,101.999996887207,4|0,0:0|0:0,0:0:0:0:
184,348,165609,1,0,0:0:0:0:
112,324,165769,2,0,P|94:276|87:225,1,101.999996887207,2|0,0:0|0:0,0:0:0:0:
120,156,166247,2,0,L|8:144,1,101.999996887207,2|0,0:0|0:0,0:0:0:0:
44,72,166726,2,0,L|108:80,1,50.9999984436036,2|0,0:0|0:0,0:0:0:0:
168,100,167045,2,0,P|176:44|168:-8,1,101.999996887207,2|0,0:0|0:0,0:0:0:0:
352,52,167684,6,0,P|344:108|352:160,1,101.999996887207,2|0,0:0|0:0,0:0:0:0:
392,216,168162,1,0,0:0:0:0:
348,280,168322,2,0,P|288:272|232:292,1,101.999996887207,2|0,0:0|0:0,0:0:0:0:
176,312,168801,2,0,L|164:200,1,101.999996887207,2|0,0:0|0:0,0:0:0:0:
200,140,169279,2,0,L|212:76,1,50.9999984436036,2|0,0:0|0:0,0:0:0:0:
172,24,169598,1,2,0:0:0:0:
324,48,169918,1,0,0:0:0:0:
432,192,170237,6,0,P|436:252|428:308,1,101.999996887207,2|0,0:0|0:0,0:0:0:0:
280,320,170875,2,0,P|276:260|284:204,1,101.999996887207,2|0,0:0|0:0,0:0:0:0:
304,144,171354,2,0,L|184:160,2,101.999996887207,2|0|2,0:0|0:0|0:0,0:0:0:0:
384,76,172152,6,0,L|376:212,1,127.5,4|0,0:3|0:0,0:0:0:0:
348,304,172790,5,8,0:0:0:0:
356,340,172870,1,8,0:0:0:0:
364,376,172950,1,8,0:0:0:0:
476,264,173109,5,8,0:0:0:0:
484,228,173189,1,8,0:0:0:0:
492,192,173269,1,8,0:0:0:0:
296,236,173428,5,2,0:3:0:0:
504,340,173588,1,2,0:3:0:0:
352,160,173747,2,0,L|344:100,2,42.5,8|8|8,0:0|0:0|0:0,0:0:0:0:
364,376,174067,5,0,0:0:0:0:
256,192,174146,12,0,175184,0:0:0:0:
68,124,175343,6,0,P|64:184|72:232,1,106.25,6|0,0:0|0:0,0:0:0:0:
264,292,175662,1,10,0:0:0:0:
228,112,175822,1,0,0:0:0:0:
108,348,175981,2,0,P|161:349|240:360,1,106.25,2|0,0:0|0:0,0:0:0:0:
444,256,176301,2,0,P|390:257|312:268,1,106.25,10|0,0:0|0:0,0:0:0:0:
496,352,176620,5,2,0:0:0:0:
264,292,176779,1,0,0:0:0:0:
460,172,176939,1,10,0:0:0:0:
228,112,177098,1,0,0:0:0:0:
476,48,177258,1,2,0:0:0:0:
338,263,177418,2,0,P|334:319|346:379,1,106.25,0|10,0:0|0:0,0:0:0:0:
380,112,177737,1,2,0:0:0:0:
360,140,177817,1,2,0:0:0:0:
336,164,177896,6,0,P|280:180|208:156,1,106.25,6|0,0:0|0:0,0:0:0:0:
68,328,178215,2,0,P|52:272|76:200,1,106.25,10|0,0:0|0:0,0:0:0:0:
152,44,178535,1,2,0:0:0:0:
152,272,178694,1,0,0:0:0:0:
56,136,178854,1,10,0:0:0:0:
280,92,179013,1,0,0:0:0:0:
170,376,179173,6,0,L|152:272,1,106.25,2|0,0:0|0:0,0:0:0:0:
336,164,179492,2,0,L|316:276,1,106.25,10|0,0:0|0:0,0:0:0:0:
144,112,179811,1,2,0:0:0:0:
384,88,179971,1,2,0:0:0:0:
144,112,180130,1,10,0:0:0:0:
408,108,180290,6,0,B|376:180|432:240|432:240|400:256|368:232,1,212.5,6|2,0:0|0:0,0:0:0:0:
508,156,180769,1,8,0:0:0:0:
320,32,180928,2,0,P|260:48|228:88,1,106.25,2|0,0:0|0:0,0:0:0:0:
171,332,181247,2,0,P|222:321|259:284,1,106.25,2|8,0:0|0:0,0:0:0:0:
68,160,181567,6,0,B|124:152|156:180|156:180|180:168|180:168|236:196|308:156,1,212.5,2|2,0:0|0:0,0:0:0:0:
96,256,182045,1,8,0:0:0:0:
48,80,182205,2,0,P|96:76|180:100,1,106.25,2|0,0:0|0:0,0:0:0:0:
260,284,182524,1,2,0:0:0:0:
96,256,182684,1,10,0:0:0:0:
231,79,182843,1,2,0:0:0:0:
340,352,183003,6,0,P|360:292|356:236,1,106.25,4|0,0:3|0:0,0:0:0:0:
320,180,183242,1,2,0:3:0:0:
320,180,183322,1,8,0:3:0:0:
476,296,183481,1,0,0:0:0:0:
260,284,183641,2,0,L|264:344,2,53.125,4|2|2,0:3|0:3|0:3,0:0:0:0:
320,180,183960,1,8,0:3:0:0:
124,304,184120,2,0,L|120:244,1,53.125,0|10,0:0|0:3,0:0:0:0:
76,96,184279,5,12,0:3:0:0:
372,52,184439,1,2,0:3:0:0:
108,171,184598,5,8,0:3:0:0:
404,216,184758,1,2,0:3:0:0:
120,250,184918,6,0,P|152:252|200:264,1,53.125,12|0,0:3|0:0,0:0:0:0:
272,368,185077,2,0,P|274:336|286:288,1,53.125,2|2,0:0|0:3,0:0:0:0:
409,163,185237,2,0,P|407:195|395:243,1,53.125,8|2,0:3|0:3,0:0:0:0:
431,356,185396,2,0,P|458:354|484:350,1,53.125,10|2,0:3|0:3,0:0:0:0:
303,236,185556,6,0,P|231:232|155:268,1,136,4|0,0:0|0:0,0:0:0:0:
116,324,186035,1,0,0:0:0:0:
84,240,186194,1,2,0:0:0:0:
196,104,186513,2,0,P|212:152|216:192,1,68,0|2,0:0|0:0,0:0:0:0:
116,88,186832,6,0,P|117:37|127:-1,2,68
192,248,187471,2,0,P|190:298|180:337,2,68,0|2|0,0:0|0:0|0:0,0:0:0:0:
144,172,187950,1,8,0:0:0:0:
228,140,188109,6,0,P|268:136|300:144,1,68
348,212,188428,2,0,P|388:216|420:208,1,68
476,144,188747,1,2,0:0:0:0:
484,232,188907,2,0,L|496:320,2,68,0|0|0,0:1|0:0|0:0,0:0:0:0:
476,144,189386,6,0,L|466:76,2,68
414,209,189864,1,0,0:0:0:0:
356,140,190024,2,0,P|316:144|280:164,1,68,2|0,0:0|0:0,0:0:0:0:
248,236,190343,1,0,0:0:0:0:
196,164,190503,1,8,0:0:0:0:
196,308,190662,6,0,L|276:320,2,68,2|0|0,0:0|0:0|0:0,0:0:0:0:
108,288,191141,1,2,0:0:0:0:
24,264,191301,2,0,P|24:192|44:128,1,136
104,68,191779,1,2,0:0:0:0:
188,36,191939,6,0,P|216:32|264:40,1,68
344,48,192258,2,0,B|309:118|370:118|344:184,1,136
304,256,192737,1,2,0:0:0:0:
344,332,192896,1,0,0:0:0:0:
304,256,193056,1,0,0:0:0:0:
432,208,193215,6,0,P|440:144|424:84,1,127.5,4|0,0:3|0:0,0:0:0:0:
344,48,193535,2,0,B|300:44|300:44|232:68,1,85,8|0,0:3|0:0,0:0:0:0:
104,140,193854,1,0,0:0:0:0:
104,344,194013,1,2,0:3:0:0:
432,208,194173,1,4,0:3:0:0:
208,208,194332,1,0,0:0:0:0:
464,344,194492,5,4,0:3:0:0:
320,88,194652,1,2,0:3:0:0:
184,348,194811,1,4,0:3:0:0:
432,208,194971,5,8,0:3:0:0:
320,360,195130,1,4,0:3:0:0:
208,208,195290,1,0,0:0:0:0:
104,344,195450,5,2,0:0:0:0:
108,332,195529,1,2,0:0:0:0:
112,320,195609,1,2,0:0:0:0:
116,308,195689,1,2,0:0:0:0:
120,296,195769,6,0,L|96:200,1,93.5000028533936,4|0,0:0|0:0,0:0:0:0:
48,80,196088,1,10,0:0:0:0:
8,268,196247,1,0,0:0:0:0:
140,120,196407,2,0,P|212:112|280:136,1,140.25000428009,2|0,0:0|0:0,0:0:0:0:
340,184,196726,2,0,B|332:232|332:232|348:280,1,93.5000028533936,10|0,0:0|0:0,0:0:0:0:
452,144,197045,5,2,0:0:0:0:
436,344,197205,1,0,0:0:0:0:
452,144,197364,2,0,P|388:128|344:96,1,93.5000028533936,10|0,0:0|0:0,0:0:0:0:
196,20,197684,2,0,L|212:120,1,93.5000028533936,2|0,0:0|0:0,0:0:0:0:
192,324,198003,2,0,L|164:156,1,140.25000428009,8|0,0:0|0:0,0:0:0:0:
210,112,198322,6,0,P|258:104|306:116,1,93.5000028533936,6|0,0:0|0:0,0:0:0:0:
364,328,198641,2,0,P|316:336|268:324,1,93.5000028533936,10|0,0:0|0:0,0:0:0:0:
36,199,198960,2,0,B|80:183|80:183|124:199|124:199|176:183,1,140.25000428009,2|0,0:0|0:0,0:0:0:0:
210,112,199279,1,10,0:0:0:0:
272,326,199439,1,0,0:0:0:0:
72,264,199598,6,0,L|56:364,1,93.5000028533936,6|0,0:0|0:0,0:0:0:0:
176,352,199918,1,10,0:0:0:0:
36,199,200077,1,0,0:0:0:0:
210,112,200237,2,0,L|226:212,1,93.5000028533936,2|0,0:0|0:0,0:0:0:0:
72,0,200556,2,0,L|56:100,1,93.5000028533936,10|0,0:0|0:0,0:0:0:0:
224,204,200875,6,0,P|276:208|336:188,1,93.5000028533936,6|0,0:0|0:0,0:0:0:0:
384,28,201194,1,10,0:0:0:0:
500,204,201354,1,0,0:0:0:0:
232,136,201513,2,0,P|224:200|248:276,1,140.25000428009,2|0,0:0|0:0,0:0:0:0:
220,352,201832,2,0,P|168:356|108:336,1,93.5000028533936,10|0,0:0|0:0,0:0:0:0:
88,168,202152,6,0,P|92:220|80:264,1,93.5000028533936,2|0,0:0|0:0,0:0:0:0:
32,80,202471,2,0,B|88:88|88:88|180:64,1,140.25000428009,10|0,0:0|0:0,0:0:0:0:
252,48,202790,2,0,L|236:144,1,93.5000028533936,2|0,0:0|0:0,0:0:0:0:
368,232,203109,2,0,L|383:139,1,93.5000028533936,10|0,0:0|0:0,0:0:0:0:
304,280,203428,6,0,P|384:312|440:268,1,140.25000428009,6|0,0:0|0:0,0:0:0:0:
476,220,203747,2,0,P|508:260|504:316,1,93.5000028533936,8|0,0:0|0:0,0:0:0:0:
368,364,204067,1,2,0:0:0:0:
300,192,204226,1,2,0:0:0:0:
360,108,204386,1,10,0:0:0:0:
304,280,204545,1,2,0:0:0:0:
228,112,204705,6,0,P|216:180|196:232,1,93.5000028533936,2|0,0:0|0:0,0:0:0:0:
20,336,205024,2,0,P|88:324|140:304,1,93.5000028533936,10|0,0:0|0:0,0:0:0:0:
320,320,205343,1,8,0:0:0:0:
348,328,205423,1,2,0:0:0:0:
376,336,205503,1,2,0:0:0:0:
404,344,205582,1,2,0:0:0:0:
432,352,205662,2,0,L|440:284,1,46.7500014266968,10|0,0:0|0:0,0:0:0:0:
344,240,205822,2,0,L|336:172,1,46.7500014266968,8|0,0:0|0:0,0:0:0:0:
504,176,205981,6,0,L|512:104,1,68,6|0,0:0|0:0,0:0:0:0:
368,80,206301,2,0,L|360:8,1,68,2|0,0:0|0:0,0:0:0:0:
292,136,206620,2,0,P|220:144|144:112,1,136,2|2,0:0|0:0,0:0:0:0:
96,64,207098,1,0,0:0:0:0:
56,168,207258,6,0,L|64:240,1,68,2|0,0:0|0:0,0:0:0:0:
124,312,207577,2,0,B|190:338|190:282|264:312,1,136,2|2,0:0|0:0,0:0:0:0:
328,360,208056,1,0,0:0:0:0:
376,288,208215,2,0,P|380:252|376:216,1,68,2|0,0:0|0:0,0:0:0:0:
240,216,208535,6,0,P|236:180|240:144,2,68,2|0|2,0:0|0:0|0:0,0:0:0:0:
280,84,209013,1,0,0:0:0:0:
192,88,209173,2,0,P|120:84|72:32,1,136,2|2,0:0|0:0,0:0:0:0:
76,41,209652,1,0,0:0:0:0:
28,144,209811,6,0,L|36:216,1,68,2|0,0:0|0:0,0:0:0:0:
68,292,210130,2,0,B|136:304|136:304|212:288,1,136,2|2,0:0|0:0,0:0:0:0:
288,272,210609,1,0,0:0:0:0:
288,272,210769,2,0,L|280:344,1,68,2|0,0:0|0:0,0:0:0:0:
380,256,211088,6,0,L|352:180,1,76.4999976654053,2|0,0:0|0:0,0:0:0:0:
404,96,211407,2,0,L|341:44,1,76.4999976654053,2|0,0:0|0:0,0:0:0:0:
252,84,211726,2,0,P|168:96|84:64,1,152.999995330811,2|2,0:0|0:0,0:0:0:0:
28,16,212205,1,0,0:0:0:0:
44,144,212364,6,0,P|52:184|44:240,1,76.4999976654053,2|0,0:0|0:0,0:0:0:0:
168,268,212684,2,0,P|152:188|168:104,1,152.999995330811,2|2,0:0|0:0,0:0:0:0:
252,84,213162,1,0,0:0:0:0:
348,116,213322,2,0,L|424:88,1,76.4999976654053,2|0,0:0|0:0,0:0:0:0:
488,160,213641,6,0,L|416:186,1,76.4999976654053
335,243,213960,2,0,P|375:159|335:107,1,152.999995330811,0|8,0:0|0:0,0:0:0:0:
252,84,214439,1,8,0:0:0:0:
419,89,214598,1,8,0:0:0:0:
236,112,214758,1,10,0:0:0:0:
256,340,214918,6,0,L|164:332,1,76.4999976654053,6|0,0:0|0:0,0:0:0:0:
179,333,215157,1,0,0:0:0:0:
179,333,215237,1,0,0:0:0:0:
335,243,215396,6,0,B|352:352|352:352|368:280,1,170,4|0,0:0|0:0,0:0:0:0:
320,172,215875,1,2,0:0:0:0:
472,164,216035,6,0,L|428:364,1,191.250007295609,4|0,0:0|0:0,0:0:0:0:
